#TITLE:Eclipse;
#SUBTITLE:(Solar);
#ARTIST:Glome;
#TITLETRANSLIT:;
#SUBTITLETRANSLIT:;
#ARTISTTRANSLIT:;
#CREDIT:;
#BANNER:bn.png;
#BACKGROUND:bg.png;
#LYRICSPATH:;
#CDTITLE:cdtitle.png;
#MUSIC:eclipse_solar.ogg;
#OFFSET:-0.020;
#SAMPLESTART:74.186;
#SAMPLELENGTH:12.000;
#SELECTABLE:YES;
#BPMS:0.000=165.000;
#STOPS:;
#BGCHANGES:;

//---------------dance-single - ----------------
#NOTES:
     dance-single:
     :
     Hard:
     8:
     0.514,0.564,0.061,0.286,0.013:
0000
0000
0000
0000
,
0000
0000
0000
0000
,
0000
0000
0000
0000
,
0000
0000
0000
0000
,
0200
1000
0000
1300
,
0200
0001
0000
0301
,
0020
1000
0000
1030
,
0020
0001
0000
0031
,
0010
0001
1000
0001
1000
0001
1000
0001
,
0100
0010
0100
0001
,
0010
0100
0010
0100
0010
0100
0010
0100
,
1000
0001
0100
0010
,
1000
0000
0100
0000
1000
0010
0100
0000
,
0010
1000
0100
0001
,
1000
0010
0001
0100
,
1000
0010
0100
0001
1000
0100
0010
0100
,
1000
0100
0010
0001
1000
0010
0100
0000
,
0010
1000
0100
1000
0001
1000
0010
1000
,
0100
0010
0100
1000
0100
0001
0100
0010
,
0002
0203
0302
2003
,
3200
0320
1030
1001
,
0100
0001
0100
0001
0000
0001
0100
0001
,
0001
0100
0000
0001
0100
0000
0010
0000
,
1000
0100
1000
0100
0000
0100
1000
1000
,
0000
0100
1000
0000
1000
0100
0000
0010
,
0002
2003
3200
0320
,
0032
0203
0302
0023
,
0130
0100
0100
0100
0020
0000
0031
0000
,
1000
0010
0000
0000
0010
1000
0000
0000
1000
0100
0000
0000
1001
0000
0000
0000
,
0200
1000
0320
0001
,
0230
0010
0302
1000
,
0203
1000
0320
0001
,
2030
0100
3002
1003
,
0010
0100
0010
0100
0010
0100
0010
0000
,
1000
0100
1000
0001
0000
0001
0010
0000
,
0001
0100
0001
1000
0000
1000
0100
0000
,
1000
0010
1000
0001
0000
0001
0100
0000
,
0001
0010
0001
1000
0000
1000
0010
1000
,
0100
0100
0010
0001
0000
1000
0010
0000
,
0100
0100
0010
1000
0000
0001
0010
0000
,
1000
0100
0010
0001
0000
0001
1000
0000
,
0010
0100
0010
0100
0010
0100
0010
0000
,
1000
0000
0001
0000
,
0100
0000
0000
0000
0000
1001
0000
0000
,
0100
0000
1000
0000
,
0001
0100
0100
0100
,
0010
0000
0001
0000
,
0100
0000
1001
0000
,
0100
0000
1000
0000
,
0010
0000
0001
0000
,
0010
0000
0100
1000
0100
1000
0001
0000
,
0100
0000
0010
0000
1000
0000
0001
0010
,
0000
0001
0100
0000
0000
0010
1000
0100
,
1000
0001
0000
0100
0000
0000
0000
0010
,
0000
1000
0000
0001
0000
0100
0000
0001
,
0010
0000
0100
0000
1000
0001
0100
0000
,
0001
0000
0010
0000
0001
1000
0100
0000
,
2000
0000
3020
0000
,
2030
0000
3200
0000
,
1300
0010
0100
0010
1000
0100
1000
0010
,
0100
0010
1000
0100
1000
0010
0100
1000
,
0100
0010
0001
0100
0010
0100
0001
0010
,
0001
0100
0010
0100
0001
0010
0001
0100
,
0001
1000
0010
1000
0100
1000
0001
1000
,
0010
1000
0100
1000
0001
1000
0010
0100
,
0001
0001
0000
0010
0010
0000
0100
0100
,
0000
1000
1000
0000
0010
0010
0000
0001
,
0001
0000
0100
0100
0000
0010
1000
1000
,
0000
0100
0100
0000
0010
0010
0000
0100
,
0100
0001
0001
0000
1000
1000
0000
0110
,
0000
0110
0000
1000
0100
0100
0000
0001
,
0010
0010
0000
1000
1000
0000
0010
0010
,
0000
0100
0100
0000
1000
1000
0000
0010
,
0000
0001
0100
0001
0010
0100
1000
0010
,
0100
1000
0001
0100
0010
0001
0100
1000
,
0010
0100
0001
1000
0100
2002
0000
0000
,
0000
0000
3003
0000
;

//---------------dance-single - Copied from----------------
#NOTES:
     dance-single:
     Copied from:
     Medium:
     6:
     0.463,0.564,0.087,0.260,0.000:
0000
0000
0000
0000
,
0000
0000
0000
0000
,
0000
0000
0000
0000
,
0000
0000
0000
0000
,
0200
0010
0000
0310
,
0002
1000
0000
1003
,
0200
0010
0000
0310
,
2000
0001
0000
3001
,
0010
0010
0010
0010
,
0001
0010
0100
1000
,
0010
0100
0010
0100
0010
0100
0010
0100
,
0002
1003
0200
0310
,
0001
0000
0100
0000
0001
1000
0001
0000
,
0010
0001
0100
0010
,
1000
0100
0010
0001
,
1000
0010
1000
0000
0001
0100
0001
0000
,
1010
0000
0011
0000
0100
0010
0100
0000
,
0001
0000
1000
0000
0010
0001
0010
0000
,
1000
0000
0001
0000
0010
1000
0010
0000
,
0002
2003
3002
0203
,
0320
0230
0301
1001
,
0010
0000
0100
0001
0000
0001
0100
0000
,
0001
0010
0100
1001
,
0010
0000
0100
1000
0000
1000
0100
0000
,
0010
1000
0001
0100
,
0002
1003
0200
0310
,
0002
0103
2000
3010
,
0100
0100
0100
0000
0002
0000
1003
0000
,
1100
0101
0110
1001
,
0200
0010
0320
0001
,
0032
1000
2003
0010
,
3020
0100
0230
0001
,
0302
1000
2003
3001
,
0010
0100
0010
0000
0010
0100
0010
0000
,
1000
0000
1000
0010
0000
1000
0100
0000
,
0001
0000
0001
0010
0000
0001
0100
0000
,
1000
0000
1000
0010
0000
0001
0100
0000
,
0001
0000
0001
0010
0000
1000
0100
0000
,
1000
0000
0001
0010
0000
1000
0010
0000
,
0001
0000
1000
0010
0000
0001
0010
0000
,
1000
0000
0001
1000
0000
0100
0010
0000
,
0100
0010
0100
0000
0100
0010
0100
0000
,
1000
0000
0001
0000
,
0100
0000
0000
0000
0000
1001
0000
0000
,
0100
0000
1000
0000
,
0001
0100
0100
0100
,
0010
0000
0001
0000
,
0100
0000
1001
0000
,
0100
0000
1000
0000
,
0010
0000
0001
0000
,
0010
0000
0001
1000
0001
1000
0001
0000
,
0100
0000
0010
0000
1000
0000
0001
0100
,
0000
0001
0100
0000
0010
0000
1000
0100
,
0000
0010
0000
0100
0000
0000
0000
1000
,
0000
0100
0000
1000
0000
0100
0000
1000
,
0010
0000
0100
0000
0001
1000
0100
0000
,
0010
0000
0100
0000
1000
0001
0100
0000
,
0002
0003
0020
0030
,
2000
3000
0200
0300
,
1000
0010
1000
0010
1000
0010
0100
0001
,
0100
0001
0100
0001
0010
0001
0010
0001
,
0010
0001
1000
0100
1000
0100
1000
0100
,
0010
0100
0010
0100
0010
0100
1000
0001
,
1000
0001
1000
0001
0100
0010
0100
0010
,
0100
0010
1000
0001
1000
0001
0010
0000
,
0001
0100
0000
0100
0010
0000
0010
1000
,
0000
1000
0100
0000
0100
0010
0000
0010
,
0001
0000
0001
1000
0000
1000
0001
1000
,
0000
1000
0100
0000
0100
0010
0000
0010
,
0001
0100
0010
0000
0010
1000
0000
0001
,
0000
0001
0000
1000
0100
1000
0000
0001
,
0010
0001
0000
0001
0100
0000
0100
0010
,
0000
0010
1000
0000
1000
0100
0000
0010
,
0000
0001
0100
0010
1000
0000
1000
0100
,
0010
0000
0010
0001
0100
0000
0100
0001
,
1000
0000
1000
0000
0100
0020
0000
0000
,
0000
0000
0030
0000
;

//---------------dance-single - Copied from Copied from----------------
#NOTES:
     dance-single:
     Copied from Copied from:
     Easy:
     4:
     0.307,0.365,0.121,0.095,0.000: // measure 1
0000
0000
0000
0000
,  // measure 2
0000
0000
0000
0000
,  // measure 3
0000
0000
0000
0000
,  // measure 4
0000
0000
0000
0000
,  // measure 5
0200
0000
0000
0300
,  // measure 6
0002
0000
0000
0003
,  // measure 7
0200
0000
0000
0300
,  // measure 8
2000
0000
0000
3000
,  // measure 9
0001
0000
0001
0000
,  // measure 10
1000
0000
1000
0000
,  // measure 11
0010
0010
0010
0010
,  // measure 12
1000
1000
0010
0010
,  // measure 13
1000
0100
1000
0100
,  // measure 14
0001
0001
0010
0010
,  // measure 15
0001
0100
0001
0100
,  // measure 16
1000
0000
0001
0000
,  // measure 17
0010
0100
1001
0000
,  // measure 18
0001
1000
0010
0010
,  // measure 19
1000
0001
0010
0010
,  // measure 20
0001
0000
1000
0000
,  // measure 21
0010
0000
1001
0000
,  // measure 22
0010
0100
0000
0100
,  // measure 23
0001
0010
0001
1000
,  // measure 24
0010
0100
0000
0100
,  // measure 25
1000
0010
1000
0001
,  // measure 26
0020
0030
0200
0300
,  // measure 27
0002
0003
2000
3000
,  // measure 28
0100
0100
2002
3003
,  // measure 29
1000
0001
0000
1001
,  // measure 30
0010
0010
0001
0001
,  // measure 31
1000
1000
0010
0010
,  // measure 32
0100
0100
0001
0001
,  // measure 33
1000
1000
0010
1001
,  // measure 34
0010
0010
0010
0010
,  // measure 35
1000
1000
0000
0100
,  // measure 36
0001
0001
0000
0100
,  // measure 37
1000
1000
0000
0100
,  // measure 38
0001
0001
0000
0100
,  // measure 39
1000
0001
0000
0010
,  // measure 40
0001
1000
0000
0010
,  // measure 41
1000
0001
0000
0010
,  // measure 42
0100
0100
0100
0100
,  // measure 43
1000
0000
0001
0000
,  // measure 44
0100
0000
1001
0000
,  // measure 45
0001
0000
1000
0000
,  // measure 46
0100
0100
0100
0100
,  // measure 47
0010
0000
0001
0000
,  // measure 48
0100
0000
1001
0000
,  // measure 49
0010
0000
1000
0000
,  // measure 50
0100
0000
1001
0000
,  // measure 51
0010
0001
0000
1000
,  // measure 52
0100
0010
0001
1000
,  // measure 53
0001
0100
0010
0100
,  // measure 54
0001
1000
0100
0010
,  // measure 55
0001
0100
0001
0010
,  // measure 56
0100
1000
0001
0100
,  // measure 57
0010
0100
1000
0100
,  // measure 58
0001
0000
0010
0000
,  // measure 59
1000
0000
0100
0000
,  // measure 60
1000
1000
1000
0100
,  // measure 61
0100
0100
0010
0010
,  // measure 62
0010
0001
0001
0001
,  // measure 63
0100
0100
0100
0010
,  // measure 64
0010
0010
1000
1000
,  // measure 65
1000
0100
0100
0100
,  // measure 66
1000
0000
0000
0100
0000
0000
0010
0000
,  // measure 67
0000
1000
0000
0000
0100
0000
0000
0010
,  // measure 68
0000
0000
0001
0000
0000
1001
0000
1001
,  // measure 69
0000
0010
0000
0000
0100
0000
0000
0110
,  // measure 70
0000
0110
0000
0000
0010
0000
0000
0100
,  // measure 71
0000
0100
0000
1000
0000
1000
0000
0001
,  // measure 72
0000
0001
0000
0001
0000
0000
0100
0000
,  // measure 73
0000
0010
0000
0000
1000
0000
0000
0010
,  // measure 74
0000
1001
0000
1001
0000
0000
1000
0000
,  // measure 75
0010
0001
0100
1000
,  // measure 76
0010
0001
0100
0020
,  // measure 77
0000
0000
0030
0000
;
