#TITLE:DoLL;
#SUBTITLE:Full Version;
#ARTIST:TER„`A;
#TITLETRANSLIT:;
#SUBTITLETRANSLIT:;
#ARTISTTRANSLIT:TERRA;
#CREDIT:;
#BANNER:doll-full-bn.png;
#BACKGROUND:doll-full-bg.png;
#LYRICSPATH:;
#CDTITLE:cdtitle.png;
#MUSIC:DoLL -Full Ver-.ogg;
#OFFSET:-0.908;
#SAMPLESTART:21.500;
#SAMPLELENGTH:12.000;
#SELECTABLE:YES;
#BPMS:0.000=125.600,26.000=115.000,28.000=125.600,40.000=85.000,57.500=170.000,153.500=85.000,161.500=170.000,305.500=85.000,313.500=170.000,361.500=85.000,393.500=170.000,398.500=340.001,412.500=85.000,428.500=170.000,620.500=85.000,654.250=170.000;
#STOPS:40.000=1.500
;
#BGCHANGES:;

//---------------dance-single - ----------------
#NOTES:
     dance-single:
     :
     Challenge:
     9:
     0.630,0.839,0.428,0.598,0.096:
1000
0100
1000
0100
0010
0100
0010
0100
,
1000
0010
1000
0010
0100
0010
0100
0010
,
1000
0100
0010
0001
1000
0010
0100
0001
,
1000
0010
0100
0001
2002
0000
3003
0000
,
0001
0010
0100
1000
0001
0100
0010
1000
,
0001
0010
0100
1000
0001
0100
0010
1000
,
0001
1000
0010
0100
0010
1000
0001
0100
,
0020
0000
0000
0000
,
0230
0000
0000
0300
,
2002
0000
0000
3003
,
0000
0000
1000
0100
1000
0001
0020
0000
0000
0032
0000
0000
0003
0000
2000
0000
,
0000
3020
0000
0030
0010
0000
0200
0000
0000
0000
0000
0000
0000
0000
0000
0000
,
0300
0000
0002
0000
2003
0000
3020
0000
0000
0002
0000
0003
0001
0000
0130
0000
,
0000
0020
0000
0030
0010
0000
0200
0000
0000
0010
0020
0000
0000
0000
0000
0000
,
0330
0002
2003
3001
0010
0100
0010
0001
,
0100
0010
0000
1000
0100
0010
0001
0100
,
0010
1000
0000
0001
0010
0001
1000
0100
,
1000
0001
0000
1000
0010
1000
0100
0001
,
0100
1000
0000
0001
0100
0010
1000
0000
,
0000
0002
0000
0023
0000
0230
0000
2300
,
0000
3020
0000
0230
0000
0000
0001
0301
,
0000
0100
0010
0100
0001
0010
0100
1000
,
0100
0010
0001
0000
1000
0100
1000
0010
,
0100
0010
1000
0000
0001
0001
0200
0000
,
0000
0000
0000
0300
0010
0010
0010
0100
,
0010
0000
1000
0000
0001
0000
0000
0000
0000
0000
0000
0000
1000
0001
1000
0000
,
0000
0010
0000
1000
0100
0010
0001
0100
,
0010
1000
0100
1000
0010
0100
0001
0010
,
0100
1000
0000
0000
0010
0010
0010
1000
,
0100
0010
0001
0000
0000
0200
0000
0320
,
0000
2030
0000
3001
0010
0100
0010
0001
,
0100
0010
0100
0001
0010
1000
0010
0001
,
0100
1000
0100
0010
1000
0100
0010
0001
,
0100
0020
0000
2030
0000
3200
0000
0320
,
0000
0230
0000
1300
0010
0100
0001
0010
,
0100
2000
0000
3020
0000
0032
0000
0023
,
0000
2030
0000
0002
0000
0000
0000
0000
,
0000
0000
3003
0000
0000
0000
1100
0000
0000
0101
0000
0000
0010
0000
0010
0000
,
0100
0000
0010
0000
1000
0000
0002
0000
0000
0020
0000
0000
0033
0000
2000
0000
,
0000
0020
3030
0000
2000
0000
0200
0000
0000
0000
0000
0000
3300
0000
2002
0000
,
3003
0200
0320
0031
0100
1000
0100
0001
,
0010
0100
1000
0010
0100
0001
0010
0001
,
0100
0010
1000
0001
0010
0100
1000
0001
,
0010
0100
1000
0010
0010
0010
0000
2002
,
3003
0220
0330
1000
0100
1000
0001
0010
,
0001
0100
0010
1100
0000
1001
0000
0011
,
0000
0110
0000
0001
0100
0001
1000
0010
,
1000
0100
0010
0101
0000
1001
0000
1010
,
0000
0110
0000
1000
0100
0001
1000
0010
,
0000
0101
0000
0011
0000
1100
0000
1010
,
0000
1001
0000
0210
0000
0000
0010
0020
,
0000
0000
0000
0000
,
0000
0330
0000
2200
0000
3300
1000
0100
,
0010
0000
0110
0000
0011
0000
0001
0100
,
0000
1001
0000
0202
0000
0303
0001
0100
,
0010
0000
0110
0000
1000
0000
1000
0100
,
0000
1001
0000
0010
0100
1000
0010
0100
,
1000
0100
0000
0010
1000
0100
0001
0100
,
0010
0001
0000
1000
0100
0010
0001
1000
,
0010
0100
0010
1000
0100
0010
0001
0100
,
0010
0010
0000
0000
0001
0010
0001
0100
,
0010
0100
0001
0000
1000
1000
0020
0000
,
0000
0000
0000
0030
0100
0100
0100
0010
,
0100
0000
0001
0000
1000
0000
0000
0000
0000
0000
0000
0000
0001
1000
0001
0000
,
0000
0100
0000
0001
0010
0100
1000
0010
,
0100
0001
0010
0001
0100
0010
1000
0100
,
0010
0001
0000
0000
0100
0100
0100
0001
,
0010
0100
1000
0000
0000
0020
0000
0230
,
0000
0302
0000
1003
0100
0010
0100
1000
,
0010
0100
0010
1000
0100
0001
0100
1000
,
0010
0001
0010
0100
0001
0010
0100
1000
,
0010
0200
0000
0302
0000
0023
0000
0230
,
0000
0320
0000
0031
0100
0010
1000
0100
,
0010
0002
0000
0203
0000
2300
0000
3200
,
0000
0302
0000
2000
0000
0000
0000
0000
,
0000
0000
3003
0000
0000
0000
0011
0000
0000
1010
0000
0000
0100
0000
0100
0000
,
0010
0000
0100
0000
0001
0000
2000
0000
0000
0200
0000
0300
3100
0000
0002
0000
,
0000
0200
0303
0000
0002
0000
0020
0000
0000
0000
0000
0000
0033
0000
2002
0000
,
3003
0020
0230
1300
0010
0001
0010
1000
,
0100
0010
0001
0100
0010
1000
0100
1000
,
0010
0100
0001
1000
0100
0010
0001
1000
,
0100
0010
0001
0100
0100
0100
0000
2002
,
3003
0220
0330
0001
0010
0001
1000
0100
,
1000
0010
0100
0011
0000
1001
0000
1100
,
0000
0110
0000
1000
0010
1000
0001
0100
,
0001
0010
0100
1010
0000
1001
0000
0101
,
0000
0110
0000
0001
0010
1000
0001
0100
,
0000
1010
0000
1100
0000
0011
0000
0101
,
0000
1001
0000
0120
0000
0000
0100
0200
,
0000
0000
0000
0000
,
0000
0330
0000
1000
0001
0100
1000
0010
,
0100
0001
1000
0001
1000
0010
0001
0100
,
0010
1000
0001
0001
1000
0010
0001
0100
,
0010
1000
0001
1000
0001
0100
1000
0010
,
0100
0000
0001
0000
1000
0000
0001
0100
0001
0000
1000
0000
0010
0000
1000
0100
,
1000
0000
0001
0000
0010
0000
0100
1000
0100
0000
0010
0000
0001
0000
0100
0001
,
0100
0000
0010
0000
1000
0000
0010
1000
0001
1000
0100
0000
0000
0000
0010
0001
,
1000
0001
0100
0000
0000
0000
0001
0100
0010
0100
1000
0000
0000
0000
1000
0100
,
0010
0100
0001
0000
0000
0000
2002
0000
0000
0000
0000
0000
0000
0000
0000
0000
,
0000
0000
0000
0000
,
0000
0000
0000
0000
,
0000
0000
0000
0000
,
0000
0000
0000
0000
0000
3003
0000
0000
,
0000
0000
0020
0000
0000
0200
0000
0000
0330
0000
2000
0000
0000
3002
0000
0000
,
0013
0000
0110
1000
0100
0010
0000
0001
0100
0010
1000
0000
0000
0000
0200
0000
,
0302
0000
0023
0000
0000
2000
0030
0000
3002
0000
0023
0000
0000
0032
0000
0000
,
2003
0000
3020
0000
0000
0100
0200
0000
0330
0000
1000
1000
1000
0000
0001
0001
,
0001
0010
1000
0100
2200
0000
3300
1001
,
0000
0010
0001
0100
0202
0000
0303
1001
,
0000
1001
0000
0120
0000
1000
0000
0001
,
0000
0130
0000
1000
0001
0220
0330
2002
,
3003
1000
0100
0010
0001
1000
0100
0100
,
0000
0001
0100
0010
1000
0001
0100
0100
,
0000
0010
0100
0001
0010
0100
1000
0010
,
0100
0010
1000
1000
0000
2200
3300
0022
,
0033
1000
0010
0100
0001
0010
0100
1000
,
0010
0101
0000
1001
0000
1100
0000
1001
,
0000
0001
0010
0100
1000
0001
0100
1000
,
0100
0011
0000
1001
0000
0110
0000
1100
,
0000
0010
0100
0001
1000
0000
0000
2100
,
0000
3020
0000
0032
0000
0203
0000
1300
,
0000
1010
0000
0000
0110
0000
0000
0101
,
0000
2002
0000
3003
0000
0202
0303
2020
,
3030
1000
0100
0001
0100
1000
0010
0001
,
0010
1100
0000
1001
0000
1010
0000
0101
,
0000
0001
0100
0010
1000
1000
0100
0010
,
0001
0110
0000
1100
0000
0110
0000
1010
,
0000
0100
0001
0010
1000
0000
0000
0210
,
0000
0302
0000
0023
0000
2030
0000
3100
,
0000
1002
0000
0010
0000
0100
0000
2003
,
0000
0010
0000
3001
0000
0010
0100
0010
,
0100
1000
0010
0100
0001
0010
0100
1001
,
0000
0001
0010
0100
1000
0010
0100
1001
,
0000
0001
0100
1000
0000
0001
0010
1000
,
0000
0001
0100
1000
0100
0001
0000
1001
,
0000
0001
0010
0100
1000
0010
0100
1001
,
0000
1000
0010
0100
0001
0010
0100
1001
,
0000
1000
0100
0001
0000
1000
0010
0001
,
0000
1000
0100
0001
0100
1000
0000
1001
,
0000
0010
0001
0010
0100
1000
0100
0010
,
0001
1100
0000
0101
0000
0011
0000
1010
,
0000
0010
1000
0010
0100
0001
0100
0010
,
1000
0101
0000
1100
0000
1010
0000
0011
,
0000
1000
0010
0001
0100
0000
0000
2010
,
0000
3200
0000
0302
0000
0023
0000
0130
,
0000
0210
0000
0001
0000
1000
0000
0320
,
0000
1000
0000
0001
0000
0100
0000
0130
,
0000
1010
0000
1001
0000
0001
0010
0100
,
1000
0000
0110
0000
0001
0100
0000
0101
,
0000
0011
0000
1001
0000
1000
0010
0100
,
0001
0000
0110
0000
1000
0100
0000
1100
,
0000
0101
0000
1001
0000
1000
0100
0010
,
0001
0000
0110
0000
1000
0010
0000
1010
,
0000
1100
0000
1001
0000
0001
0100
0010
,
1000
0000
0110
0000
0001
0010
0000
0011
,
0000
2000
3200
0302
0203
0320
0032
0103
,
0110
0002
0203
2300
3200
0320
2030
3100
,
0110
0000
1000
0100
0010
0000
0010
0100
0001
0000
0001
0010
0100
0000
0100
0010
,
1000
0000
1000
0010
0100
0000
0100
0010
0001
0000
0001
0100
0010
0000
0010
0100
,
1000
0200
0302
0023
2030
3020
0032
0103
,
1001
0200
2300
3020
0032
0023
2030
3100
,
1001
0000
0010
0100
1000
0000
0010
0100
0001
0000
0100
0010
0001
0000
0100
0010
,
1000
0000
0010
0100
0001
0000
0010
0100
1000
0000
0100
0010
0001
0000
0100
0010
,
1000
2002
0000
0000
3003
0000
0000
0000
;
