#TITLE:DYNAMITE RAVE;
#SUBTITLE:;
#ARTIST:NAOKI;
#TITLETRANSLIT:;
#SUBTITLETRANSLIT:;
#ARTISTTRANSLIT:;
#CREDIT:;
#BANNER:bn.png;
#BACKGROUND:;
#LYRICSPATH:;
#CDTITLE:cdtitle.png;
#MUSIC:Dynamite Rave (2009 Version).mp3;
#OFFSET:-0.320;
#SAMPLESTART:40.000;
#SAMPLELENGTH:12.000;
#SELECTABLE:YES;
#BPMS:0.000=150.000;
#STOPS:;
#BGCHANGES:;

//---------------dance-single - ----------------
#NOTES:
     dance-single:
     :
     Hard:
     10:
     0.513,0.549,0.326,0.063,0.158: // measure 1
0000
0000
0000
0000
,  // measure 2
0000
0000
0000
0000
,  // measure 3
0000
0000
0000
0000
,  // measure 4
0000
0000
0000
0000
,  // measure 5
0010
0000
0001
0000
0100
0010
0100
0001
,  // measure 6
1000
0000
0100
0000
1000
0010
0100
0001
,  // measure 7
1000
0100
1000
0000
0001
0010
0001
0000
,  // measure 8
0100
0000
0001
0000
1000
0001
0010
0100
,  // measure 9
0010
0000
0000
0000
,  // measure 10
1000
0000
0010
0000
0001
0100
0010
1000
,  // measure 11
0001
0000
1100
0000
0010
0001
0100
0000
,  // measure 12
1010
0100
0011
0100
,  // measure 13
0010
0000
0100
0000
1000
0001
1000
0000
,  // measure 14
0100
1001
0100
1001
,  // measure 15
0010
1001
0010
1001
,  // measure 16
0100
0000
1100
0000
0001
0001
0100
0010
,  // measure 17
1000
0001
0100
0100
1000
0001
0010
0000
,  // measure 18
0100
0000
0000
0000
0010
0000
0000
0000
0001
0000
0000
0010
0100
0000
0010
0000
,  // measure 19
0001
0000
0000
0000
0100
0000
0000
0010
0000
0010
0100
0000
1000
0000
0100
0000
,  // measure 20
0010
0000
1000
0000
0100
0010
0001
0010
,  // measure 21
0100
0000
0000
0000
1000
0010
0000
0010
0000
0100
0000
0100
0001
0000
0010
0000
,  // measure 22
0100
0000
0000
0000
0010
0000
0000
0000
1000
0000
0000
0010
0100
0000
0010
0000
,  // measure 23
1000
0000
0000
0000
0100
0000
0000
0010
0000
0010
0100
0000
0001
0000
0100
0000
,  // measure 24
0010
0000
0001
0000
0100
0010
1000
0010
,  // measure 25
0100
0000
0110
0000
0001
0001
0001
0001
,  // measure 26
1001
0010
1010
0100
,  // measure 27
0010
0000
1000
0000
0000
0000
0100
0000
0010
0000
0001
0000
0100
0000
0000
0100
,  // measure 28
0010
0000
0000
0000
1000
0000
0000
0000
0010
0000
0000
0000
0001
0000
0000
1000
,  // measure 29
0100
0010
0001
1000
0010
0010
0100
0000
,  // measure 30
1001
0000
0010
0000
0011
0000
0100
1000
,  // measure 31
0010
0000
0001
0000
0000
0010
0100
0000
0010
0000
1000
0000
0100
0000
0000
0100
,  // measure 32
1000
0001
0101
0000
0010
1000
1100
0000
,  // measure 33
1001
0110
1001
0000
,  // measure 34
0100
0010
0000
0100
0000
0001
0000
1000
,  // measure 35
0000
0001
0000
0100
0000
1000
0000
0100
,  // measure 36
0000
0001
0000
1000
0000
0010
0000
0100
,  // measure 37
0020
2030
3002
0103
,  // measure 38
1000
0001
0000
0010
0000
0001
0100
1000
,  // measure 39
0000
0001
0000
1000
0000
0010
0001
0100
,  // measure 40
0000
0001
0000
0100
0000
1000
0100
1000
,  // measure 41
0020
0032
0203
0310
,  // measure 42
0100
0000
0000
0000
0010
0000
0000
0000
1000
0000
0000
0010
0100
0000
0010
0000
,  // measure 43
1000
0000
0000
0000
0100
0000
0000
0010
0000
0010
0100
0000
0001
0000
0100
0000
,  // measure 44
0010
0000
0001
0000
0100
0010
1000
0010
,  // measure 45
0100
0000
0000
0000
0001
0010
0000
0010
0000
0100
0000
0100
1000
0000
0010
0000
,  // measure 46
0100
0000
0000
0000
0010
0000
0000
0000
0001
0000
0000
0010
0100
0000
0010
0000
,  // measure 47
0001
0000
0000
0000
0100
0000
0000
0010
0000
0010
0100
0000
1000
0000
0100
0000
,  // measure 48
0010
0000
1000
0000
0100
0010
0001
0010
,  // measure 49
0100
0000
0110
0000
1000
1000
1000
1000
,  // measure 50
1001
0010
0011
0100
,  // measure 51
0010
0000
0001
0000
0000
0000
0100
0000
0010
0000
1000
0000
0100
0000
0000
0100
,  // measure 52
0010
0000
0000
0000
0001
0000
0000
0000
0010
0000
0000
0000
1000
0000
0000
0001
,  // measure 53
0100
0010
1000
0001
0010
0010
0100
0000
,  // measure 54
1001
0000
0010
0000
1010
0000
0100
0001
,  // measure 55
0010
0000
1000
0000
0000
0010
0100
0000
0010
0000
0001
0000
0100
0000
0000
0100
,  // measure 56
1000
0001
0101
0000
0010
1000
1100
0000
,  // measure 57
1001
0110
1001
0000
,  // measure 58
1000
0000
0000
1100
0000
0000
0001
0000
0000
0011
0000
0000
0100
0000
0010
0000
,  // measure 59
0110
0000
0000
0000
;
