#TITLE:Almagest;
#SUBTITLE:;
#ARTIST:Galdeira;
#TITLETRANSLIT:;
#SUBTITLETRANSLIT:;
#ARTISTTRANSLIT:;
#CREDIT:;
#BANNER:bn.png;
#BACKGROUND:bg.png;
#LYRICSPATH:;
#CDTITLE:cdtitle.png;
#MUSIC:Almagest.mp3;
#OFFSET:-3.313;
#SAMPLESTART:64.000;
#SAMPLELENGTH:15.000;
#SELECTABLE:YES;
#BPMS:0.000=356.000;
#STOPS:76.500=0.080
,77.000=0.080
;
#BGCHANGES:;

//---------------dance-single - ----------------
#NOTES:
     dance-single:
     :
     Hard:
     16:
     0.981,1.000,0.499,0.329,0.000:
0000
0000
0000
0000
,
0000
0000
0000
0000
,
0000
0000
0000
0000
,
0000
0000
0000
0000
,
0000
0000
0000
0000
,
0000
0000
0000
0000
,
0000
0000
0000
0000
,
0000
0000
0000
0000
,
0001
0010
0001
0100
,
0010
1000
0100
0010
,
0001
1000
0100
0001
,
0100
1000
0010
0100
,
0001
0010
0100
0010
0001
0100
0010
1000
,
0100
0010
0100
1000
0010
0100
0001
1000
,
2020
0000
3030
0202
,
0000
0303
0220
0330
,
1000
0100
0010
0001
1000
0010
0100
0001
,
1000
0010
1000
0010
0100
0001
1000
0001
,
0100
0001
0100
0001
1000
0100
0010
0001
,
0100
0100
0101
1100
0000
0000
0001
0000
,
0010
0101
0010
1000
,
0100
1010
0100
1000
,
0010
1100
0010
0001
,
0100
0011
0100
1000
,
0100
0001
0100
1000
,
0010
0100
1000
0001
,
0010
0010
1100
0001
,
0100
0100
1010
1000
,
0100
1010
0100
0001
,
0010
0101
0010
0001
,
0100
0011
0100
1000
,
0010
1100
0010
0001
,
0010
1000
0010
0001
,
0100
0010
0001
1010
,
0110
0000
0000
0000
0101
0000
0001
0010
,
0001
0000
1000
0010
1000
0000
0001
0000
,
0010
0100
0011
1000
,
0100
0010
1100
1000
,
0010
0100
1010
0001
,
0100
0010
0101
0010
,
1000
0100
0001
0010
,
1000
0100
0110
0000
,
1001
0000
0000
0000
1100
0000
0010
0001
,
1000
0000
0011
1000
,
0100
0010
0001
1000
,
0010
0001
0011
0001
,
0010
0100
1000
0001
,
0010
1000
1010
0100
,
0100
0100
0100
0010
,
0010
0000
0010
0000
0010
0000
1000
0100
,
1000
0010
0100
0001
0010
0100
1000
0001
,
0100
0001
1000
0100
0010
0000
2000
0000
,
0000
0000
0020
3000
,
0000
0131
0000
0011
,
0011
0000
1000
0100
0010
0000
0100
0010
,
0100
0000
0001
1000
0100
0000
0010
0100
,
1000
0001
0100
0001
1000
0000
0010
0000
,
0001
0100
0010
0000
0000
0000
1010
0000
,
1010
0000
0001
0010
0100
0000
1000
0001
,
1000
0000
0010
0100
1000
0000
0010
1000
,
0001
1000
0100
1000
0001
0000
0100
0000
,
1000
0100
0001
0000
0000
0000
0101
0000
,
0101
0000
1000
0010
0100
0000
0010
0100
,
0010
0000
0001
1000
0010
0000
0100
0010
,
1000
0001
0010
0001
1000
0000
0100
0000
,
0001
0010
0100
0000
0000
0000
0010
0100
,
0010
0100
1000
0000
0001
0100
0000
0010
,
1000
0000
0100
0000
1000
0010
0200
0000
,
0000
0000
0020
0300
,
0000
1031
0000
0110
,
0110
0000
0001
0010
0001
0000
1000
0001
,
0100
0000
0010
0100
1000
0000
0001
0100
,
0010
1000
0001
0010
0100
1000
0001
1000
,
0010
0100
0010
0000
0000
0000
0110
0000
,
0110
0000
1000
0010
1000
0000
0001
1000
,
0100
0000
0010
0100
0001
0000
1000
0100
,
0010
0001
1000
0010
0100
0001
1000
0001
,
0010
0100
0010
0000
0000
0000
1001
0000
,
1001
0000
0100
0001
0010
0000
0100
1000
,
0100
0000
1000
0010
0100
0000
0001
0010
,
0100
1000
0001
0010
0100
1000
0001
0000
,
1000
0000
0010
0100
0010
0000
1000
0100
,
0010
0100
0010
0001
0100
0010
1000
0100
,
1000
0010
0100
0001
0010
0100
0010
0001
,
0100
0010
1000
0100
0010
0001
0100
0001
,
0010
0100
0010
0001
1000
0001
2000
0000
,
0000
0000
0020
0000
0000
3000
0200
0000
,
0030
0000
0002
0000
0303
0000
0001
0010
,
0100
1000
0001
0010
0100
1000
0001
0100
,
0010
1000
0001
0100
0010
0000
0200
0000
,
0001
0000
1000
0000
,
0010
0000
0301
0020
,
0100
0000
0001
0000
,
1000
0000
0130
0002
,
1000
0000
1000
0000
,
0010
0000
0103
2000
,
0010
0000
3001
0020
,
0100
0000
0031
0020
,
1000
0000
0001
0000
,
0100
0000
1030
0200
,
0010
0000
1000
0000
,
0001
0000
0310
2000
,
0001
0000
0001
0000
,
0100
0000
3010
0001
,
0001
0000
0000
0000
0110
0000
1000
0010
,
1000
0000
1001
0002
,
0100
0000
0010
0000
,
1000
0000
0103
0020
,
1000
0000
0100
0000
,
0001
0000
0130
2000
,
0001
0000
0010
0000
,
0010
0000
3100
0000
,
0101
0000
0000
0000
0011
0000
0100
0010
,
1000
0000
1001
2000
,
0010
0000
0100
0000
,
0001
0000
3010
0200
,
0001
0000
0010
0000
,
1000
0000
0310
0002
,
1000
0000
0100
0000
,
0100
0000
0013
1100
,
0000
0000
0001
1000
1000
0000
0110
0000
,
0000
0000
1001
0000
0000
0000
0001
0010
,
0001
0100
0001
0010
0100
1000
0010
0100
,
0001
0010
0100
1000
0010
0100
0001
0010
,
0000
0001
0010
0000
0000
0000
0100
1000
,
0100
1000
0001
0100
0001
0000
1000
0010
,
0100
0001
0010
0100
1000
0001
1000
0000
,
0010
1000
0100
0010
0100
1000
0001
0100
,
0000
0001
0100
0000
0000
0000
1000
0100
,
1000
0010
0100
0010
0100
0000
0001
0010
,
0100
0010
0001
1000
0001
0100
0010
1000
,
0001
0100
0010
1000
0100
0010
0001
0100
,
0001
0010
0100
0010
0001
0100
0020
1000
,
0130
0010
0002
1000
0103
0000
1000
0100
,
0010
0100
1000
0001
1000
0010
0100
0001
,
1000
0010
0100
0001
0010
0100
1000
0010
,
1000
0100
0010
0100
1000
0010
0200
0001
,
0310
0100
2000
0001
3010
0000
0200
0000
,
0000
0000
0000
0300
;

//---------------dance-single - ----------------
#NOTES:
     dance-single:
     :
     Medium:
     14:
     0.738,0.900,0.309,0.269,0.000:
0000
0000
0000
0000
,
0000
0000
0000
0000
,
0000
0000
0000
0000
,
0000
0000
0000
0000
,
0000
0000
0000
0000
,
0000
0000
0000
0000
,
0000
0000
0000
0000
,
0000
0000
0000
0000
,
0001
0010
0001
0000
,
1000
0100
1000
0000
,
0001
0100
0001
0000
,
1000
0010
1000
0000
,
0001
0100
1000
0010
,
0100
0001
0100
0000
0010
1000
0010
0000
,
2000
0000
3000
0200
,
0000
0300
0002
0003
,
1000
0100
0010
0000
0001
0000
0100
0000
,
0010
0001
0100
0001
,
1000
0100
0010
0000
0001
0000
0100
0000
,
0010
0010
0100
0100
0000
0000
0001
0000
,
0000
0101
0000
1000
,
0010
0001
0100
1000
,
0000
1100
0000
0001
,
0010
1000
0100
0010
,
0001
0010
0000
0010
,
1000
0010
0000
0001
,
0010
0001
0100
1010
,
0000
1010
0000
1000
,
0000
1100
0000
0001
,
0010
1000
0100
0001
,
0000
0101
0000
1000
,
0010
0001
0100
0010
,
1000
0010
0000
0010
,
0001
0010
0000
0100
,
0100
0000
1010
0000
,
0011
0000
1000
0001
,
0000
0110
0000
1000
,
0100
1000
0100
0001
,
0000
0110
0000
0001
,
0010
0001
0010
1000
,
0100
0100
0000
0001
,
0010
0010
0100
0000
,
1001
0000
0000
0000
0100
0000
0001
1000
,
0001
0000
0010
1000
,
0100
0010
0001
1000
,
0010
0100
0100
0001
,
0010
0100
1000
0001
,
0100
0010
0010
1000
,
1000
1000
1000
0001
,
0001
0000
0001
0000
0001
0000
1000
0100
,
1000
0000
0001
0100
0001
0000
1000
0100
,
0010
0001
1000
0000
0010
0000
0200
0000
,
0000
0000
0320
0000
,
0030
1001
0000
1001
,
1001
0100
0010
1000
,
0100
0010
0001
0100
,
1000
0000
0100
0000
1000
0000
0010
1000
,
0100
0000
0001
0010
0001
0000
1001
0000
,
1001
0100
0010
0001
,
0100
0010
1000
0100
,
0001
0000
0100
0000
0001
0000
0010
0001
,
0100
0000
1000
0010
1000
0000
0110
0000
,
0110
0010
0100
1000
,
0010
0100
0001
0010
,
1000
0000
0010
0000
1000
0000
0100
1000
,
0010
0000
0001
0100
0001
0000
0010
0100
,
0010
0000
0001
0000
1000
0000
0000
0010
,
0000
0000
0100
0000
1000
0001
2000
0000
,
0000
0000
3002
0000
,
0003
0110
0000
0110
,
0110
0000
0001
0010
0001
0000
1000
0000
,
0100
0000
0010
0100
1000
0000
0001
1000
,
0010
0000
1000
0000
0100
0000
0010
0001
,
0010
0100
0010
0000
0000
0000
0110
0000
,
0110
0000
1000
0010
1000
0000
0001
0000
,
0100
0000
0010
0100
0001
0000
1000
0001
,
0010
0000
0001
0000
0100
0000
0010
1000
,
0010
0100
0010
0000
0000
0000
1001
0000
,
1001
0100
0100
0010
,
0010
1000
0100
0001
,
0010
0001
0010
0100
,
1000
0000
0010
0100
0010
0000
1000
0000
,
0001
0000
1000
0000
0001
0000
1000
0100
,
1000
0000
0001
0100
0001
0000
0010
0001
,
0100
1000
0100
0010
,
1000
0000
0010
0000
1000
0001
2000
0000
,
0000
3200
0000
0320
,
0000
0031
0000
0001
,
0010
0000
0100
0000
1000
0000
0001
0100
,
0010
1000
0001
0000
1000
0000
0200
0000
,
0000
1000
0000
0010
,
0000
1000
0300
0020
,
0000
0001
0000
0100
,
0000
0001
0030
0002
,
0000
0100
0000
1000
,
0000
0100
0003
2000
,
0000
0100
3000
0020
,
0000
0001
0030
0020
,
0000
0001
0000
0100
,
0000
0001
0030
0200
,
0000
1000
0000
0010
,
0000
1000
0300
2000
,
0000
0010
0000
0001
,
0000
0010
3000
0002
,
0000
0010
0003
0200
,
0000
1000
0300
0002
,
0000
1000
0000
0100
,
0000
0010
0003
0020
,
0000
1000
0000
0100
,
0000
0001
0030
2000
,
0000
0001
0000
0010
,
0000
0100
3000
0000
,
0011
0000
0000
0000
1010
0000
0010
0100
,
0010
0000
1001
2000
,
0000
0001
0000
0100
,
0000
0010
3000
0200
,
0000
0001
0000
0010
,
0000
1000
0300
0002
,
0000
1000
0000
0010
,
0000
0100
0003
1100
,
0000
0000
0001
1000
0001
0000
0101
0000
,
0000
1001
0000
0001
,
0001
0000
0001
0000
0100
0001
0010
0000
,
0100
0000
1000
0001
1000
0000
0001
0100
,
0000
0100
0001
0000
0000
0000
0100
1000
,
0100
1000
0100
0000
0010
0000
1000
0000
,
1000
0000
1000
0000
0100
1000
0010
0000
,
0100
0000
0001
1000
0001
0000
1000
0100
,
0000
0100
1000
0000
0000
0000
0100
0001
,
0100
0001
0100
0000
0010
0000
1000
0100
,
0001
0000
0100
0000
1000
0000
0001
0010
,
0001
0100
0001
0010
,
0010
1000
1000
0001
,
0100
0001
1000
0001
0010
0000
0001
0100
,
1000
0000
0100
0000
0001
0000
1000
0010
,
1000
0100
1000
0010
,
0010
0001
0001
1000
,
0100
1000
0001
1000
0010
0000
0200
0000
,
0000
0000
0000
0300
;

//---------------dance-single - Copied from----------------
#NOTES:
     dance-single:
     Copied from:
     Easy:
     10:
     0.497,0.692,0.200,0.339,0.000:
0000
0000
0000
0000
,
0000
0000
0000
0000
,
0000
0000
0000
0000
,
0000
0000
0000
0000
,
0000
0000
0000
0000
,
0000
0000
0000
0000
,
0000
0000
0000
0000
,
0000
0000
0000
0000
,
1000
0000
0100
0000
,
0001
0000
0010
0000
,
1000
0000
0010
0000
,
0001
0000
0100
0000
,
1000
1000
1000
0000
,
0001
0001
0001
0000
,
0200
0300
0000
0020
,
0030
0000
0200
0300
,
0001
1000
0001
1000
,
0100
0010
0100
0010
,
0001
0100
0010
1000
,
0100
0010
0010
0100
0000
0000
1000
0000
,
0000
0010
0000
0001
,
0000
1000
0000
0001
,
0000
0010
0000
1000
,
0000
0001
0000
0100
,
0000
0010
0000
1000
,
0000
0100
0000
0100
,
0000
0010
0000
0001
,
0000
0101
0000
0001
,
0000
0010
0000
1000
,
0000
0001
0000
1000
,
0000
0010
0000
0001
,
0000
1000
0000
0100
,
0000
0010
0000
0001
,
0000
0100
0000
0100
,
0010
0000
0001
0000
,
1100
0000
0000
1000
,
0000
0110
0000
0010
,
0001
0010
0000
0001
,
0000
0110
0000
0010
,
1000
0010
0000
0001
,
0000
0010
0000
1000
,
0000
0010
0100
0000
,
1001
0000
1000
0010
,
0100
0001
0000
0001
,
0010
0100
0000
0001
,
0000
0010
0000
1000
,
0100
0010
0000
1000
,
0000
0100
0000
0001
,
0001
0001
0000
1000
,
1000
1000
0000
0001
,
0010
0100
0010
0001
,
0100
0010
0100
0002
,
0000
0003
2000
0000
,
3000
1001
0000
0100
,
0200
0000
0300
1000
,
0000
0001
0000
1000
,
0010
0001
0000
0001
,
0010
1000
0000
0100
,
0200
0000
0300
0001
,
0000
1000
0000
0001
,
0010
1000
0000
1000
,
0010
0001
0000
0001
,
2000
0000
3000
0001
,
0010
0001
0000
1000
,
0010
0001
0010
1000
,
0001
1000
0000
0100
,
0100
1000
0000
0100
,
0100
0001
0000
0020
,
0000
0030
0200
0000
,
0300
0110
0000
1000
,
0200
0000
0300
0010
,
0000
0001
0000
0100
,
0010
0010
0000
1100
,
0000
0101
0000
0001
,
0200
0000
0300
0010
,
0000
1000
0000
0100
,
0010
0010
0000
0101
,
0000
1100
0000
1001
,
2002
0000
3003
0100
,
0000
0100
0000
0010
,
1000
0100
0000
0010
,
0001
0100
0000
0001
,
1000
0001
0000
0010
,
0100
0010
0000
1000
,
0010
0100
0001
0010
,
0100
1000
0000
0002
,
0003
2000
3000
0020
,
0030
0100
0000
0001
,
0010
0100
1000
0001
,
0000
1001
0000
0020
,
0000
0000
0000
0100
,
0000
0000
0030
0200
,
0000
0000
0000
0010
,
0000
0000
0300
2000
,
0000
0000
0000
0001
,
0000
0000
3000
0002
,
0000
0000
0000
1000
,
0000
0000
0003
0200
,
0000
0000
0000
0010
,
0000
0010
0300
0020
,
0000
0000
0000
0100
,
0000
0100
0030
0002
,
0000
0000
0000
1000
,
0000
1000
0003
2000
,
0000
0000
0000
0001
,
0000
0001
3000
0002
,
0000
0000
0000
0010
,
0000
0000
0003
2000
,
0000
0000
0000
0010
,
0000
0000
3000
0020
,
0000
0000
0000
1000
,
0000
0000
0030
0200
,
0000
0000
0000
0001
,
0000
0000
0300
0002
,
0000
0000
0000
0010
,
0000
0100
0003
2000
,
0000
0000
0000
0010
,
0000
0100
3000
0020
,
0000
0000
0000
1000
,
0000
0001
0030
0200
,
0000
0000
0000
0001
,
0000
1000
0300
1000
,
1000
1000
0000
0001
,
0010
0000
0100
0000
1000
0000
0001
1000
,
0000
0010
1000
0010
,
0000
0011
0000
0001
,
0001
0001
0000
1000
,
0010
0000
0100
0000
0001
0000
1000
0001
,
0000
0010
0001
0010
,
0000
1010
0000
0001
,
1000
0010
1000
0001
,
0100
0001
0000
0100
,
0100
0001
0000
1010
,
0000
1001
0000
1000
,
0001
0010
0001
1000
,
0100
1000
0000
0100
,
0100
1000
0000
0011
,
0000
1001
0000
0020
,
0000
0000
0000
0030
;

//---------------dance-single - Copied from Copied from----------------
#NOTES:
     dance-single:
     Copied from Copied from:
     Beginner:
     7:
     0.292,0.415,0.150,0.170,0.000: // measure 1
0000
0000
0000
0000
,  // measure 2
0000
0000
0000
0000
,  // measure 3
0000
0000
0000
0000
,  // measure 4
0000
0000
0000
0000
,  // measure 5
0000
0000
0000
0000
,  // measure 6
0000
0000
0000
0000
,  // measure 7
0000
0000
0000
0000
,  // measure 8
0000
0000
0000
0000
,  // measure 9
1000
0000
0000
0000
,  // measure 10
0100
0000
0000
0000
,  // measure 11
0010
0000
0000
0000
,  // measure 12
0001
0000
0000
0000
,  // measure 13
1000
1000
0000
0000
,  // measure 14
0001
0001
0000
0000
,  // measure 15
0010
0000
0000
0100
,  // measure 16
0000
0000
0010
0000
,  // measure 17
0100
0000
0100
0000
,  // measure 18
0010
0000
0010
0000
,  // measure 19
0100
0000
0001
0000
,  // measure 20
1000
0001
0000
1000
,  // measure 21
0000
0000
0000
0100
,  // measure 22
0000
0000
0000
0100
,  // measure 23
0000
0000
0000
1000
,  // measure 24
0000
0000
0000
0010
,  // measure 25
0000
0001
0000
1000
,  // measure 26
0000
0000
0000
0010
,  // measure 27
0000
0001
0000
0100
,  // measure 28
0000
0000
0000
0001
,  // measure 29
0000
0000
0000
0100
,  // measure 30
0000
0000
0000
0100
,  // measure 31
0000
0000
0000
0001
,  // measure 32
0000
0000
0000
0010
,  // measure 33
0000
1000
0000
0001
,  // measure 34
0000
0000
0000
0010
,  // measure 35
0000
1000
0000
0100
,  // measure 36
0000
0000
0000
1000
,  // measure 37
0000
0000
0000
1001
,  // measure 38
0000
0000
0000
0100
,  // measure 39
0000
0000
0000
0110
,  // measure 40
0000
0000
0000
0001
,  // measure 41
0000
0001
0000
1000
,  // measure 42
0000
0000
0000
0000
,  // measure 43
1000
0000
1000
0000
,  // measure 44
0001
0000
0000
0000
,  // measure 45
0001
0000
0000
0000
,  // measure 46
1001
0000
0000
0000
,  // measure 47
0100
0000
0000
0000
,  // measure 48
0110
0000
0000
0000
,  // measure 49
1000
0000
1000
0000
,  // measure 50
0001
0000
0000
0000
,  // measure 51
0000
0001
0000
0001
,  // measure 52
0000
1000
0000
0100
,  // measure 53
0000
0000
0100
0000
,  // measure 54
0000
1001
0000
0010
,  // measure 55
0010
0000
0000
1000
,  // measure 56
0000
1000
0000
0001
,  // measure 57
0000
0100
0000
0001
,  // measure 58
0000
0000
0000
0010
,  // measure 59
0010
0000
0000
0001
,  // measure 60
0000
0001
0000
1000
,  // measure 61
0000
0100
0000
1000
,  // measure 62
0000
0000
0000
0100
,  // measure 63
0100
0000
0000
0100
,  // measure 64
0000
0010
0000
0010
,  // measure 65
0000
1000
0000
1001
,  // measure 66
0000
0000
0000
0010
,  // measure 67
0010
0000
0000
0100
,  // measure 68
0100
0000
0000
0001
,  // measure 69
0000
0000
1000
0000
,  // measure 70
0000
0110
0000
1000
,  // measure 71
1000
0000
0000
0001
,  // measure 72
0000
0100
0000
0010
,  // measure 73
0000
0000
0000
1001
,  // measure 74
0000
0000
0000
0001
,  // measure 75
0001
0000
0000
1000
,  // measure 76
0000
0100
0000
0010
,  // measure 77
0000
0000
0000
1001
,  // measure 78
0000
0000
0000
0100
,  // measure 79
0100
0000
0000
1000
,  // measure 80
0000
0100
0000
0010
,  // measure 81
0000
0001
0000
1001
,  // measure 82
0000
0000
0000
0100
,  // measure 83
0000
1000
0000
0100
,  // measure 84
0000
1000
0000
0001
,  // measure 85
0000
0010
0000
0001
,  // measure 86
0000
1000
0000
0010
,  // measure 87
0000
0010
0000
0010
,  // measure 88
0000
0010
0000
0100
,  // measure 89
0100
0100
0000
0010
,  // measure 90
0000
0110
0000
0002
,  // measure 91
0000
0000
0000
0003
,  // measure 92
0000
0000
0000
2000
,  // measure 93
0000
0000
0000
3000
,  // measure 94
0000
0000
0000
0020
,  // measure 95
0000
0000
0000
0030
,  // measure 96
0000
0000
0000
0200
,  // measure 97
0000
0000
0000
0300
,  // measure 98
0000
0000
0000
0020
,  // measure 99
0000
0000
0000
0030
,  // measure 100
0000
0000
0000
0002
,  // measure 101
0000
0000
0000
0003
,  // measure 102
0000
0000
0000
2000
,  // measure 103
0000
0000
0000
3000
,  // measure 104
0000
0000
0000
0200
,  // measure 105
0000
0000
0000
0300
,  // measure 106
0000
0000
0000
2000
,  // measure 107
0000
0000
0000
3000
,  // measure 108
0000
0000
0000
0200
,  // measure 109
0000
0000
0000
0300
,  // measure 110
0000
0000
0000
0020
,  // measure 111
0000
0000
0000
0030
,  // measure 112
0000
0000
0000
0002
,  // measure 113
0000
0000
0000
0003
,  // measure 114
0000
0000
0000
0020
,  // measure 115
0000
0000
0000
0030
,  // measure 116
0000
0000
0000
2000
,  // measure 117
0000
0000
0000
3000
,  // measure 118
0000
0000
0000
0002
,  // measure 119
0000
0000
0000
0003
,  // measure 120
0000
0000
0000
0200
,  // measure 121
0000
0000
0000
0300
,  // measure 122
0000
0000
0000
1000
,  // measure 123
0000
1000
0000
0100
,  // measure 124
0000
0100
0000
0010
,  // measure 125
0000
0000
0000
0010
,  // measure 126
0000
0110
0000
0001
,  // measure 127
0000
0001
0000
0100
,  // measure 128
0000
0100
0000
0010
,  // measure 129
0000
0000
0000
0010
,  // measure 130
0000
0110
0000
1000
,  // measure 131
1000
0000
0000
0010
,  // measure 132
0010
0000
0000
0001
,  // measure 133
0000
0010
0000
1000
,  // measure 134
0000
1001
0000
0001
,  // measure 135
0001
0000
0000
0010
,  // measure 136
0010
0000
0000
1000
,  // measure 137
0000
0010
0000
0001
,  // measure 138
0000
1001
0000
0200
,  // measure 139
0000
0000
0300
0000
;
