#TITLE:Transacaglia in G-minor;
#SUBTITLE:;
#ARTIST:ATAS;
#TITLETRANSLIT:;
#SUBTITLETRANSLIT:;
#ARTISTTRANSLIT:;
#GENRE:;
#CREDIT:;
#BANNER:Transacaglia in G-minor.png;
#BACKGROUND:Transacaglia in G-minor-bg.png;
#LYRICSPATH:;
#CDTITLE:;
#MUSIC:Transacaglia in G-minor.ogg;
#OFFSET:0.680000;
#SAMPLESTART:74.509865;
#SAMPLELENGTH:16.708862;
#SELECTABLE:YES;
#DISPLAYBPM:158.000000;
#BPMS:0.000000=158.000000
,196.000000=316.000000
,200.000000=158.000000
;
#STOPS:
;
#BGCHANGES:2.500=Transacaglia in G-minor.avi=1.000=0=0=0=StretchNoLoop====,
99999=-nosongbg-=1.000=0=0=0 // don't automatically add -songbackground-
;
#KEYSOUNDS:;
#ATTACKS:;

//---------------dance-single - ----------------
#NOTES:
     dance-single:
     :
     Hard:
     12:
     0.550067,0.626168,0.056075,0.336449,0.247664,412.000000,406.000000,6.000000,36.000000,0.000000,0.000000,0.550067,0.626168,0.056075,0.336449,0.247664,412.000000,406.000000,6.000000,36.000000,0.000000,0.000000:
0000
0000
0000
0000
,
0000
0000
0000
0000
,
0000
0000
0000
0000
,
0000
0000
0000
0000
,
0000
0000
0000
0000
,
1000
0001
0100
0010
0000
0010
0100
0001
,
1000
0010
0100
0010
0000
0010
0100
0010
,
0100
0001
1000
0001
0000
0001
1000
0100
,
0010
0001
0010
0100
1000
0010
0200
0000
,
0301
0000
0001
0010
0200
0000
1300
0100
,
0020
0000
0031
0100
0020
0000
1030
0100
,
0020
0000
0031
0010
0200
0000
0310
0100
,
1000
0000
0100
0000
0010
0000
0001
0000
1000
0001
1000
0001
1000
0000
0000
0000
,
0002
0000
0103
0010
0020
0000
1030
0001
,
0002
0000
1003
0100
0200
0000
1300
0010
,
0200
0000
0301
0100
0020
0000
1030
0001
,
1000
0000
0100
0000
0010
0000
0001
0000
0100
0000
0010
0000
0100
0010
0100
0010
,
0200
0000
0000
0000
0301
0100
0000
0001
0000
0001
0000
0000
1000
0000
0100
0000
,
0020
0000
0000
0000
1030
0010
0000
0010
0000
0100
0000
0000
0001
0000
0100
0000
,
0020
0000
0000
0000
1030
0010
0000
0010
0000
0100
0000
0000
0001
0000
1000
0000
,
0200
0000
0000
0000
0310
0100
0000
0001
0000
0001
0000
0000
1000
0000
0001
0000
,
0001
0100
0000
0000
0100
0010
0000
0010
0000
1000
0000
0000
1000
0000
0100
0000
,
1000
0100
0000
0000
0100
0010
0000
0010
0000
0001
0000
0000
0100
0000
0010
0000
,
1000
0010
0000
0000
0010
0100
0000
0100
0000
0001
0000
0000
1000
0000
0001
0000
,
0100
0100
0010
0010
1000
0001
0100
0000
,
0001
0100
0000
0000
0100
1000
0000
0000
1000
0010
0000
0000
0010
0000
0100
0000
,
0100
0001
0000
0000
0001
1000
0000
0000
1000
0010
0000
0000
0010
0000
0100
0000
,
0001
0010
0000
0000
0010
0100
0000
0000
0100
1000
0000
0000
0100
0000
0010
0000
,
0001
1000
0000
0000
1000
0100
0000
0000
0100
0010
0000
0000
0010
0000
0001
0000
,
0100
0010
0000
0000
0010
1000
0000
0000
1000
0001
0000
0001
1000
0000
0010
0000
,
1000
0100
0000
0000
0100
0010
0000
0000
0010
0001
0000
0001
0010
0000
0001
0000
,
0100
0010
0000
0000
0010
1000
0000
0000
1000
0001
0000
0001
1000
0000
0010
1000
,
0010
0010
0100
0100
0001
0001
1000
1000
,
2002
0000
0000
0003
,
0020
0000
0000
3030
,
2002
0000
0000
3000
,
0200
0000
0000
0303
,
0220
0000
0000
0330
,
2002
0000
0000
3003
,
0020
0000
0200
0330
,
2002
0000
0000
3003
,
1000
0100
0010
0100
1000
0100
0010
0000
,
0001
0010
0100
0010
0001
0010
0100
0000
,
0010
1000
0001
1000
0010
1000
0001
0000
,
0100
0001
1000
0001
0100
0001
1000
0000
,
0001
0010
0100
0010
0001
0010
0100
0000
,
1000
0010
0100
0010
1000
0010
0100
0000
,
0001
1000
0010
1000
0100
1000
0010
1000
,
0001
0001
0001
0001
1000
1000
1000
2000
,
0002
0000
3003
0000
,
0100
0001
1000
0010
0100
0010
0100
0001
,
0010
0100
1000
0001
0010
0100
1000
0010
,
0100
0001
1000
0010
0100
0010
1000
0001
,
1000
0100
0010
0001
1000
0100
0010
0001
,
1000
0100
1000
0001
1000
0100
1000
0001
,
0010
0100
0010
0001
0010
0100
0010
0001
,
0100
0010
0100
0010
1000
0100
0010
0001
,
0100
0100
0100
0100
0010
0010
0010
0010
,
1000
0001
1000
0001
0100
0010
0100
0010
,
1000
0100
0010
0001
0001
0010
0100
1000
,
0001
0010
0100
1000
1000
0100
0010
0001
,
1000
0001
0010
0100
1000
0100
0010
0001
,
0100
0010
0100
0010
1000
0001
1000
0001
,
1000
0100
0010
0100
1000
0001
0010
0100
,
1000
0100
0010
0001
0100
0100
0010
0010
,
2000
0001
0001
3002
1000
1000
1003
0000
,
2002
0000
0000
0000
,
3003
0000
0000
0000
;

//---------------dance-double - ----------------
#NOTES:
     dance-double:
     :
     Hard:
     11:
     0.506008,0.532243,0.065421,0.205607,0.168224,379.000000,372.000000,7.000000,22.000000,0.000000,0.000000,0.506008,0.532243,0.065421,0.205607,0.168224,379.000000,372.000000,7.000000,22.000000,0.000000,0.000000:
// measure 0
00000000
00000000
00000000
00000000
,  // measure 1
00000000
00000000
00000000
00000000
,  // measure 2
00000000
00000000
00000000
00000000
,  // measure 3
00000000
00000000
00000000
00000000
,  // measure 4
00000000
00000000
00000000
00000000
,  // measure 5
01000000
00100000
10000000
00010000
00000000
00010000
10000000
00010000
,  // measure 6
10000000
01000000
00100000
01000000
00000000
00100000
00001000
00010000
,  // measure 7
00001000
00010000
00000010
00010000
00000000
00000010
00001000
00000100
,  // measure 8
00000010
00000001
00000100
00000010
00000100
00000010
00001000
00000000
,  // measure 9
00000001
00000000
00000001
00000010
00000100
00000000
00000100
00010000
,  // measure 10
00001000
00000000
00001000
00010000
00000010
00000000
00000010
00001000
,  // measure 11
00000100
00000000
00000100
00010000
00001000
00000000
00001000
01000000
,  // measure 12
00010000
00000000
00010000
01000000
10000000
01000000
00010000
00000000
,  // measure 13
10000000
00000000
01000000
00100000
00010000
00000000
10000000
01000000
,  // measure 14
00010000
00000000
00001000
00000100
00000001
00000000
00000001
00000100
,  // measure 15
00000010
00000000
00000001
00001000
00000010
00000000
00000001
00000100
,  // measure 16
00001000
00000000
00010000
01000000
10000000
00000000
10010000
00000000
,  // measure 17
00100000
00000000
10000000
00000000
01000000
00000000
00000000
10000000
00000000
00010000
00000000
00000000
00100000
00000000
00001000
00000000
,  // measure 18
00010000
00000000
00001000
00000000
00010000
00000000
00000000
00000100
00000000
00001000
00000000
00000000
00000001
00000000
00000010
00000000
,  // measure 19
00000100
00000000
00000010
00000000
00000001
00000000
00000000
00001000
00000000
00000100
00000000
00000000
00000100
00000000
00001000
00000000
,  // measure 20
00000001
00000000
00000100
00000000
00000010
00000000
00000000
00001000
00000000
00000001
00000000
00000000
00001000
00000000
00000100
00000000
,  // measure 21
00010000
00000000
00010000
00000000
00001000
00000000
00000000
00010000
00000000
00000100
00000000
00000000
00001000
00000000
00000100
00000000
,  // measure 22
00010000
00000000
00001000
00000000
01000000
00000000
00000000
00100000
00000000
10000000
00000000
00000000
00100000
00000000
10000000
00000000
,  // measure 23
01000000
00000000
00100000
00000000
00001000
00000000
00000000
00010000
00000000
00010000
00000000
00000000
00001000
00000000
00100000
00000000
,  // measure 24
00010000
01000000
10000000
01000000
00010000
10000000
01000000
00000000
,  // measure 25
10000000
01000000
00000000
00000000
01000000
00010000
00000000
00000000
00010000
00100000
00000000
00000000
00001000
00000000
00010000
00000000
,  // measure 26
00010000
00000100
00000000
00000000
00000100
00001000
00000000
00000000
00001000
00000001
00000000
00000000
00000010
00000000
00000001
00000000
,  // measure 27
00000001
00000100
00000000
00000000
00000100
00001000
00000000
00000000
00001000
00010000
00000000
00000000
00001000
00000000
00100000
00000000
,  // measure 28
00010000
01000000
00000000
00000000
01000000
00100000
00000000
00100000
00000000
10000000
00000000
00000000
10000000
00000000
01000000
00000000
,  // measure 29
00100000
00010000
00000000
00000000
00010000
01000000
00000000
00000000
01000000
00100000
00000000
00000000
10000000
00000000
00100000
00000000
,  // measure 30
10000000
00010000
00000000
00000000
00010000
00100000
00000000
00000000
00100000
00001000
00000000
00000000
00010000
00000000
00000100
00000000
,  // measure 31
00001000
00000100
00000000
00000000
00000100
00000010
00000000
00000000
00000010
00000001
00000000
00000000
00000100
00000000
00000010
00000000
,  // measure 32
00001000
00000100
00000010
00000001
00000100
00001000
00010000
00000000
,  // measure 33
00022000
00000000
00000000
00003000
,  // measure 34
00000200
00000000
00000000
00030000
,  // measure 35
00002000
00000000
00000000
00000300
,  // measure 36
00000020
00000000
00000000
00003000
,  // measure 37
00000200
00000000
00000000
00000030
,  // measure 38
00000002
00000000
00000000
00000300
,  // measure 39
00002000
00000003
00000200
00003000
,  // measure 40
00020000
00000300
00002000
00033000
,  // measure 41
00120000
00100000
00100000
00130000
,  // measure 42
21000000
01000000
01000000
31000000
,  // measure 43
02010000
00010000
00010000
03010000
,  // measure 44
00201000
00001000
00001000
00301000
,  // measure 45
00010000
00001000
00010000
00001000
00000100
00000010
00000100
00000010
,  // measure 46
00000001
00000010
00000001
00000010
00000100
00001000
00000100
00001000
,  // measure 47
00010000
00100000
10000000
00100000
00010000
00100000
10000000
00100000
,  // measure 48
00010000
00010000
00010000
00010000
10000000
10000000
10000000
20000000
,  // measure 49
00020000
00000000
30030000
00000000
,  // measure 50
10000000
01000000
00100000
01000000
10000000
01000000
00100000
00000000
,  // measure 51
00010000
00000100
00001000
00000100
00010000
00000100
00001000
00000000
,  // measure 52
00000010
00001000
00000100
00000010
00000001
00000010
00000100
00001000
,  // measure 53
00000010
00001000
00000100
00000010
00000001
00000100
00000010
00000000
,  // measure 54
00001000
00000100
00010000
00000100
00001000
00000100
00010000
00000000
,  // measure 55
00001000
00100000
00010000
00100000
00001000
01000000
00010000
00000000
,  // measure 56
00010000
00100000
01000000
00100000
00010000
00100000
01000000
10000000
,  // measure 57
10000000
01000000
00100000
00010000
00010000
00100000
01000000
00000000
,  // measure 58
10000000
01000000
00100000
01000000
10000000
01000000
00100000
00010000
,  // measure 59
00001000
00000100
00000010
00000100
00001000
00000100
00000010
00000001
,  // measure 60
00000100
00000001
00000100
00001000
00000100
00000001
00000100
00001000
,  // measure 61
00010000
01000000
00010000
01000000
10000000
01000000
10000000
01000000
,  // measure 62
00010000
10000000
00010000
10000000
00100000
01000000
00100000
01000000
,  // measure 63
00010000
00100000
01000000
10000000
10000000
01000000
00100000
00010000
,  // measure 64
00001000
00000100
00000010
00000001
00000010
00000100
00001000
00000100
,  // measure 65
00020000
00032000
02003000
03100000
,  // measure 66
20020000
00000000
00000000
00000000
,  // measure 67
30030000
00000000
00000000
00000000
;

//---------------dance-double - ----------------
#NOTES:
     dance-double:
     :
     Medium:
     8:
     0.341789,0.500935,0.065421,0.392523,0.000000,256.000000,249.000000,7.000000,42.000000,0.000000,0.000000,0.341789,0.500935,0.065421,0.392523,0.000000,256.000000,249.000000,7.000000,42.000000,0.000000,0.000000:
// measure 0
00000000
00000000
00000000
00000000
,  // measure 1
00000000
00000000
00000000
00000000
,  // measure 2
00000000
00000000
00000000
00000000
,  // measure 3
00000000
00000000
00000000
00000000
,  // measure 4
00000000
00000000
00000000
00000000
,  // measure 5
10000000
10000000
01000000
00010000
,  // measure 6
00001000
00001000
00000100
00000001
,  // measure 7
00000001
00000010
00000010
00000100
,  // measure 8
00000100
00001000
00001000
00000110
,  // measure 9
00000002
00000103
00002000
00013000
,  // measure 10
00200000
01300000
20000000
31000000
,  // measure 11
00200000
00301000
00020000
00030100
,  // measure 12
00002000
00003200
00000302
00000203
,  // measure 13
00000302
00000103
00000200
00001300
,  // measure 14
00002000
01003000
02000000
03100000
,  // measure 15
00200000
10300000
20000000
31000000
,  // measure 16
00100000
00001000
00010000
00011000
,  // measure 17
00000200
00000000
00001300
00000000
00000010
00001000
00000100
00000000
,  // measure 18
00000020
00000000
00000031
00000000
00000010
00000001
00000100
00000000
,  // measure 19
00002000
00003100
00010000
00001000
,  // measure 20
00200000
00310000
01000000
10010000
,  // measure 21
00200000
00000000
10300000
00000000
00010000
01000000
00100000
00000000
,  // measure 22
20000000
00000000
31000000
00000000
00100000
00001000
00010000
00000000
,  // measure 23
00000200
00001300
00000010
00000100
,  // measure 24
00000002
00000013
00000100
00011000
,  // measure 25
00100000
00010000
01000000
00000000
00100000
00100000
00100000
00000000
,  // measure 26
10000000
01000000
00100000
00000000
00010000
00010000
00010000
00000000
,  // measure 27
00200000
00302000
00023000
00030200
,  // measure 28
00001300
00001000
00001000
00000000
00000001
00000001
00000001
00000000
,  // measure 29
00000010
00000001
00000100
00000000
00001000
00001000
00001000
00000000
,  // measure 30
00010000
01000000
10000000
00000000
00100000
00100000
00100000
00000000
,  // measure 31
20000000
30200000
02300000
03002000
,  // measure 32
00023000
00001000
00002000
00033000
,  // measure 33
00011000
00000000
00000000
00000000
,  // measure 34
00000000
00000000
00000000
00000000
,  // measure 35
02000000
00000000
00000000
00000000
,  // measure 36
03000000
00000000
00000000
00000000
,  // measure 37
00002000
00000000
00000000
00000000
,  // measure 38
00023000
00000000
00000000
00000000
,  // measure 39
00032000
00000000
00000000
00000000
,  // measure 40
00020000
00000000
00033000
00000000
,  // measure 41
00001000
00000100
00000010
00000001
,  // measure 42
00000100
00000100
00000100
00000100
,  // measure 43
00000001
00000010
00000100
00001000
,  // measure 44
00000100
00000100
00000100
00000100
,  // measure 45
00010000
00001000
01000000
00100000
,  // measure 46
10000000
00010000
00010000
00010000
,  // measure 47
10000000
01000000
00010000
00001000
,  // measure 48
00000100
00000100
00000100
00000200
,  // measure 49
00000000
00000000
00000300
00000000
,  // measure 50
00000001
00000001
00000100
00001000
,  // measure 51
00010000
00010000
01000000
10000000
,  // measure 52
00100000
10000000
01000000
01000000
,  // measure 53
00010000
00100000
10000000
10000000
,  // measure 54
01000000
00010000
00001000
00001000
,  // measure 55
00000100
00000001
00001000
00001000
,  // measure 56
00000001
00000010
00000100
00001000
,  // measure 57
00000010
00000010
00000010
00001001
,  // measure 58
00000001
00000100
00000001
00000100
00000001
00000100
00000001
00000000
,  // measure 59
00001000
00000100
00001000
00000100
00001000
00000100
00001000
00000000
,  // measure 60
00000010
00010000
00000010
00010000
00000010
00010000
00000010
00000000
,  // measure 61
00001000
01000000
00001000
01000000
00001000
01000000
00001000
00000000
,  // measure 62
00010000
10000000
00010000
01000000
00010000
00100000
00010000
00000000
,  // measure 63
00100000
00001000
00100000
00010000
00100000
00001000
00100000
00000000
,  // measure 64
00001000
00010000
00001000
00000000
00000100
00001000
00000100
00000000
,  // measure 65
00000010
00000001
00000010
00000000
00000100
00000000
00010000
00000000
,  // measure 66
00022000
00000000
00000000
00000000
,  // measure 67
00033000
00000000
00000000
00000000
;

//---------------dance-single - ----------------
#NOTES:
     dance-single:
     :
     Medium:
     8:
     0.397864,0.532243,0.345794,0.532710,0.000000,298.000000,261.000000,37.000000,57.000000,0.000000,0.000000,0.397864,0.532243,0.345794,0.532710,0.000000,298.000000,261.000000,37.000000,57.000000,0.000000,0.000000:
0000
0000
0000
0000
,
0000
0000
0000
0000
,
0000
0000
0000
0000
,
0000
0000
0000
0000
,
0000
0000
0000
0000
,
1000
0000
0101
0000
1000
0001
0100
0000
,
0001
0000
1100
0000
0001
1000
0100
0000
,
0110
0000
1001
0000
0100
0010
0100
0000
,
0010
0100
0010
0000
0020
0000
0130
0000
,
0002
0000
0003
0001
0200
0000
0300
0100
,
0020
0000
0030
0010
0200
0000
0300
0100
,
0020
0230
0302
2003
,
3020
1030
2000
3100
,
0200
0000
0300
0100
0002
0000
0003
0001
,
2000
0000
3000
1000
0020
0000
0030
0010
,
0200
0302
2003
3020
,
1030
0010
0100
0110
,
0200
0000
0301
0000
1000
0001
1000
0000
,
0020
0000
1030
0000
0001
1000
0001
0000
,
0020
2030
3200
0302
,
0023
0000
0130
0000
1000
0100
1000
0000
,
0101
0000
1100
0000
0001
0100
0001
0000
,
1100
0000
0101
0000
1000
0100
1000
0000
,
2000
3020
0032
0203
,
0320
0000
1030
0000
0001
0010
0100
0000
,
1001
0000
0110
0000
1000
0010
1000
0010
,
0100
0000
1001
0000
0010
0100
0010
0100
,
0001
0010
0100
1000
,
0011
1001
0101
1001
,
0200
0000
0320
0000
1030
0001
1000
0000
,
0020
0000
0230
0000
0301
1000
0001
0000
,
0101
0011
1010
1100
,
0110
0000
1001
0000
0001
0010
0100
0000
,
2002
0000
0000
0003
,
0020
0000
0000
3030
,
2002
0000
0000
3000
,
0200
0000
0000
0303
,
0220
0000
0000
0330
,
2002
0000
0000
3003
,
0020
0000
0200
0330
,
2002
0000
0000
3003
,
1000
0010
1000
0010
,
0001
0100
0001
0100
,
0010
1000
0010
1000
,
0100
0001
0100
0001
,
0010
0100
0010
0100
,
1000
0001
1000
0001
,
0001
0010
0100
1000
,
0001
0001
1000
1000
,
2002
0000
3003
0000
,
0010
0000
1000
0000
0100
1000
0100
0000
,
1000
0010
1000
0000
0001
0010
0001
0000
,
0100
0000
1000
0000
0010
1000
0010
0000
,
0001
0010
0001
0000
0100
1000
0100
0000
,
1000
0100
0001
0001
,
0010
1000
0010
0000
1000
0100
1000
0000
,
0100
0001
0100
0000
0001
0000
0010
0000
,
0100
0100
0100
0000
0010
0010
0010
0000
,
1100
0000
0101
0000
1000
0100
0001
0000
,
0011
0000
1010
0000
0001
0010
1000
0000
,
0110
0000
1001
0000
0100
0100
0100
0000
,
1001
0000
0110
0000
0001
0001
0001
0000
,
1000
0100
1000
0100
1000
0100
1000
0100
,
0010
0001
0010
0001
0010
0001
0010
0001
,
0200
0320
2030
3002
,
0103
0100
0100
0000
0010
0010
0010
0000
,
2002
0000
0000
0000
,
3003
0000
0000
0000
;

//---------------dance-single - ----------------
#NOTES:
     dance-single:
     :
     Beginner:
     4:
     0.154873,0.215888,0.018692,0.074766,0.000000,116.000000,114.000000,2.000000,8.000000,0.000000,0.000000,0.154873,0.215888,0.018692,0.074766,0.000000,116.000000,114.000000,2.000000,8.000000,0.000000,0.000000:
0000
0000
0000
0000
,
0000
0000
0000
0000
,
0000
0000
0000
0000
,
0000
0000
0000
0000
,
0000
0000
0000
0000
,
1000
0000
0000
0000
,
0100
0000
0000
0000
,
0010
0000
0000
0000
,
0001
0000
0000
0000
,
1000
0000
0001
0000
,
1000
0000
0001
0000
,
0100
0000
0010
0000
,
0100
0000
0010
0000
,
1000
0000
1000
0000
,
0001
0000
0001
0000
,
0100
0000
0100
0000
,
0020
0000
0030
0000
,
0001
0000
0100
0000
,
1000
0000
0100
0000
,
0001
0000
0010
0000
,
0100
0000
1000
0000
,
0001
0000
0010
0000
,
1000
0000
0010
0000
,
0001
0000
1000
0000
,
0100
0000
0010
0000
,
0001
0001
0001
0000
,
1000
1000
1000
0000
,
0001
0000
1000
0000
,
0010
0000
0100
0000
,
0010
0010
0010
0000
,
0100
0100
0100
0000
,
0010
0000
1000
0000
,
0100
0000
0001
0000
,
2002
0000
0000
0000
,
3003
0000
0000
0000
,
0020
0000
0000
0000
,
0030
0000
0000
0000
,
0200
0000
0000
0000
,
0300
0000
0000
0000
,
0020
0000
0030
0000
,
0200
0000
0300
0000
,
0010
0000
0010
0000
,
0100
0000
0100
0000
,
0001
0000
0001
0000
,
1000
0000
1000
0000
,
0001
0000
0001
0000
,
0100
0000
0100
0000
,
0010
0000
0010
0000
,
0020
0000
0030
0000
,
0000
0000
0000
0000
,
0001
0000
0001
0000
,
0001
0001
0001
0000
,
1000
0000
1000
0000
,
1000
1000
1000
0000
,
0010
0000
0010
0000
,
0100
0000
0100
0000
,
0010
0010
0010
0010
,
0010
0000
0000
0000
,
1000
0000
1000
0000
,
1000
1000
1000
0000
,
0001
0000
0001
0000
,
0001
0001
0001
0000
,
0100
0000
0100
0000
,
0010
0000
0010
0000
,
0100
0100
0100
0100
,
0100
0000
0000
0000
,
1001
0000
0000
0000
;

//---------------dance-single - ----------------
#NOTES:
     dance-single:
     :
     Easy:
     6:
     0.285714,0.370093,0.158879,0.205607,0.000000,214.000000,197.000000,17.000000,22.000000,0.000000,0.000000,0.285714,0.370093,0.158879,0.205607,0.000000,214.000000,197.000000,17.000000,22.000000,0.000000,0.000000:
0000
0000
0000
0000
,
0000
0000
0000
0000
,
0000
0000
0000
0000
,
0000
0000
0000
0000
,
0000
0000
0000
0000
,
1000
0001
1000
0001
,
0010
0100
0010
0100
,
1000
0001
1000
0001
,
0010
0100
0010
0000
,
2000
3000
0002
0003
,
2000
3000
0002
0003
,
0200
0300
0020
0030
,
0100
0001
0010
1000
,
0002
0003
2000
3000
,
0020
0030
0200
0300
,
0002
0003
0020
0030
,
0200
0010
0310
0000
,
0001
0010
0100
1001
,
1000
0100
0010
1001
,
0001
1000
0010
0100
,
0001
0001
1000
1001
,
0001
0010
0100
0110
,
1000
0100
0010
0110
,
0001
0010
1000
0010
,
0001
0001
1000
1001
,
0001
0001
0001
0100
,
1000
1000
1000
0100
,
0001
0001
1000
1000
,
0010
0100
1000
1001
,
0010
0010
0010
1000
,
0100
0100
0100
1000
,
0010
0001
1000
0001
,
0100
0100
1001
0000
,
2002
0000
0000
0000
,
3003
0000
0000
0000
,
0020
0000
0000
0000
,
0030
0000
0000
0000
,
0200
0000
0000
0000
,
0300
0000
0000
0000
,
0020
0000
2030
0000
,
3200
0000
0300
0000
,
0010
0010
0010
0010
,
0100
0100
0100
0100
,
0001
0001
0001
0001
,
1000
1000
1000
1000
,
0001
1000
0001
1000
,
0100
0010
0100
0010
,
0001
0010
0100
1000
,
0220
0000
0330
0000
,
0000
0000
0000
0000
,
0100
0001
0100
0001
,
1000
1000
1000
1000
,
0100
1000
0100
1000
,
0001
0001
0001
0001
,
0010
1000
0010
0100
,
1000
1000
0010
0010
,
0100
0001
0100
0010
,
0100
0100
0001
0001
,
1000
0100
0010
1001
,
0001
0010
0100
1001
,
0001
1000
0100
0110
,
1000
0001
0100
0110
,
0010
0010
0100
0110
,
0100
0100
0010
0110
,
1000
0100
0001
0100
,
1000
0010
0001
0010
,
1001
0000
0000
0000
;

//---------------dance-double - ----------------
#NOTES:
     dance-double:
     :
     Easy:
     6:
     0.271028,0.344393,0.046729,0.112150,0.000000,203.000000,198.000000,5.000000,12.000000,0.000000,0.000000,0.271028,0.344393,0.046729,0.112150,0.000000,203.000000,198.000000,5.000000,12.000000,0.000000,0.000000:
// measure 0
00000000
00000000
00000000
00000000
,  // measure 1
00000000
00000000
00000000
00000000
,  // measure 2
00000000
00000000
00000000
00000000
,  // measure 3
00000000
00000000
00000000
00000000
,  // measure 4
00000000
00000000
00000000
00000000
,  // measure 5
10000000
00000000
01000000
00000000
,  // measure 6
00010000
00000000
00000100
00000000
,  // measure 7
00000001
00000000
00000100
00000000
,  // measure 8
00001000
00000000
00010000
00000000
,  // measure 9
00100000
00000000
10000000
00000000
,  // measure 10
01000000
00000000
00010000
00000000
,  // measure 11
00001000
00000000
00000100
00000000
,  // measure 12
00000001
00000000
00000010
00000100
,  // measure 13
00000010
00000000
00000001
00000000
,  // measure 14
00000100
00000000
00001000
00000000
,  // measure 15
00010000
00000000
01000000
00000000
,  // measure 16
10000000
01000000
00100000
00010000
,  // measure 17
10000000
01000000
10000000
00010000
,  // measure 18
00100000
00001000
00010000
00000100
,  // measure 19
00001000
00000010
00000001
00000010
,  // measure 20
00001000
00000100
00000001
00000100
,  // measure 21
00001000
00000100
00001000
00000110
,  // measure 22
00000001
00000100
00000001
00000110
,  // measure 23
00000001
00000010
00000100
00001000
,  // measure 24
00000100
00000010
00000001
00000100
,  // measure 25
00001000
00010000
00010000
00001000
,  // measure 26
00010000
01000000
10000000
00010000
,  // measure 27
10000000
01000000
00010000
01000000
,  // measure 28
10000000
00100000
00010000
00100000
,  // measure 29
10000000
10000000
01000000
00010000
,  // measure 30
00001000
00001000
00000100
00000001
,  // measure 31
00000010
00000010
00000100
00000100
,  // measure 32
00001000
00000001
00001000
00000001
,  // measure 33
00000200
00000000
00000000
00000000
,  // measure 34
00020300
00000000
00000000
00000000
,  // measure 35
00032000
00000000
00000000
00000000
,  // measure 36
02003000
00000000
00000000
00000000
,  // measure 37
03020000
00000000
00000000
00000000
,  // measure 38
20030000
00000000
00000000
00000000
,  // measure 39
32000000
00000000
03020000
00000000
,  // measure 40
00032000
00000000
00003200
00000000
,  // measure 41
00000301
00000001
00000001
00000100
,  // measure 42
00001000
00001000
00001000
00010000
,  // measure 43
01000000
01000000
01000000
00100000
,  // measure 44
00010000
00010000
00010000
01000000
,  // measure 45
10000000
10000000
10000000
01000000
,  // measure 46
00010000
00010000
00010000
00001000
,  // measure 47
00000100
00000100
00000001
00000001
,  // measure 48
00000010
00000010
00001000
00001000
,  // measure 49
00000000
00000000
00000000
00000000
,  // measure 50
00000010
00000010
00000010
00000010
,  // measure 51
00000001
00000100
00001000
00010000
,  // measure 52
01000000
01000000
01000000
01000000
,  // measure 53
10000000
01000000
00010000
00001000
,  // measure 54
00000010
00000010
00000100
00000100
,  // measure 55
00001000
00000001
00001000
00000001
,  // measure 56
00000010
00000001
00000100
00001000
,  // measure 57
00010000
00010000
00011000
00011000
,  // measure 58
00100000
00100000
00100000
00100000
,  // measure 59
10000000
00100000
00010000
00001000
,  // measure 60
00000100
00000100
00000100
00000100
,  // measure 61
00000001
00000010
00001000
00010000
,  // measure 62
00100000
00100000
01000000
01000000
,  // measure 63
10000000
00010000
10000000
00010000
,  // measure 64
10000000
01000000
00100000
00010000
,  // measure 65
00001000
00001000
00010000
00010000
,  // measure 66
00022000
00000000
00000000
00000000
,  // measure 67
00033000
00000000
00000000
00000000
;
