#TITLE:世界の果てに約束の凱歌を;
#SUBTITLE:-8bit サマーフォーエバー2021mix-;
#ARTIST:T.D.STRIKESBACK;
#TITLETRANSLIT:Sekai no hate ni yakusoku no gaika wo;
#SUBTITLETRANSLIT:-8bit Summer Forever 2021 mix-;
#ARTISTTRANSLIT:;
#GENRE:;
#CREDIT:;
#BANNER:Sekai no hate ni yakusoku no gaika wo -8bit Summer Forever 2021 mix-.png;
#BACKGROUND:Sekai no hate ni yakusoku no gaika wo -8bit Summer Forever 2021 mix--bg.png;
#LYRICSPATH:;
#CDTITLE:;
#MUSIC:Sekai no hate ni yakusoku no gaika wo -8bit Summer Forever 2021 mix-.ogg;
#OFFSET:0.021000;
#SAMPLESTART:71.354317;
#SAMPLELENGTH:15.599998;
#SELECTABLE:YES;
#DISPLAYBPM:100.000000:200.000000;
#BPMS:0.000000=200.000000
,208.000000=100.000000
,222.500000=200.000000
,317.000000=100.000000
,334.000000=90.000000
,335.000000=92.000000
,336.000000=200.000000
;
#STOPS:222.500000=0.750000,
316.500000=0.630000,
332.000000=0.449997
;
#BGCHANGES:;
#KEYSOUNDS:;
#ATTACKS:;

//---------------dance-single - ----------------
#NOTES:
     dance-single:
     :
     Hard:
     17:
     0.885354,1.190017,0.570269,0.218044,0.641553,739.000000,671.000000,68.000000,26.000000,0.000000,0.000000,0.885354,1.190017,0.570269,0.218044,0.641553,739.000000,671.000000,68.000000,26.000000,0.000000,0.000000:
// measure 0
0000
0000
0000
0000
,  // measure 1
0000
0000
0000
0000
,  // measure 2
0000
0000
0000
0000
,  // measure 3
0000
0000
0000
0000
,  // measure 4
0000
0000
0000
0000
,  // measure 5
0000
0000
0000
0000
,  // measure 6
0012
0000
0103
0010
0120
0000
1030
0100
,  // measure 7
1200
0320
0032
2003
,  // measure 8
3001
0000
0010
0000
0100
0000
1000
0000
0001
0010
0100
1000
0001
0010
0100
1000
,  // measure 9
0002
0000
0000
0000
0000
0000
1003
0001
2000
0000
0000
0000
3001
0000
0000
0000
,  // measure 10
0010
0000
0100
0000
0001
0000
0100
0000
0010
1000
0010
0000
1000
0000
0100
0000
,  // measure 11
0010
0000
0100
0000
1000
0000
0001
0000
0100
0010
0100
0000
0001
0000
1000
0000
,  // measure 12
0001
0000
0010
0000
0100
0000
0010
0000
0001
1000
0001
0000
1000
0000
0100
0000
,  // measure 13
0010
0000
0001
0000
1000
0000
0010
0000
1000
0001
1000
0010
1000
0000
0001
0000
,  // measure 14
0100
0001
0100
0001
0100
0000
0010
0000
1000
0100
1000
0100
1000
0000
0010
0000
,  // measure 15
0100
0001
1000
0010
0000
0100
0110
0000
,  // measure 16
0101
0001
1001
1000
1010
1001
0000
0110
,  // measure 17
0000
0000
1001
0000
0000
0000
0110
0000
0000
0000
0010
1000
0010
0000
0000
0000
,  // measure 18
1000
0100
0001
1000
0010
0001
1000
0100
,  // measure 19
0010
0000
0001
0000
0010
0000
0100
0000
1000
0000
0010
0100
0010
0000
1000
0000
,  // measure 20
2002
0000
3003
1000
1001
0000
0010
0000
,  // measure 21
0220
0000
0330
0010
0110
0000
1000
0000
,  // measure 22
2200
0000
3300
1000
1100
0000
0010
0000
,  // measure 23
0022
0000
0033
0010
0011
0000
0100
0000
,  // measure 24
0101
0001
0100
0010
1000
0010
0100
0001
,  // measure 25
1000
0100
0010
0100
1000
0001
0100
1000
,  // measure 26
0100
0001
0010
0100
1000
0100
0010
0001
,  // measure 27
1000
0100
1000
0100
1000
0100
1000
0000
0001
0000
0100
0010
0100
0000
0000
0000
,  // measure 28
0001
1000
0100
1000
0001
1000
0010
1000
,  // measure 29
0001
0000
0010
0001
0010
0000
0001
0000
1000
0010
0100
0010
1000
0000
0001
0000
,  // measure 30
1000
0100
0010
0100
1000
0100
0001
0100
,  // measure 31
1000
0000
0010
0000
0001
0000
0010
0000
1000
0100
1000
0100
0010
0000
0001
0000
,  // measure 32
0100
0010
0100
0010
1000
0000
0001
0000
1000
0000
0100
0000
0010
0000
0001
0000
,  // measure 33
1000
0010
1000
0010
1000
0000
0001
0000
0010
0000
0100
0000
0010
0000
0001
0000
,  // measure 34
1000
0010
1000
0010
1000
0000
0001
0000
0100
0000
0010
0000
0000
0000
0100
0000
,  // measure 35
0001
0010
0001
0010
0001
0000
1000
0100
1000
0000
0010
1000
0100
0000
1000
0000
,  // measure 36
1001
0000
0010
1000
1100
0000
0101
0000
,  // measure 37
0011
0000
0101
0001
0101
0000
1010
0000
,  // measure 38
1001
0000
1100
1100
1100
0000
0001
0010
,  // measure 39
0011
0000
0000
0020
0001
0000
0000
0032
0100
0000
0000
0203
0010
0000
0000
0310
,  // measure 40
1000
0000
0100
1000
1100
0000
0101
0000
,  // measure 41
1100
0000
0010
0110
0110
0000
1000
0100
,  // measure 42
1100
0101
1010
0011
,  // measure 43
1000
0000
0100
0000
0010
0000
0001
0000
1000
0100
0010
0001
1000
0100
0010
0001
,  // measure 44
1000
0001
0100
0001
1000
0001
0010
0001
,  // measure 45
1000
0100
0010
0100
1000
0001
0010
0100
,  // measure 46
1000
0001
0100
1000
0100
0001
1000
0010
,  // measure 47
0001
0010
1000
0001
0010
0100
1000
0100
,  // measure 48
0010
0000
0000
0011
0000
0000
1001
0000
0000
0000
0010
0000
0100
0000
0010
0000
,  // measure 49
1010
0000
0000
1001
0000
0000
1001
0000
0000
0000
0001
0000
0010
0000
0100
0000
,  // measure 50
0010
0000
0010
0000
0010
0000
1000
0100
0010
0000
0010
0000
0010
0000
0100
0010
,  // measure 51
0001
0000
0011
0000
0000
0000
1100
0000
0000
0000
0100
0000
0010
0001
1000
0100
,  // measure 52
0010
0000
0002
0000
0203
0000
2300
0000
3100
0010
0000
0002
0000
0000
0000
0000
,  // measure 53
1003
0000
0100
0000
0001
0000
0100
0000
1000
0100
0000
0002
0000
0000
0103
0010
,  // measure 54
1000
0000
0000
0010
1000
0000
0100
0000
0010
0001
0100
1000
0010
0000
1000
0000
,  // measure 55
0101
0000
0101
0000
1100
1100
0000
0110
0000
1001
1001
0000
0010
0000
0100
0010
,  // measure 56
0000
0100
0010
0000
1000
0000
0100
0000
0010
0000
0001
0000
0100
0000
0010
0100
,  // measure 57
0000
0010
0100
0000
0001
0000
0010
0001
0000
0100
0010
0000
1000
0100
0000
1000
,  // measure 58
0100
0000
0010
0001
0010
0001
0000
0100
0010
0000
1000
0100
0010
0000
0100
0010
,  // measure 59
0000
0100
0001
0000
1000
0100
0010
0000
1000
0001
1000
0001
1000
0000
0000
1010
,  // measure 60
0000
0000
1001
0000
0001
0000
0100
0001
0100
0001
1000
0000
0010
0000
0000
1010
,  // measure 61
0000
0000
1001
0000
1000
0000
0000
0000
0001
0100
0001
0100
0001
0000
0000
1000
,  // measure 62
0000
0000
1010
0000
1000
0000
0000
0001
0000
0000
0011
0000
0001
0000
0000
0100
,  // measure 63
0000
0000
0010
0000
1000
0100
1000
0100
0010
0001
0010
0001
1000
0000
0010
0000
,  // measure 64
0100
0000
0001
0100
0010
0000
1000
0000
0010
0000
0100
0010
0100
0000
0010
0000
,  // measure 65
1000
0000
0010
1000
0100
0000
0001
0000
0100
0000
1000
0010
0100
0000
0001
0000
,  // measure 66
0100
0000
0010
0000
1000
0000
0010
1000
0010
1000
0010
1000
0100
0000
0000
0010
,  // measure 67
0000
0000
0001
0000
0101
0000
0000
0000
1000
0100
0010
0001
0100
0000
0000
0110
,  // measure 68
0000
0000
0010
0000
1000
0000
0000
1100
0000
0000
0100
0000
0001
0000
0000
0101
,  // measure 69
0000
0000
0100
0000
0010
0000
1000
0000
0001
1000
0001
1000
0001
0000
0100
0010
,  // measure 70
0100
0000
0001
0000
1000
0000
0100
1000
0100
0000
1000
0100
0010
0000
0010
0000
,  // measure 71
0010
0000
0010
0000
1000
0001
1000
0001
1000
0001
1000
0001
1000
0000
0010
0000
,  // measure 72
0001
0010
1000
0100
0001
0100
1000
0010
,  // measure 73
0001
1000
0100
0001
1000
0100
0010
0001
,  // measure 74
0100
0001
0010
1000
0010
0001
1000
0100
,  // measure 75
0010
0000
0001
0000
0010
0000
0100
0000
1000
0010
1000
0010
1000
0000
0001
0000
,  // measure 76
0100
0000
0001
0000
0010
0000
0001
0000
0100
0000
0010
1000
0010
0000
0100
0010
,  // measure 77
0000
0100
0010
0000
1000
0100
0010
0000
0100
0010
0001
0000
1000
0001
1000
0001
,  // measure 78
1000
0001
1000
0001
0100
0010
1000
0001
0100
0010
1000
0000
0000
0000
0101
0000
,  // measure 79
0000
0000
0110
0000
0000
0000
0001
0000
0100
0000
0010
0000
1000
0010
0000
0100
,  // measure 80
0000
0010
0000
0000
1000
0000
0000
0000
0001
0000
0000
0000
1000
0000
0000
0000
,  // measure 81
0001
0000
0000
0000
0010
0000
0000
0010
0100
0000
0100
0000
0001
0100
0010
1000
,  // measure 82
0000
0000
0000
0000
0010
0000
0010
0000
0010
1000
0000
0100
0000
0010
0000
0001
,  // measure 83
0000
2002
0000
0000
0000
0000
0000
0000
0000
0000
0000
0000
3003
0000
0000
0000
,  // measure 84
1000
0100
1000
0010
1000
0001
0100
0010
0100
0001
1000
0001
0010
1000
0010
0001
,  // measure 85
1000
0100
0010
0001
1000
0010
0100
0010
1000
0001
0010
1000
0010
0001
0100
0010
,  // measure 86
0100
0000
0000
0000
;

//---------------dance-single - ----------------
#NOTES:
     dance-single:
     :
     Medium:
     13:
     0.636161,0.757284,0.478020,0.251589,0.146760,531.000000,474.000000,57.000000,30.000000,0.000000,0.000000,0.636161,0.757284,0.478020,0.251589,0.146760,531.000000,474.000000,57.000000,30.000000,0.000000,0.000000:
// measure 0
0000
0000
0000
0000
,  // measure 1
0000
0000
0000
0000
,  // measure 2
0000
0000
0000
0000
,  // measure 3
0000
0000
0000
0000
,  // measure 4
0000
0000
0000
0000
,  // measure 5
0000
0000
0000
0000
,  // measure 6
0002
0000
1003
0100
0020
0000
1030
0001
,  // measure 7
0100
0000
0000
0100
0010
0000
0000
0010
1000
0000
0000
1000
0001
0000
0000
0001
,  // measure 8
0200
0000
0000
0010
0310
0000
1000
0000
,  // measure 9
0002
0000
0000
0100
0200
0000
0303
0000
,  // measure 10
0010
1000
0100
0010
0001
0010
0100
1000
,  // measure 11
0000
0001
0010
0100
1000
0100
0010
0001
,  // measure 12
0000
1000
0010
1000
0001
0010
0100
0010
,  // measure 13
0000
0001
0010
0001
1000
0100
0010
0100
,  // measure 14
1000
0000
0001
1000
0100
0000
1000
0001
,  // measure 15
0010
0001
1000
0100
0000
0010
0010
0000
,  // measure 16
1001
0000
1001
0000
1000
0001
0000
1100
,  // measure 17
0000
0110
0000
0011
0000
1000
0001
0100
,  // measure 18
0002
0000
0000
2003
0000
0000
3020
0000
,  // measure 19
0000
0230
0000
0000
0301
0010
0100
1000
,  // measure 20
0010
0000
1100
0000
,  // measure 21
0101
0000
0000
0001
0001
0000
1000
0000
,  // measure 22
1010
0000
0011
0000
,  // measure 23
0110
0000
0000
0100
0100
0000
0110
0000
,  // measure 24
0110
0000
0000
0010
0010
0000
0110
0000
,  // measure 25
0110
0000
0000
1000
1000
0000
0101
0000
,  // measure 26
1010
0000
0001
1000
0001
0000
1100
0000
,  // measure 27
0001
0010
0100
1000
0001
0001
1000
1000
,  // measure 28
0010
1000
0100
1000
0010
0100
0010
0100
,  // measure 29
0001
0010
0100
1000
0001
0010
0100
0010
,  // measure 30
0001
1000
0100
0001
0100
1000
0001
1000
,  // measure 31
0010
1000
0010
0001
0010
1000
0010
1000
,  // measure 32
0001
0010
0100
0010
0001
1000
0010
0000
,  // measure 33
1000
0100
0010
0100
1000
0001
0100
0000
,  // measure 34
0110
0000
1010
0000
0100
0001
0000
1010
,  // measure 35
0000
0001
0010
0100
0000
1000
0100
0010
,  // measure 36
0002
0000
0003
1000
0020
0000
1030
0000
,  // measure 37
0002
0023
0230
0320
,  // measure 38
0032
0000
1003
1000
0001
0000
1000
1000
,  // measure 39
0100
0010
0011
0101
,  // measure 40
1001
0000
0000
0010
0100
0000
1001
0000
,  // measure 41
1001
0000
0000
0100
0010
0000
1000
0001
,  // measure 42
0100
0110
1010
0101
,  // measure 43
1100
0000
0010
0100
0001
0000
1000
0100
,  // measure 44
0010
0100
0010
0100
0001
0100
0001
0100
,  // measure 45
0010
1000
0010
0100
0010
1000
0010
0100
,  // measure 46
0001
0000
1000
0100
0010
0000
0001
0010
,  // measure 47
0100
0000
0110
0000
1010
0000
1000
0001
,  // measure 48
0100
0000
0000
0100
0000
0000
0110
0000
0000
0000
0001
0000
1000
0000
0001
0000
,  // measure 49
0010
0000
0000
0010
0000
0000
0110
0000
0000
0000
0100
0000
0010
0000
1000
0000
,  // measure 50
0001
0000
0000
0000
0000
0000
0001
0100
0001
0000
0000
0000
0000
0000
1000
0100
,  // measure 51
1000
0010
0000
0001
0000
0110
0000
0000
,  // measure 52
2002
0000
3003
0000
,  // measure 53
0002
2003
3020
0230
,  // measure 54
0301
0000
0001
0000
1000
0000
1000
0000
0001
0010
0001
0010
0001
0000
0001
0000
,  // measure 55
1000
0000
0001
0000
1000
0100
0000
0010
0000
0001
0100
0000
0010
0000
1000
0000
,  // measure 56
1001
0000
0100
0001
0101
0000
0010
1000
,  // measure 57
0100
1000
0010
0100
0001
0000
1000
1000
,  // measure 58
1000
0000
0001
0001
0001
0000
1100
0000
,  // measure 59
0110
0000
0011
0000
0100
0010
1010
0000
,  // measure 60
0101
0000
1010
0000
0001
0010
0110
0000
,  // measure 61
1010
0000
0000
0000
0101
0000
0000
0000
1000
0000
0100
0000
1000
0000
0000
1100
,  // measure 62
0000
0000
0000
0000
0001
0000
0000
0101
0000
0000
0001
0000
1000
0000
0010
0000
,  // measure 63
0100
0000
0001
0000
1000
0000
1000
0000
0001
1000
0001
1000
0001
0000
0100
0000
,  // measure 64
1000
0200
0000
0301
0010
0200
0000
0310
,  // measure 65
0100
0200
0000
0301
1000
0200
0000
1300
,  // measure 66
0001
0000
0010
0000
0001
0000
1000
0000
0100
0000
0010
0001
0010
0000
0000
0001
,  // measure 67
0000
0000
0100
0000
0010
0000
1000
0000
0010
0000
0100
0000
0010
0000
0000
1010
,  // measure 68
0000
0000
0000
0000
0100
0000
0000
0101
0000
0000
0000
0000
1000
0000
0000
1001
,  // measure 69
0000
0000
0000
0000
0010
0000
0000
0100
0000
0000
0001
0000
1000
0000
0001
0000
,  // measure 70
0010
0100
0010
0001
1000
0010
0200
0010
,  // measure 71
0310
0000
0020
0100
0130
0000
0001
0100
,  // measure 72
0001
0100
0010
1000
0010
0000
1000
0100
,  // measure 73
1000
0100
0010
0001
0010
0000
0001
0100
,  // measure 74
1000
0100
0001
0001
0001
0000
1000
0100
,  // measure 75
0001
0000
0100
0000
1000
0000
0010
0000
0100
0000
0010
0100
0010
0000
1000
0000
,  // measure 76
0001
0000
0010
0000
0100
0000
0010
0000
0001
0000
0100
0010
0100
0000
0001
0000
,  // measure 77
1000
0010
0100
0001
1000
0100
1100
0000
,  // measure 78
0101
0000
1000
0100
0000
1100
0000
0110
,  // measure 79
0000
0000
0011
0000
0000
0000
1000
0000
0001
0000
1000
0000
0010
0100
0000
0100
,  // measure 80
0000
0100
0000
0000
0001
0000
0000
0000
0010
0000
0000
0000
0100
0000
0000
0000
,  // measure 81
1000
0000
0000
0000
0001
0000
0000
0000
1000
0000
0000
0000
0010
0100
0010
0100
,  // measure 82
0000
0000
0000
0000
0001
0000
0001
0000
0001
1000
0000
0010
0000
0010
0000
0010
,  // measure 83
0000
2002
0000
0000
0000
0000
0000
0000
0000
0000
0000
0000
3003
0000
0000
0000
,  // measure 84
0010
0010
0010
0010
0010
0010
0010
0010
,  // measure 85
0010
0010
0010
0010
0010
0010
0010
0010
,  // measure 86
0010
0000
0000
0000
;

//---------------dance-single - ----------------
#NOTES:
     dance-single:
     :
     Easy:
     8:
     0.431296,0.613039,0.318680,0.343839,0.071284,360.000000,322.000000,38.000000,41.000000,0.000000,0.000000,0.431296,0.613039,0.318680,0.343839,0.071284,360.000000,322.000000,38.000000,41.000000,0.000000,0.000000:
// measure 0
0000
0000
0000
0000
,  // measure 1
0000
0000
0000
0000
,  // measure 2
0000
0000
0000
0000
,  // measure 3
0000
0000
0000
0000
,  // measure 4
0000
0000
0000
0000
,  // measure 5
0000
0000
0000
0000
,  // measure 6
2002
3003
0220
0330
,  // measure 7
1010
0101
1010
0101
,  // measure 8
0200
0000
0000
0010
0310
0000
1000
0000
,  // measure 9
0002
0000
0000
0100
0200
0000
0303
0000
,  // measure 10
0010
0000
1000
0000
0100
0000
0100
0001
,  // measure 11
0100
0000
0010
0000
1000
0000
0010
0100
,  // measure 12
0010
0000
0010
0000
0010
0000
1000
0001
,  // measure 13
1000
0100
0010
0001
,  // measure 14
0101
0000
0001
0000
1000
0000
0010
1000
,  // measure 15
0010
1000
0100
0010
,  // measure 16
0001
0000
0001
0000
1000
0001
0000
0100
,  // measure 17
0000
0010
0000
1001
0000
0000
0100
0000
,  // measure 18
0002
0000
0000
0000
,  // measure 19
0000
0000
1003
1000
,  // measure 20
0020
0000
0230
0000
,  // measure 21
0301
0000
0000
0001
0000
0000
0001
0000
,  // measure 22
2000
0000
3020
0000
,  // measure 23
0130
0000
0000
0100
0000
0000
0001
0000
,  // measure 24
0001
1000
0001
0100
,  // measure 25
1000
0100
0001
0010
,  // measure 26
1000
0100
0010
0001
,  // measure 27
0100
0000
0010
0100
0100
0000
0001
0000
,  // measure 28
1000
0001
1000
0101
,  // measure 29
1000
0001
0010
0110
,  // measure 30
0001
1000
0001
0110
,  // measure 31
0001
0010
0100
1010
,  // measure 32
0100
0001
1010
0001
,  // measure 33
1000
0100
0011
0100
,  // measure 34
1000
0001
0100
0010
,  // measure 35
1000
0001
1000
0000
0001
1000
0001
0000
,  // measure 36
2000
3000
0002
0003
,  // measure 37
1000
0100
0010
0001
,  // measure 38
0002
0000
1003
1000
0000
0000
0001
0000
,  // measure 39
0100
0010
0010
0100
,  // measure 40
0002
0000
0003
0001
1000
0000
0000
0000
,  // measure 41
2000
0000
3000
1000
0001
0000
1000
0001
,  // measure 42
1000
0001
0010
0100
,  // measure 43
2000
0000
3001
0000
,  // measure 44
0200
0310
0020
0130
,  // measure 45
0002
0023
0230
0320
,  // measure 46
0032
1003
1001
2000
,  // measure 47
3020
0230
0301
0101
,  // measure 48
0010
0000
0000
0010
0000
0000
0010
0000
0000
0000
0000
0000
1001
0000
0000
0000
,  // measure 49
0100
0000
0000
0100
0000
0000
0100
0000
0000
0000
0000
0000
1001
0000
0000
0000
,  // measure 50
0010
1000
0100
0001
,  // measure 51
0010
0010
0000
0010
0000
1001
0000
0000
,  // measure 52
2000
0000
0000
3000
,  // measure 53
0002
2003
3020
0230
,  // measure 54
0310
0000
0000
0000
1000
0000
0000
0000
0001
1000
0001
1000
0000
0000
0000
0000
,  // measure 55
0010
0000
0010
0000
0010
0000
0000
0010
0000
0000
1001
0000
0001
0000
0000
0000
,  // measure 56
1001
0100
0101
0010
,  // measure 57
1000
0100
0001
1000
,  // measure 58
1001
0001
1001
1100
,  // measure 59
0110
0000
0011
0000
0000
0000
1000
1000
,  // measure 60
0100
0000
0010
0000
0000
0000
0001
0001
,  // measure 61
0010
0000
0000
0000
0100
0000
0000
0000
0000
0000
0000
0000
1000
0000
0000
1000
,  // measure 62
0000
0000
0000
0000
0001
0000
0000
0001
0000
0000
0000
0000
1000
0000
0010
0000
,  // measure 63
0100
0001
1001
0010
,  // measure 64
1000
0200
0301
0010
,  // measure 65
0001
0000
0200
0000
1300
0000
1000
1000
,  // measure 66
1000
0000
0001
0001
0001
0000
0100
0010
,  // measure 67
0100
0000
0000
0000
1001
0000
0000
0000
0000
0000
0000
0000
0010
0000
0000
0010
,  // measure 68
0000
0000
0000
0000
0100
0000
0000
0100
0000
0000
0000
0000
1000
0000
0000
1000
,  // measure 69
0000
0000
0000
0000
0001
0000
0000
0001
0000
0000
0001
0000
1000
0000
0000
0000
,  // measure 70
0010
0100
0010
0000
1000
0000
0220
0000
,  // measure 71
0330
0000
2002
0000
3003
0000
0001
0100
,  // measure 72
0001
0000
0010
0000
0000
0000
1000
0100
,  // measure 73
1000
0010
0000
0001
,  // measure 74
1000
0001
0001
1000
,  // measure 75
0001
0000
1000
0000
1000
0000
0010
1000
,  // measure 76
0001
0000
0100
0000
0000
0000
0100
0001
,  // measure 77
1000
0100
0000
1100
,  // measure 78
0101
0000
0011
0000
0000
1001
0000
1001
,  // measure 79
0000
1001
0000
0000
0001
0000
0010
0000
,  // measure 80
0100
1000
0010
0001
,  // measure 81
0100
0000
0000
0000
1000
0000
0000
0000
0010
0000
0000
0000
0010
0100
0010
0100
,  // measure 82
0000
0000
0000
0000
0001
0000
0001
0000
0001
0000
0000
0010
0000
0010
0000
0010
,  // measure 83
0000
2002
0000
0000
0000
0000
0000
0000
0000
0000
0000
0000
3003
0000
0000
0000
,  // measure 84
0100
0010
0100
0010
0100
0010
0100
0010
,  // measure 85
0100
0010
0100
0010
0100
0010
0100
0010
,  // measure 86
0100
0000
0000
0000
;

//---------------dance-single - ----------------
#NOTES:
     dance-single:
     :
     Beginner:
     6:
     0.279144,0.360611,0.067090,0.025159,0.004193,233.000000,225.000000,8.000000,3.000000,0.000000,0.000000,0.279144,0.360611,0.067090,0.025159,0.004193,233.000000,225.000000,8.000000,3.000000,0.000000,0.000000:
// measure 0
0000
0000
0000
0000
,  // measure 1
0000
0000
0000
0000
,  // measure 2
0000
0000
0000
0000
,  // measure 3
0000
0000
0000
0000
,  // measure 4
0000
0000
0000
0000
,  // measure 5
0000
0000
0000
0000
,  // measure 6
0001
0000
0010
0000
,  // measure 7
0100
0000
1000
0000
,  // measure 8
0001
0001
0001
0001
,  // measure 9
0001
0000
1000
0000
,  // measure 10
0010
0010
0010
0000
,  // measure 11
0100
0100
0100
0000
,  // measure 12
0001
1000
0001
0000
,  // measure 13
1000
0001
1000
0000
,  // measure 14
0100
0100
0100
0000
,  // measure 15
0010
0010
0010
0000
,  // measure 16
0001
0001
0001
0000
,  // measure 17
1001
0000
0000
0000
,  // measure 18
0020
0000
0000
0000
,  // measure 19
0000
0000
0030
0000
,  // measure 20
0001
0000
0001
0000
,  // measure 21
0010
0000
0010
0000
,  // measure 22
0100
0000
0100
0000
,  // measure 23
1000
0000
1000
0000
,  // measure 24
0001
0000
0010
0000
,  // measure 25
0100
0000
1000
0000
,  // measure 26
0001
0000
1000
0000
,  // measure 27
0001
0001
0001
0000
,  // measure 28
0001
0001
1000
0000
,  // measure 29
1000
1000
0001
0000
,  // measure 30
0010
0010
0010
0010
,  // measure 31
0100
0100
0100
0000
,  // measure 32
1000
1000
0001
0001
,  // measure 33
1000
1000
0001
0001
,  // measure 34
1000
1000
0100
0000
,  // measure 35
0001
0001
0100
0000
,  // measure 36
0001
0000
0100
0000
,  // measure 37
1000
1000
1000
0000
,  // measure 38
0001
0000
0010
0000
,  // measure 39
1000
1000
1000
0000
,  // measure 40
0010
0000
1000
0000
,  // measure 41
0100
0100
0100
0000
,  // measure 42
0010
0010
0010
0000
,  // measure 43
1000
1000
1000
0000
,  // measure 44
0001
0000
1000
0000
,  // measure 45
0010
0010
0010
0000
,  // measure 46
1000
1000
1000
0000
,  // measure 47
0001
0001
0001
0000
,  // measure 48
0020
0030
0010
0000
,  // measure 49
0200
0300
0100
0000
,  // measure 50
0010
0010
0010
0010
,  // measure 51
0010
0000
1001
0000
,  // measure 52
0100
0000
0100
0000
,  // measure 53
0010
0000
0010
0000
,  // measure 54
1000
1000
0001
0001
,  // measure 55
0100
0100
0100
0010
,  // measure 56
0000
0100
0000
0010
,  // measure 57
0010
0100
0100
1000
,  // measure 58
0001
1000
0001
1000
,  // measure 59
0000
1001
0000
0010
,  // measure 60
0010
0010
0000
0100
,  // measure 61
0100
0100
0000
0001
,  // measure 62
0001
1000
1000
0001
,  // measure 63
1000
0001
0000
0010
,  // measure 64
0010
0010
0000
0100
,  // measure 65
0100
0100
0000
1000
,  // measure 66
0001
1000
0001
0100
,  // measure 67
0100
0100
0000
0001
,  // measure 68
0000
1001
0000
1000
,  // measure 69
0000
1001
0000
0001
,  // measure 70
0000
0010
0000
0100
,  // measure 71
0000
1001
0000
1000
,  // measure 72
1000
1000
0000
0001
,  // measure 73
0001
0001
0000
0010
,  // measure 74
0010
0010
0000
0100
,  // measure 75
0100
0100
0000
1000
,  // measure 76
0001
1000
0001
1000
,  // measure 77
1000
1000
0000
0001
,  // measure 78
0001
0000
1000
0000
0000
0001
0000
0001
,  // measure 79
0000
0001
0000
0000
0100
0000
0100
0000
,  // measure 80
1000
1000
0010
0010
,  // measure 81
0001
0001
0100
0100
,  // measure 82
1000
0010
0001
0100
,  // measure 83
0000
1001
0000
0000
0000
0000
0000
0000
0000
0000
0000
0000
0000
0000
0000
0000
,  // measure 84
0010
0010
0100
0100
,  // measure 85
1000
0001
1000
0001
,  // measure 86
1001
0000
0000
0000
;
