#TITLE:Rave Patroller;
#SUBTITLE:;
#ARTIST:Eagle;
#TITLETRANSLIT:;
#SUBTITLETRANSLIT:;
#ARTISTTRANSLIT:;
#GENRE:;
#CREDIT:;
#BANNER:Rave Patroller.png;
#BACKGROUND:Rave Patroller-bg.png;
#LYRICSPATH:;
#CDTITLE:;
#MUSIC:Rave Patroller.ogg;
#OFFSET:0.900000;
#SAMPLESTART:32.014282;
#SAMPLELENGTH:12.342857;
#SELECTABLE:YES;
#BPMS:0.000000=175.000000
;
#STOPS:
;
#BGCHANGES:2.500=Rave Patroller.avi=1.000=0=0=0=StretchNoLoop====,
99999=-nosongbg-=1.000=0=0=0 // don't automatically add -songbackground-
;
#KEYSOUNDS:;
#ATTACKS:;

//---------------dance-single - ----------------
#NOTES:
     dance-single:
     :
     Hard:
     14:
     0.772534,0.944956,0.830731,0.103841,0.523201,677.000000,573.000000,104.000000,13.000000,0.000000,0.000000,0.772534,0.944956,0.830731,0.103841,0.523201,677.000000,573.000000,104.000000,13.000000,0.000000,0.000000:
// measure 0
0000
0000
0000
0000
,  // measure 1
0000
0000
0000
0000
,  // measure 2
0000
0000
0000
0000
,  // measure 3
0000
0000
0000
0000
,  // measure 4
0000
0000
0000
0000
,  // measure 5
0000
0000
0000
0000
,  // measure 6
0000
0000
0000
0000
,  // measure 7
0000
0000
0000
0000
,  // measure 8
0000
0000
0000
0000
,  // measure 9
0010
0000
1000
0000
0010
0000
1000
0000
0001
0000
0000
0001
0000
0001
0100
0000
,  // measure 10
0001
0000
1000
0000
0001
0000
1000
0000
0010
0000
0000
0001
0000
0001
1000
0000
,  // measure 11
0010
0000
1000
0000
0001
0000
1000
0000
0100
0000
0000
1000
0000
1000
0001
0000
,  // measure 12
1000
0000
0010
0000
1000
0000
0100
0000
1000
0000
0000
0001
0000
0001
0100
0000
,  // measure 13
0001
0000
0010
0000
0001
0000
0100
0000
0001
0000
0000
1000
0000
1000
0001
0000
,  // measure 14
1000
0000
0010
0000
1000
0000
0100
0000
1000
0000
0000
0001
0000
0001
0100
0000
,  // measure 15
0001
0000
0010
0000
0100
0000
0010
0000
0001
0000
0000
1000
0000
1000
0010
0000
,  // measure 16
1000
0000
0100
0000
0010
0000
0100
0000
1000
0000
0000
0001
0000
0001
0100
0000
,  // measure 17
0001
0000
0100
0000
1000
0000
0100
0000
0001
0000
0000
1000
0000
1000
0001
0000
,  // measure 18
1000
0000
0100
0000
0001
0000
0100
0000
1000
0000
0000
0001
0000
0001
1000
0000
,  // measure 19
0001
0000
0010
0000
1000
0000
0010
0000
0001
0000
0000
1000
0000
1000
0001
0000
,  // measure 20
1000
0000
0010
0000
0001
0000
0010
0000
1000
0000
0000
0010
0000
0010
0100
0000
,  // measure 21
0001
0010
0100
1000
0001
0010
0100
1000
,  // measure 22
0001
0010
0100
1000
0001
0010
0100
1000
,  // measure 23
0001
0100
0001
0000
1000
0100
1000
0000
0001
0010
0001
0000
1000
0010
1000
0000
,  // measure 24
0010
0010
0010
0010
0010
0010
0110
0000
,  // measure 25
0101
0000
0000
1100
0000
0000
0101
0000
0000
1100
0000
0000
1001
0000
1000
0000
,  // measure 26
1001
0000
0000
1100
0000
0000
1001
0000
0000
1100
0000
0000
1001
0000
0001
0000
,  // measure 27
0101
0000
0000
0011
0000
0000
0101
0000
0000
0011
0000
0000
0101
0000
0100
0000
,  // measure 28
0110
0000
0000
1001
0000
0000
0110
0000
0000
1001
0000
0000
0110
0000
0010
0000
,  // measure 29
1010
0000
0000
0101
0000
0000
1010
0000
0000
0101
0000
0000
1010
0000
0010
0000
,  // measure 30
1001
0000
0000
1100
0000
0000
1001
0000
0000
0101
0000
0000
1001
0000
1000
0000
,  // measure 31
1010
0000
0000
0110
0000
0000
0101
0000
0000
0110
0000
0000
1010
0000
0000
0000
,  // measure 32
0000
0000
0101
0000
0000
1001
0000
0000
0011
0000
0000
0000
1001
0000
0000
0000
,  // measure 33
1000
0000
0000
1000
0100
0000
0001
0000
0000
0001
0100
0000
0010
0000
1000
0000
,  // measure 34
0001
0000
0000
0001
0010
0000
1000
0000
0000
1000
0010
0000
0001
0000
0100
0000
,  // measure 35
0010
0000
0000
0010
0100
0000
0001
0000
0000
0001
1000
0000
0010
0000
0100
0000
,  // measure 36
0010
0000
0000
0010
1000
0000
0001
0000
0000
0001
0100
0000
0010
1000
0010
0000
,  // measure 37
1000
0000
0000
1000
0100
0000
0010
0000
0000
0010
0001
0000
0100
0000
0100
0000
,  // measure 38
0001
0000
0000
0001
0010
0000
0100
0000
0000
0100
1000
0000
0010
0000
0100
0000
,  // measure 39
0001
0000
0000
0001
0100
0000
1000
0000
0000
1000
0100
0000
0001
0000
0010
0000
,  // measure 40
0000
0000
0011
0000
0000
0101
0000
0000
1001
0000
0000
0000
0010
0000
0000
0000
,  // measure 41
0001
0000
0100
0000
0001
0000
0100
0000
0001
0000
0010
0001
0000
0010
0001
0000
,  // measure 42
1000
0000
0100
0000
0100
0000
1000
0000
0001
0000
1000
0010
0000
1000
0010
0000
,  // measure 43
1000
0000
0001
0000
1000
0000
0100
0000
0010
0000
0001
0010
0000
0001
0010
0000
,  // measure 44
0001
0100
0100
0001
1000
0000
2002
3003
,  // measure 45
0010
0000
1000
0000
0001
0000
0100
0000
0010
0000
1000
0010
0000
1000
0010
0000
,  // measure 46
1000
0001
1000
0000
0001
0100
0001
0000
0001
0000
0010
0001
0000
1000
0100
0000
,  // measure 47
0010
0001
0010
0000
1000
0000
0100
0000
0010
0000
0100
0010
0000
0010
0100
0000
,  // measure 48
0001
1000
0020
0200
0000
0000
0330
0000
,  // measure 49
2002
0003
0020
0000
,  // measure 50
0000
0000
0000
3030
,  // measure 51
0001
0000
0000
0000
0001
0000
0000
0000
0001
0000
0000
0001
0000
0000
0001
0000
,  // measure 52
1000
0000
0000
0000
1000
0000
0000
0000
1000
0000
0000
1000
0000
0000
1000
0000
,  // measure 53
0020
0000
0200
0000
,  // measure 54
0000
0000
0000
0330
,  // measure 55
0001
0000
0000
0000
0100
0000
0000
0000
1000
0000
0000
1000
0000
0000
1000
0000
,  // measure 56
0001
0000
0000
0000
0010
0000
0000
0000
1000
0000
0000
1000
0000
0000
1000
0000
,  // measure 57
0001
1000
0100
0000
1000
0010
0100
0000
,  // measure 58
0001
0010
0100
0000
1000
0001
0010
0000
,  // measure 59
0001
0100
1000
0000
0001
0010
1000
0000
,  // measure 60
1000
0100
0001
0000
1000
0010
0001
0000
,  // measure 61
1000
0000
0100
0000
0010
0000
0001
0000
1000
0000
0001
1000
0000
0001
1000
0000
,  // measure 62
0001
0000
0010
0000
0100
0000
1000
0000
0001
0000
1000
0001
0000
1000
0001
0000
,  // measure 63
0010
0000
0100
0000
0010
0000
0001
0000
1000
0000
0010
0100
0000
0010
0100
0000
,  // measure 64
0010
0000
1000
0000
0100
0000
1000
0000
0010
0000
0100
0001
0000
0100
0001
0000
,  // measure 65
1000
0000
0100
0000
0010
0000
0001
0000
0010
0000
0100
0010
0000
0100
0010
0000
,  // measure 66
0001
0000
0010
0000
0100
0000
1000
0000
0100
0000
0010
0100
0000
0010
0100
0000
,  // measure 67
0001
0000
0010
0000
0001
0000
1000
0000
0100
0000
1000
0010
0000
0010
1000
0000
,  // measure 68
0001
0000
0100
0000
0001
0000
1000
0000
0010
0000
1000
0100
0000
0100
1000
0000
,  // measure 69
0001
0010
0100
1000
0001
0010
0100
0010
,  // measure 70
0001
0010
0100
1000
0100
0010
0100
1000
,  // measure 71
0001
0010
0001
0000
1000
0100
1000
0000
0010
0100
0010
0000
1000
0001
1000
0000
,  // measure 72
0010
0010
0010
0010
0010
0010
0110
0000
,  // measure 73
1001
0000
0000
0000
1001
0000
0000
0000
1100
0000
0000
0110
0000
0000
0011
0000
,  // measure 74
0000
0000
0110
0000
1001
0000
0000
0000
0011
0000
0000
0110
0000
0000
1100
0000
,  // measure 75
1001
0000
0000
0000
0110
0000
0000
0000
1010
0000
0000
0101
0000
0000
1001
0000
,  // measure 76
0000
0000
0110
0000
1001
0000
0000
0000
0011
0000
0000
1010
0000
0000
0011
0000
,  // measure 77
0101
0000
0000
0000
1001
0000
0000
0000
1100
0000
0000
0110
0000
0000
0011
0000
,  // measure 78
0000
0000
0101
0000
1100
0000
0000
0000
0101
0000
0000
1100
0000
0000
0011
0000
,  // measure 79
1100
0000
0000
0000
0110
0000
0000
0000
1001
0000
0000
0110
0000
0000
1001
0000
,  // measure 80
0000
0010
0001
0000
0100
0000
0010
0000
0100
0000
0010
0000
2002
0000
3003
0000
,  // measure 81
1000
0000
0001
0100
0001
0000
1000
0100
1000
0000
0000
1100
0000
0000
0101
0000
,  // measure 82
0001
0000
0010
0001
0000
0100
0001
0000
1000
0001
0000
1000
0010
0000
1000
0000
,  // measure 83
1100
0000
0000
0000
0011
0000
0110
0000
1100
0000
0000
0110
0000
0000
0101
0000
,  // measure 84
1000
0010
1000
0010
0000
1000
0001
0000
0100
0010
0000
1000
0001
0000
1000
0000
,  // measure 85
1100
0000
0000
0000
0011
0000
0101
0000
1001
0000
0000
0110
0000
0000
1001
0000
,  // measure 86
0010
0001
1000
0100
0000
0010
0001
0000
0010
0100
0000
1000
0100
0000
1100
0000
,  // measure 87
0101
0000
0000
0000
0011
0000
0110
0000
1100
0000
0000
0110
0000
0000
1001
0000
,  // measure 88
0001
0010
0001
0010
0000
0100
1000
0000
0001
0010
0100
1000
0001
0000
1000
0000
,  // measure 89
2002
0000
0000
0000
,  // measure 90
0000
0000
0000
0000
,  // measure 91
3003
0000
0000
0000
;

//---------------dance-double - ----------------
#NOTES:
     dance-double:
     :
     Hard:
     15:
     0.775957,0.835923,0.678963,0.103841,0.479268,680.000000,595.000000,85.000000,13.000000,0.000000,0.000000,0.775957,0.835923,0.678963,0.103841,0.479268,680.000000,595.000000,85.000000,13.000000,0.000000,0.000000:
00000000
00000000
00000000
00000000
,
00000000
00000000
00000000
00000000
,
00000000
00000000
00000000
00000000
,
00000000
00000000
00000000
00000000
,
00000000
00000000
00000000
00000000
,
00010000
00000000
10000000
00000000
01000000
00000000
00100000
00000000
00010000
00000000
00000000
00010000
00000000
00000000
10000000
00000000
,
01000000
00000000
00010000
00000000
00001000
00000000
00000100
00000000
00000010
00000000
00000000
00000010
00000000
00000000
00001000
00000000
,
00000100
00000000
00000010
00000000
00000001
00000000
00000100
00000000
00000010
00000000
00000000
00000010
00000000
00000000
00000001
00000000
,
00000100
00000000
00001000
00000000
00010000
00000000
01000000
00000000
00100000
00000000
00000000
00100000
00000000
00000000
00100000
00000000
,
10000000
00000000
01000000
00000000
00100000
00000000
01000000
00000000
10000000
00000000
00000000
10000000
00000000
00000000
10000000
00000000
,
01000000
00000000
00100000
00000000
01000000
00000000
00100000
00000000
00001000
00000000
00000000
00001000
00000000
00000000
00010000
00000000
,
00000010
00000000
00001000
00000000
00000100
00000000
00000010
00000000
00000001
00000000
00000000
00000001
00000000
00000000
00000010
00000000
,
00000100
00000000
00001000
00000000
00000100
00000000
00010000
00000000
00001000
00000000
00000000
00001000
00000000
00000000
00100000
00000000
,
00010000
00000000
00010000
00000000
10000000
00000000
01000000
00000000
00100000
00000000
00000000
00100000
00000000
00000000
10000000
00000000
,
01000000
00000000
00100000
00000000
00001000
00000000
00010000
00000000
00001000
00000000
00000000
00001000
00000000
00000000
00100000
00000000
,
00010000
00000000
01000000
00000000
00100000
00000000
10000000
00000000
01000000
00000000
00000000
01000000
00000000
00000000
00010000
00000000
,
00001000
00000000
00010000
00000000
00000100
00000000
00001000
00000000
00000010
00000000
00000000
00000010
00000000
00000000
00000100
00000000
,
00000001
00000010
00000100
00000010
00000001
00001000
00000100
00000010
,
00000100
00001000
00000001
00000100
00000010
00000100
00001000
00010000
,
00001000
00010000
00000100
00010000
00001000
00010000
00100000
00010000
,
01000000
00010000
10000000
00010000
00100000
00010000
10000000
01000000
,
00100000
00010000
00100000
00010000
10000000
01000000
00100000
00010000
,
00001000
00000100
00001000
00000100
00000010
00000001
00000100
00000010
,
00001000
00000010
00001000
00000000
00000001
00000100
00000001
00000000
00001000
00000100
00001000
00000000
00000001
00000010
00000001
00000000
,
00000100
00000100
00000100
00000100
00000100
00000100
00000110
00000000
,
00000011
00000000
00000000
00001001
00000000
00000000
00001100
00000000
00000000
00010100
00000000
00000000
00011000
00000000
00000000
00000000
,
00110000
00000000
00000000
10010000
00000000
00000000
01010000
00000000
00000000
00110000
00000000
00000000
00011000
00000000
00000000
00000000
,
00001100
00000000
00000000
00001001
00000000
00000000
00001010
00000000
00000000
00001100
00000000
00000000
00011000
00000000
00000000
00000000
,
00110000
00000000
00000000
10010000
00000000
00000000
01010000
00000000
00000000
10010000
00000000
00000000
00110000
00000000
00000000
00000000
,
11000000
00000000
00000000
01100000
00000000
00000000
11000000
00000000
00000000
01010000
00000000
00000000
00110000
00000000
00000000
00000000
,
00011000
00000000
00000000
00001100
00000000
00000000
00010100
00000000
00000000
00001100
00000000
00000000
00001010
00000000
00000000
00000000
,
00000011
00000000
00000000
00000110
00000000
00000000
00001100
00000000
00000000
00000110
00000000
00000000
00000010
00000000
00000001
00000000
,
00000000
00000000
00000100
00000000
00000000
00000100
00000000
00000000
00000100
00000000
00000000
00000000
00001001
00000000
00000000
00000000
,
00000001
00000000
00000000
00000100
00000001
00000000
00001000
00000000
00000000
00001100
00000000
00000000
00000001
00000000
00000100
00000000
,
00001000
00000000
00000000
00000100
00001000
00000000
00010000
00000000
00000000
00001000
00000000
00000000
00100000
00000000
00010000
00000000
,
01000000
00000000
00000000
10000000
01000000
00000000
00100000
00000000
00000000
00010000
00000000
00000000
10000000
00000000
00100000
00000000
,
01000000
00000000
00000000
01000000
00010000
00000000
00100000
00000000
00000000
00001000
00000000
00000000
00010000
00001000
00010000
00000000
,
00000100
00000000
00000000
00001000
00000100
00000000
00000010
00000000
00000000
00000011
00000000
00000000
00000001
00000000
00000100
00000000
,
00000010
00000000
00000000
00000010
00001000
00000000
00000100
00000000
00000000
00010100
00000000
00000000
00001000
00000000
00100000
00000000
,
00010000
00000000
00000000
01010000
00000000
00000000
10010000
00000000
00000000
00110000
00000000
00000000
00100000
00000000
00001000
00000000
,
00000000
00000000
00010000
00000000
00000000
00010000
00000000
00000000
00020000
00000000
00000000
00000000
00032000
00000000
00000000
00000000
,
00103000
00000000
00010000
00000000
01000000
00000000
00010000
00000000
10000000
00000000
00010000
10000000
00000000
10000000
00010000
00000000
,
10000000
00000000
01000000
00000000
00100000
00000000
00001000
00000000
00010000
00000000
00000100
00001000
00000000
00001000
00000100
00000000
,
00001000
00000000
00000010
00000000
00000100
00000000
00000001
00000000
00001000
00000000
00000010
00001000
00000000
00001000
00000010
00000000
,
00001000
00000000
00000001
00000000
00000100
00000000
00001000
00000000
00010000
00000000
00001000
00010000
00002000
00000000
00000000
00000000
,
00013000
00000000
00001000
00000000
00100000
00000000
00010000
00000000
01000000
00000000
00100000
10000000
00000000
10000000
01000000
00000000
,
00100000
00000000
00001000
00000000
00010000
00000000
00000100
00000000
00001000
00000000
00000010
00000100
00000000
00000100
00000001
00000000
,
00000100
00000000
00001000
00000000
00010000
00000000
01000000
00000000
00100000
00000000
10000000
00100000
00000000
00100000
10000000
00000000
,
01000000
00100000
00020000
02000000
00000000
00000000
03030000
00000000
,
20000000
00000000
00200000
00000000
,
00000000
00000000
00000000
30300000
,
10000000
00000000
01000000
00000000
00100000
00000000
00010000
00000000
01000000
00000000
00000000
01000000
00000000
00000000
01000000
00000000
,
00010000
00000000
00100000
00000000
00001000
00000000
00010000
00000000
00000100
00000000
00000000
00000100
00000000
00000000
00000100
00000000
,
00002000
00000000
00000020
00000000
,
00000000
00000000
00000000
00003030
,
00000001
00000000
00000100
00000000
00000001
00000000
00000100
00000000
00000010
00000000
00000000
00000010
00000000
00000000
00001000
00000000
,
00000100
00000000
00001000
00000000
00000100
00000000
00001000
00000000
00000100
00000000
00000000
00000100
00000000
00000000
00010000
00000000
,
00001000
00010000
00000100
00000000
00001000
00000100
00000001
00000000
,
00000010
00000001
00000100
00000000
00000001
00000100
00001000
00000000
,
00010000
01000000
10000000
00100000
10000000
01000000
10000000
01000000
,
00010000
01000000
00100000
00000000
00001000
00010000
00000100
00000000
,
00001000
00000000
00000100
00000000
00000010
00000000
00000001
00000000
00000100
00000000
00000010
00000100
00000000
00000100
00000010
00000000
,
00000100
00000000
00000001
00000000
00001000
00000000
00000100
00000000
00010000
00000000
00001000
00010000
00000000
00010000
00001000
00000000
,
00100000
00000000
00010000
00000000
01000000
00000000
00100000
00000000
10000000
00000000
01000000
00100000
00000000
00100000
00010000
00000000
,
00001000
00000000
00000100
00000000
00000010
00000000
00000001
00000000
00000010
00000000
00000100
00000010
00000000
00000010
00000100
00000000
,
00001000
00000000
00000100
00000000
00000001
00000000
00000100
00000000
00001000
00000000
00000010
00000100
00000000
00000100
00000010
00000000
,
00001000
00000000
00000100
00000000
00000010
00000000
00000001
00000000
00000100
00000000
00000010
00000100
00000000
00000100
00000010
00000000
,
00001000
00000000
00000100
00000000
00010000
00000000
00001000
00000000
00100000
00000000
00010000
01000000
00000000
01000000
00010000
00000000
,
00100000
00000000
10000000
00000000
01000000
00000000
00100000
00000000
00010000
00000000
01000000
00010000
00000000
00010000
01000000
00000000
,
00100000
00000000
10000000
00000000
01000000
00000000
00010000
00000000
00001000
00000000
00000100
00000000
00000010
00000001
00000010
00000000
,
00000001
00000000
00000100
00000000
00001000
00000000
00010000
00000000
01000000
00000000
10000000
00000000
00100000
01000000
00100000
00000000
,
10000000
01000000
10000000
00000000
00010000
00100000
00010000
00000000
10000000
00100000
10000000
00000000
01000000
00010000
01000000
00000000
,
00100000
00100000
00100000
00100000
00100000
00100000
01100000
00000000
,
10010000
00000000
00000000
00000000
00011000
00000000
00000000
00000000
00001100
00000000
00000000
00000110
00000000
00000000
00000011
00000000
,
00000000
00000000
00000101
00000000
00001001
00000000
00000000
00000000
00000011
00000000
00000000
00000110
00000000
00000000
00000110
00000000
,
00001001
00000000
00000000
00000000
00011000
00000000
00000000
00000000
00110000
00000000
00000000
01010000
00000000
00000000
10010000
00000000
,
00000000
00000000
10100000
00000000
10010000
00000000
00000000
00000000
11000000
00000000
00000000
01100000
00000000
00000000
11000000
00000000
,
10010000
00000000
00000000
00000000
00011000
00000000
00000000
00000000
00001100
00000000
00000000
00000110
00000000
00000000
00000011
00000000
,
00000000
00000000
00000101
00000000
00001001
00000000
00000000
00000000
00000011
00000000
00000000
00000110
00000000
00000000
00000110
00000000
,
00001001
00000000
00000000
00000000
00000101
00000000
00000000
00000000
00001100
00000000
00000000
00001010
00000000
00000000
00001100
00000000
,
00000000
00000100
00010000
00001000
02000000
00000000
03200000
00000000
,
10300000
00000000
01000000
10000000
01000000
00000000
00100000
00010000
00100000
00000000
00000000
00110000
00000000
00000000
11000000
00000000
,
10000000
00000000
00010000
01000000
00000000
00010000
01000000
00000000
00010000
00100000
00000000
00100000
00001000
00000000
00010000
00000000
,
00000100
00000000
00001000
00000100
00001000
00000000
00000010
00000100
00000010
00000000
00001000
00000001
00000000
00001000
00000001
00000000
,
00001000
00000000
00000100
00001000
00000000
00000100
00001000
00000000
00001000
00000010
00000000
00000010
00000100
00000000
00000010
00000000
,
00001000
00000000
00000001
00000100
00000001
00000000
00001000
00000100
00001000
00000000
00000000
00001100
00000000
00000000
00011000
00000000
,
00001000
00000000
00100000
00001000
00000000
00001000
00100000
00000000
00010000
01000000
00000000
01000000
00100000
00000000
01000000
00000000
,
00010000
00000000
01000000
00100000
01000000
00000000
00100000
10000000
00100000
00000000
00000000
10100000
00000000
00000000
01010000
00000000
,
00010000
00000000
10000000
01000000
00000000
10000000
01000000
00000000
00100000
00000000
00001000
00000000
00010000
00000000
00001000
00000000
,
00022000
00000000
00000000
00000000
,
00000000
00000000
00000000
00000000
,
00033000
00000000
00000000
00000000
;

//---------------dance-double - ----------------
#NOTES:
     dance-double:
     :
     Medium:
     12:
     0.567133,0.654200,0.383414,0.375426,0.107835,497.000000,449.000000,48.000000,47.000000,0.000000,0.000000,0.567133,0.654200,0.383414,0.375426,0.107835,497.000000,449.000000,48.000000,47.000000,0.000000,0.000000:
00000000
00000000
00000000
00000000
,
00000000
00000000
00000000
00000000
,
00000000
00000000
00000000
00000000
,
00000000
00000000
00000000
00000000
,
00000000
00000000
00000000
00000000
,
20000000
32000000
03020000
00030000
,
00002000
00003200
00000302
00000003
,
00000200
00002300
00023000
00030000
,
00200000
00320000
00032000
00003000
,
00000010
00000100
00000010
00000100
00000020
00000000
00000030
00000000
,
00010000
00001000
00010000
00001000
00200000
00000000
00300000
00000000
,
00010000
01000000
00100000
01000000
00020000
00000000
00030000
00000000
,
10000000
01000000
00100000
01000000
20000000
00000000
30000000
00000000
,
00010000
00100000
00001000
00100000
00020000
00000000
00031000
00000000
,
00010000
00000010
00001000
00000010
00000200
00000000
00000301
00000000
,
00001000
00000100
00001000
00000001
00002000
00000000
00003010
00000000
,
00001000
00000100
00000010
00000100
00002000
00000000
00003001
00000000
,
00000100
00000000
00001000
00000000
00010000
01000000
10000000
00000000
,
01000000
00000000
00010000
00000000
00100000
00001000
00010000
00000000
,
00000100
00001000
00000100
00000000
00000010
00000001
00000010
00000000
,
00000100
00010000
00001000
00000000
00001000
00010000
00000010
00000000
,
00000100
00000001
00001000
00000001
00001000
00000001
00001000
00000100
,
00010000
00001000
00010000
00001000
00010000
00001000
00100000
00010000
,
01000000
00100000
01000000
00100000
01000000
00100000
01000000
00100000
,
02000000
00000000
00000000
03100000
,
10000000
00000000
00000000
01000000
00000000
00000000
00010000
00000000
00000000
00001000
00000000
00000000
00000100
00000000
00000000
00000000
,
00000001
00000000
00000000
00000100
00000000
00000000
00001000
00000000
00000000
00010000
00000000
00000000
00100000
00000000
00000000
00000000
,
10000000
00000000
00000000
00100000
00000000
00000000
00010000
00000000
00000000
00001000
00000000
00000000
00000100
00000000
00000000
00000000
,
00000001
00000000
00000000
00000010
00000000
00000000
00000100
00000000
00000000
00010000
00000000
00000000
00001000
00000000
00001000
00000000
,
00010000
00000000
00000000
00000100
00000000
00000000
00001000
00000000
00000000
00000001
00000000
00000000
00000100
00000000
00000000
00000000
,
00000010
00000000
00000000
00001000
00000000
00000000
00000100
00000000
00000000
00000001
00000000
00000000
00000010
00000000
00000000
00000000
,
00001000
00000000
00000000
00010000
00000000
00000000
00001000
00000000
00000000
01000000
00000000
00000000
00100000
00000000
10000000
00000000
,
00000000
00000000
00010000
00000000
00000000
01000000
00000000
00000000
00100000
00000000
00000000
00000000
10010000
00000000
00000000
00000000
,
10000000
01000000
00100000
01000000
10000000
01000000
00010000
00000000
,
00001000
00000100
00000001
00000100
00000010
00000100
00000010
00000000
,
00000001
00000100
00000010
00000100
00000001
00000100
00001000
00000000
,
00010000
00100000
01000000
00100000
00010000
01000000
00100000
00000000
,
10000000
00100000
00010000
00100000
10000000
01000000
00100000
00000000
,
00001000
00010000
00000100
00010000
00000010
00001000
00000001
00000000
,
00000001
00000010
00000100
00000000
00010000
00001000
01000000
00000000
,
00100000
00000000
01000000
00000000
00000000
00100000
00000000
00000000
10010000
00000000
00000000
00000000
10010000
00000000
00000000
00000000
,
11000000
00000000
00110000
00000000
10000000
01000000
00010000
00000000
,
00011000
00000000
00001100
00000000
00001000
00000001
00000100
00000000
,
00000101
00000000
00001100
00000000
00000100
00010000
00001000
00000000
,
00101000
00000000
00110000
00000000
00010000
01000000
10000000
00000000
,
01100000
00000000
10010000
00000000
10000000
01000000
00100000
00010000
,
01010000
00000000
11000000
00000000
00010000
00100000
00001000
00000000
,
00011000
00000000
00010100
00000000
00000100
00001000
00000010
00000100
,
00000002
00002000
00000000
00003003
,
00000220
00000000
00000000
00000000
,
00000000
00000000
00000000
00000330
,
00000002
00000203
00002300
00003000
,
00020000
00230000
20300000
30000000
,
02200000
00000000
00000000
00000000
,
00000000
00000000
00000000
03300000
,
20000000
32000000
03200000
00300000
,
00002000
00003200
00000320
00000030
,
00000001
00000100
00000010
00000000
00000001
00000100
00001000
00000000
,
00010000
00001000
00100000
00000000
00010000
01000000
10000000
00000000
,
00100000
10000000
01000000
00000000
10000000
01000000
00010000
00000000
,
00001000
00010000
00000010
00000000
00001000
00000100
00000001
00000000
,
00000001
00000100
00000010
00000000
00001000
00000100
00010000
00000000
,
00001000
00100000
00010000
00000000
10000000
00100000
01000000
00000000
,
00010000
00100000
01000000
10000000
01000000
00100000
00010000
00000000
,
00001000
00000100
00000010
00000001
00000010
00000100
00001000
00000000
,
00000010
00001000
00000200
00000000
00010300
00001000
02000000
00000000
,
03100000
10000000
01000000
00100000
01000000
10000000
00200000
00000000
,
10300000
01000000
00010000
00000000
00001000
00000100
00000001
00000000
,
00000001
00000010
00000100
00000010
00000001
00000100
00000020
00000000
,
00001030
00001000
00000001
00000001
00000100
00000100
00000010
00000010
,
00010000
00010000
00001000
00001000
01000000
01000000
00100000
00100000
,
10000000
01000000
00100000
00010000
00001000
00000100
00000010
00000001
,
00000220
00000000
00000000
00000000
00000000
00000330
00000110
00000000
,
00000101
00000000
00000000
00000000
00001100
00000000
00000000
00000000
00011000
00000000
00000000
00011000
00000000
00000000
00011000
00000000
,
00000000
00000000
00100000
00000000
00010000
00000000
00000000
00000000
01010000
00000000
00000000
01010000
00000000
00000000
00010000
00000000
,
10000000
00000000
00000000
00000000
11000000
00000000
00000000
00000000
01100000
00000000
00000000
01100000
00000000
00000000
01100000
00000000
,
00000000
00000000
10000000
00000000
00010000
00000000
00000000
00000000
00110000
00000000
00000000
00110000
00000000
00000000
00100000
00000000
,
00001000
00000000
00000000
00000000
00011000
00000000
00000000
00000000
00001010
00000000
00000000
00001010
00000000
00000000
00001010
00000000
,
00000000
00000000
00000001
00000000
00000100
00000000
00001000
00000000
00010000
00000000
00000000
00011000
00000000
00000000
00001000
00000000
,
00100000
00000000
00000000
00000000
00110000
00000000
00000000
00000000
01010000
00000000
00000000
01010000
00000000
00000000
01010000
00000000
,
00000000
00100000
10000000
01000000
00100000
00000000
10010000
00000000
,
01100000
00000000
00000000
00000000
01100000
00000000
00000000
00000000
00100000
00000000
00000000
00100000
00000000
00000000
00010000
00000000
,
10000000
01000000
00100000
01000000
10000000
01000000
00010000
00001000
,
00000100
00000000
00000000
00000000
00000010
00000000
00001000
00000000
00000100
00000000
00000000
00000100
00000000
00000000
00000100
00000000
,
00001000
00000001
00001000
00000010
00000100
00001000
00010000
00001000
,
01000000
00000000
00000000
00000000
01100000
00000000
00000000
00000000
00010000
00000000
00000000
00010000
00000000
00000000
00010000
00000000
,
10000000
01000000
00100000
01000000
00010000
00001000
00010000
00000100
,
00001000
00000000
00000000
00000000
00000010
00000000
00000001
00000000
00000100
00000000
00000000
00000100
00000000
00000000
00000100
00000000
,
00000001
00000100
00001000
00010000
00001000
00100000
00010000
01000000
,
20020000
00000000
00000000
00000000
,
00000000
00000000
00000000
00000000
,
30030000
00000000
00000000
00000000
;

//---------------dance-single - ----------------
#NOTES:
     dance-single:
     :
     Medium:
     12:
     0.588815,0.654200,0.455304,0.319512,0.107835,516.000000,459.000000,57.000000,40.000000,0.000000,0.000000,0.588815,0.654200,0.455304,0.319512,0.107835,516.000000,459.000000,57.000000,40.000000,0.000000,0.000000:
// measure 0
0000
0000
0000
0000
,  // measure 1
0000
0000
0000
0000
,  // measure 2
0000
0000
0000
0000
,  // measure 3
0000
0000
0000
0000
,  // measure 4
0000
0000
0000
0000
,  // measure 5
2000
0000
3200
0000
0301
0100
1000
0000
,  // measure 6
0002
0000
0203
0000
1300
0100
0001
0000
,  // measure 7
2000
0000
3020
0000
0031
0010
1000
0000
,  // measure 8
0020
0000
0032
0000
0103
0001
0010
0000
,  // measure 9
1000
0100
1000
0100
0002
0000
0003
0000
,  // measure 10
0001
0100
0001
0100
2000
0000
3000
0000
,  // measure 11
0001
0100
0010
0100
0002
0000
0003
0000
,  // measure 12
1000
0100
0010
0100
2000
0000
3000
0000
,  // measure 13
0001
0010
0100
0010
0002
0000
0003
0000
,  // measure 14
1000
0100
0010
0100
2000
0000
3000
0000
,  // measure 15
0001
0010
0100
0010
0200
0000
0300
0000
,  // measure 16
1000
0100
0010
0100
0020
0000
0130
0000
,  // measure 17
0001
0000
0010
0000
0001
0100
1000
0000
,  // measure 18
0010
0000
1000
0000
0010
0100
0001
0000
,  // measure 19
0010
0000
0001
0000
0100
0001
1000
0000
,  // measure 20
0010
0001
1000
0000
0100
0001
1000
0000
,  // measure 21
0010
1000
0010
1000
0010
1000
0100
0010
,  // measure 22
0001
0010
0001
0010
0001
0010
0100
1000
,  // measure 23
0100
0010
0100
0010
0100
0010
0100
0010
,  // measure 24
0200
0000
0000
0310
,  // measure 25
1000
0000
0000
0100
0000
0000
0001
0000
0000
0100
0000
0000
1001
0000
0000
0000
,  // measure 26
0001
0000
0000
0010
0000
0000
1000
0000
0000
0010
0000
0000
1001
0000
0000
0000
,  // measure 27
1000
0000
0000
0010
0000
0000
0001
0000
0000
0100
0000
0000
1001
0000
0000
0000
,  // measure 28
0001
0000
0000
0010
0000
0000
0100
0000
0000
1000
0000
0000
0001
0000
1000
0000
,  // measure 29
0001
0000
0000
0010
0000
0000
0100
0000
0000
0010
0000
0000
1001
0000
0000
0000
,  // measure 30
1000
0000
0000
0100
0000
0000
0010
0000
0000
0100
0000
0000
1001
0000
0000
0000
,  // measure 31
0010
0000
0000
0001
0000
0000
0100
0000
0000
1000
0000
0000
0010
0000
1000
0000
,  // measure 32
0000
0000
0001
0000
0000
0100
0000
0000
0110
0000
0000
0000
1001
0000
0000
0000
,  // measure 33
1000
0100
0010
0100
1000
0100
0001
0000
,  // measure 34
0010
0001
0100
0010
1000
0010
0001
0000
,  // measure 35
1000
0100
0010
0100
0001
0100
1000
0000
,  // measure 36
0001
0010
0100
0010
0001
0100
0010
0000
,  // measure 37
1000
0010
0001
0010
1000
0100
0010
0000
,  // measure 38
0001
1000
0100
1000
0010
1000
0001
0000
,  // measure 39
1000
0100
0010
0000
0100
0010
0001
0000
,  // measure 40
0010
0000
0100
0000
0000
0010
0000
0000
1001
0000
0000
0000
1001
0000
0000
0000
,  // measure 41
1100
0000
0011
0000
1000
0100
0001
0000
,  // measure 42
0011
0000
1100
0000
0001
0010
0100
0000
,  // measure 43
1001
0000
1100
0000
0010
0001
0100
0000
,  // measure 44
0110
0000
0011
0000
0001
0100
1000
0000
,  // measure 45
0110
0000
1001
0000
1000
0100
0010
0001
,  // measure 46
0101
0000
1100
0000
0001
0010
0100
0010
,  // measure 47
0011
0000
0101
0000
0010
1000
0001
0100
,  // measure 48
0020
0200
0000
0330
,  // measure 49
2002
0000
0000
0000
,  // measure 50
0000
0000
0000
3003
,  // measure 51
2000
0000
3200
0000
0310
0001
0010
0001
,  // measure 52
0200
0320
2030
3000
,  // measure 53
0220
0000
0000
0000
,  // measure 54
0000
0000
0000
0330
,  // measure 55
2000
0000
3200
0000
0301
0100
1000
0000
,  // measure 56
0002
0000
0023
0000
1030
0010
0001
0000
,  // measure 57
1000
0100
0010
0000
0001
0010
0100
0000
,  // measure 58
0001
1000
0010
0000
0001
0100
1000
0000
,  // measure 59
0010
1000
0100
0000
1000
0100
0001
0000
,  // measure 60
0100
0010
0001
0000
1000
0100
0010
0000
,  // measure 61
0001
0100
0010
0000
1000
0100
0010
0000
,  // measure 62
0001
0010
0100
0000
1000
0010
0100
0000
,  // measure 63
0001
0010
0100
1000
0100
0010
0001
0000
,  // measure 64
1000
0010
0100
0001
0100
0010
1000
0000
,  // measure 65
0010
0001
0200
0000
0301
0000
0110
0000
,  // measure 66
0010
1000
0100
0010
0100
1000
0020
0000
,  // measure 67
1030
0100
0010
0001
0010
0100
2000
0000
,  // measure 68
3001
0010
0100
0010
0001
1000
0200
0000
,  // measure 69
1300
1000
0001
0001
0010
0010
0100
0100
,  // measure 70
1000
1000
0001
0001
0100
0100
0010
0010
,  // measure 71
1000
0100
0010
0001
0001
0010
0100
1000
,  // measure 72
2002
0000
0000
0000
0000
3003
1001
0000
,  // measure 73
1100
0000
0000
0000
0110
0000
0000
0000
1001
0000
0000
1001
0000
0000
1001
0000
,  // measure 74
0000
0000
0010
0000
0001
0000
0000
0000
0101
0000
0000
0101
0000
0000
0001
0000
,  // measure 75
1000
0000
0000
0000
1100
0000
0000
0000
0110
0000
0000
0110
0000
0000
0110
0000
,  // measure 76
0000
0000
1000
0000
0001
0000
0000
0000
0011
0000
0000
0011
0000
0000
0010
0000
,  // measure 77
0100
0000
0000
0000
0110
0000
0000
0000
1001
0000
0000
1001
0000
0000
1001
0000
,  // measure 78
0000
0000
1000
0000
0100
0000
0010
0000
0001
0000
0000
1001
0000
0000
1000
0000
,  // measure 79
0010
0000
0000
0000
0011
0000
0000
0000
0101
0000
0000
0101
0000
0000
0101
0000
,  // measure 80
0000
0010
1000
0100
0010
0000
1001
0000
,  // measure 81
0110
0000
0000
0000
0110
0000
0000
0000
0010
0000
0000
0010
0000
0000
0001
0000
,  // measure 82
1000
0100
0010
0100
1000
0100
0001
0000
,  // measure 83
0110
0000
0000
0000
0001
0000
1000
0000
0010
0000
0000
0010
0000
0000
0010
0000
,  // measure 84
1000
0100
0010
0100
1000
0001
1001
0000
,  // measure 85
0100
0000
0000
0000
0110
0000
0000
0000
0001
0000
0000
0001
0000
0000
0001
0000
,  // measure 86
1000
0100
0010
0100
1000
0001
0010
0100
,  // measure 87
1000
0000
0000
0000
0010
0000
0100
0000
0001
0000
0000
0001
0000
0000
0001
0000
,  // measure 88
1000
0100
0010
0001
0010
0100
1000
0100
,  // measure 89
2002
0000
0000
0000
,  // measure 90
0000
0000
0000
0000
,  // measure 91
3003
0000
0000
0000
;

//---------------dance-double - ----------------
#NOTES:
     dance-double:
     :
     Easy:
     7:
     0.332064,0.436134,0.191707,0.143780,0.047927,291.000000,267.000000,24.000000,18.000000,0.000000,0.000000,0.332064,0.436134,0.191707,0.143780,0.047927,291.000000,267.000000,24.000000,18.000000,0.000000,0.000000:
00000000
00000000
00000000
00000000
,
00000000
00000000
00000000
00000000
,
00000000
00000000
00000000
00000000
,
00000000
00000000
00000000
00000000
,
00000000
00000000
00000000
00000000
,
10000000
00000000
00000000
00000000
,
00010000
00000000
00000000
00000000
,
00001000
00000000
00000000
00000000
,
00000001
00000000
00000000
00000000
,
00000001
00000100
00001000
00000000
,
00010000
01000000
10000000
00000000
,
00100000
00010000
00001000
00000000
,
00000100
00000010
00000001
00000000
,
00000001
00000010
00001000
00000000
,
00010000
00100000
10000000
00000000
,
01000000
00100000
00010000
00000000
,
00001000
00000010
00000100
00000000
,
00000001
00000001
00001000
00001000
,
00010000
00010000
00100000
00100000
,
10000000
10000000
00010000
00010000
,
00001000
00001000
00000100
00000100
,
00000001
00000100
00001000
00010000
,
00100000
00010000
00001000
00010100
,
00000010
00001000
00000100
00000001
,
00000020
00000000
00000000
00000130
,
00000001
00000000
00000000
00000001
00000000
00000000
00000001
00000000
00000000
00000000
00000000
00000000
00000110
00000000
00000000
00000000
,
00001000
00000000
00000000
00001000
00000000
00000000
00001000
00000000
00000000
00000000
00000000
00000000
00000110
00000000
00000000
00000000
,
00000001
00000000
00000000
00000001
00000000
00000000
00000001
00000000
00000000
00000000
00000000
00000000
00000110
00000000
00000000
00000000
,
00001000
00010000
00001000
00110000
,
00010000
00000000
00000000
00010000
00000000
00000000
00010000
00000000
00000000
00000000
00000000
00000000
01100000
00000000
00000000
00000000
,
10000000
00000000
00000000
10000000
00000000
00000000
10000000
00000000
00000000
00000000
00000000
00000000
01100000
00000000
00000000
00000000
,
00010000
00000000
00000000
00010000
00000000
00000000
00010000
00000000
00000000
00000000
00000000
00000000
01100000
00000000
00000000
00000000
,
00000000
00000000
10000000
00000000
00000000
10000000
00000000
00000000
10000000
00000000
00000000
00000000
00000000
00000000
00000000
00000000
,
10000000
01000000
00010000
00011000
,
00000010
00001000
00000100
00000110
,
00000001
00000100
00001000
00011000
,
00100000
00010000
01000000
01100000
,
10000000
01000000
00100000
00011000
,
00000010
00001000
00000001
00001001
,
00000001
00000010
00000100
00011000
,
00000000
00000000
00100000
00000000
00000000
00100000
00000000
00000000
00100000
00000000
00000000
00000000
00000000
00000000
00000000
00000000
,
00010000
00000000
01000000
00000000
00010000
01000000
00010000
00000000
,
10000000
10000000
10000000
00000000
,
00100000
00000000
00100000
00000000
01000000
00100000
01000000
00000000
,
00001000
00001000
00001000
00000000
,
00010000
00000000
00000100
00000000
00001000
00000100
00001000
00000000
,
00000001
00000001
00000001
00000000
,
00000010
00000000
00000010
00000000
00000001
00000100
00000010
00000000
,
00002002
00000000
00000000
00003003
,
00001001
00000000
00000000
00000000
,
00000000
00000000
00000000
00000000
,
00000000
00000000
00000000
00000000
,
00000000
00000000
00000000
00000000
,
00002000
00000000
00023000
00000000
,
00230000
00000000
02300000
00000000
,
23000000
00000000
32000000
00000000
,
03200000
00000000
00320000
00000000
,
00130000
00100000
00100000
00000000
,
00001000
00001000
00001000
00000000
,
00010000
00010000
00010000
00000000
,
00000010
00000010
00000010
00000000
,
00000001
00000001
00001000
00000000
,
00000100
00000100
00010000
00000000
,
00001000
00001000
00100000
00000000
,
00010000
00010000
10000000
00000000
,
10000000
01000000
00010000
00000000
,
00001000
00000010
00000001
00000000
,
00000001
00000100
00001000
00000000
,
00010000
00100000
10000000
00000000
,
10000000
10000000
01000000
00010000
,
00001000
00001000
00000100
00000010
,
00000001
00000001
00000100
00001000
,
00000200
00000000
00000000
00000310
,
00001001
00000000
00000000
00000000
00000110
00000000
00000000
00000000
00000010
00000000
00000000
00000010
00000000
00000000
00000010
00000000
,
00000000
00000001
00000100
00001000
,
00010000
00000000
00000000
00000000
00011000
00000000
00000000
00000000
00001000
00000000
00000000
00001000
00000000
00000000
00001000
00000000
,
00000000
00100000
00010000
01000000
,
00100000
00000000
00000000
00000000
10010000
00000000
00000000
00000000
10000000
00000000
00000000
10000000
00000000
00000000
10000000
00000000
,
00000000
10000000
01000000
00100000
,
00010000
00000000
00000000
00000000
01100000
00000000
00000000
00000000
10000000
00000000
00000000
10000000
00000000
00000000
10000000
00000000
,
00000000
00100000
01000000
00000000
00010000
00000000
10010000
00000000
,
10000000
01000000
00010000
00001000
,
00000200
00000000
00000000
00000300
,
00000001
00000100
00001000
00010000
,
02000000
00000000
00000000
03000000
,
10000000
00100000
00010000
01000000
,
20000000
00000000
30010000
00100000
,
00001000
00010000
00000010
00000100
,
00000002
00000000
00000103
00001000
,
00002002
00000000
00000000
00000000
,
00000000
00000000
00000000
00000000
,
00003003
00000000
00000000
00000000
;

//---------------dance-single - ----------------
#NOTES:
     dance-single:
     :
     Easy:
     7:
     0.346899,0.436134,0.199695,0.143780,0.047927,304.000000,279.000000,25.000000,18.000000,0.000000,0.000000,0.346899,0.436134,0.199695,0.143780,0.047927,304.000000,279.000000,25.000000,18.000000,0.000000,0.000000:
// measure 0
0000
0000
0000
0000
,  // measure 1
0000
0000
0000
0000
,  // measure 2
0000
0000
0000
0000
,  // measure 3
0000
0000
0000
0000
,  // measure 4
0000
0000
0000
0000
,  // measure 5
1000
0000
0000
0000
,  // measure 6
0001
0000
0000
0000
,  // measure 7
0100
0000
0000
0000
,  // measure 8
0010
0000
0000
0000
,  // measure 9
1000
0010
0001
0000
,  // measure 10
0001
0100
1000
0000
,  // measure 11
0010
0001
0100
0000
,  // measure 12
0010
1000
0100
0000
,  // measure 13
0001
0010
0100
0000
,  // measure 14
1000
0100
0010
0000
,  // measure 15
0100
0010
0001
0000
,  // measure 16
0010
0100
1000
0000
,  // measure 17
1000
1000
0100
0100
,  // measure 18
0001
0001
0010
0010
,  // measure 19
1000
1000
0001
0001
,  // measure 20
0010
0010
0100
0100
,  // measure 21
1000
0100
0010
0001
,  // measure 22
0001
0010
0100
1000
,  // measure 23
0010
0001
0100
1000
,  // measure 24
0020
0000
0000
0130
,  // measure 25
0001
0000
0000
0001
0000
0000
0001
0000
0000
0000
0000
0000
0110
0000
0000
0000
,  // measure 26
1000
0000
0000
1000
0000
0000
1000
0000
0000
0000
0000
0000
0110
0000
0000
0000
,  // measure 27
0001
0000
0000
0001
0000
0000
0001
0000
0000
0000
0000
0000
0110
0000
0000
0000
,  // measure 28
1000
0001
1000
0011
,  // measure 29
0001
0000
0000
0001
0000
0000
0001
0000
0000
0000
0000
0000
0110
0000
0000
0000
,  // measure 30
1000
0000
0000
1000
0000
0000
1000
0000
0000
0000
0000
0000
0110
0000
0000
0000
,  // measure 31
0001
0000
0000
0001
0000
0000
0001
0000
0000
0000
0000
0000
0110
0000
0000
0000
,  // measure 32
0000
0000
1000
0000
0000
1000
0000
0000
1000
0000
0000
0000
0000
0000
0000
0000
,  // measure 33
1000
0100
0001
1001
,  // measure 34
0010
1000
0100
0110
,  // measure 35
0001
0100
1000
1001
,  // measure 36
0010
0001
0100
0110
,  // measure 37
1000
0100
0010
1001
,  // measure 38
0010
0100
0001
1001
,  // measure 39
1000
0100
0010
0001
,  // measure 40
0000
0000
0010
0000
0000
0010
0000
0000
0010
0000
0000
0000
0000
0000
0000
0000
,  // measure 41
0001
0000
0100
0000
0001
0100
0001
0000
,  // measure 42
1000
1000
1000
0000
,  // measure 43
0010
0000
0010
0000
0100
0010
0100
0000
,  // measure 44
1000
1000
1000
0000
,  // measure 45
0001
0000
0100
0000
0001
0100
0001
0000
,  // measure 46
1000
1000
1000
0000
,  // measure 47
0010
0000
0010
0000
1000
0001
1000
0000
,  // measure 48
2002
0000
0000
3003
,  // measure 49
1001
0000
0000
0000
,  // measure 50
0000
0000
0000
0000
,  // measure 51
0000
0000
0000
0000
,  // measure 52
0000
0000
0000
0000
,  // measure 53
0020
0000
0032
0000
,  // measure 54
0023
0000
0230
0000
,  // measure 55
2300
0000
3200
0000
,  // measure 56
0320
0000
0032
0000
,  // measure 57
0013
0010
0010
0000
,  // measure 58
0001
0001
0001
0000
,  // measure 59
0100
0100
0100
0000
,  // measure 60
1000
1000
1000
0000
,  // measure 61
0010
0010
0001
0000
,  // measure 62
0001
0100
0100
0000
,  // measure 63
1000
1000
0010
0000
,  // measure 64
0001
0100
1000
0000
,  // measure 65
1000
0100
0001
0100
,  // measure 66
1000
0100
0001
0100
,  // measure 67
1000
0010
0001
0010
,  // measure 68
1000
0010
0001
0100
,  // measure 69
1000
1000
0100
0001
,  // measure 70
0010
0010
0001
0100
,  // measure 71
1000
0100
0010
0001
,  // measure 72
0200
0000
0000
0310
,  // measure 73
1001
0000
0000
0000
0110
0000
0000
0000
0010
0000
0000
0010
0000
0000
0010
0000
,  // measure 74
0000
0001
0100
1000
,  // measure 75
1001
0000
0000
0000
1001
0000
0000
0000
1000
0000
0000
1000
0000
0000
1000
0000
,  // measure 76
0000
0010
0001
0100
,  // measure 77
1000
0000
0000
0000
1001
0000
0000
0000
1000
0000
0000
1000
0000
0000
1000
0000
,  // measure 78
0000
1000
0100
0010
,  // measure 79
0001
0000
0000
0000
0110
0000
0000
0000
1000
0000
0000
1000
0000
0000
1000
0000
,  // measure 80
0000
0010
0100
0000
0001
0000
1001
0000
,  // measure 81
1000
0100
0001
0010
,  // measure 82
2000
0001
0001
3001
,  // measure 83
0001
0100
1000
0010
,  // measure 84
0002
1000
1000
1003
,  // measure 85
1000
0010
0001
0100
,  // measure 86
2000
0001
3001
1001
,  // measure 87
0001
0010
1000
0100
,  // measure 88
0002
1000
1003
1001
,  // measure 89
2002
0000
0000
0000
,  // measure 90
0000
0000
0000
0000
,  // measure 91
3003
0000
0000
0000
;

//---------------dance-single - ----------------
#NOTES:
     dance-single:
     :
     Beginner:
     5:
     0.196272,0.319911,0.103841,0.095854,0.000000,172.000000,159.000000,13.000000,12.000000,0.000000,0.000000,0.196272,0.319911,0.103841,0.095854,0.000000,172.000000,159.000000,13.000000,12.000000,0.000000,0.000000:
// measure 0
0000
0000
0000
0000
,  // measure 1
0000
0000
0000
0000
,  // measure 2
0000
0000
0000
0000
,  // measure 3
0000
0000
0000
0000
,  // measure 4
0000
0000
0000
0000
,  // measure 5
0000
0000
0000
0000
,  // measure 6
0000
0000
0000
0000
,  // measure 7
0000
0000
0000
0000
,  // measure 8
0000
0000
0000
0000
,  // measure 9
0010
0000
0010
0000
,  // measure 10
0100
0000
0100
0000
,  // measure 11
0010
0000
0010
0000
,  // measure 12
0100
0000
0100
0000
,  // measure 13
0001
0000
0001
0000
,  // measure 14
1000
0000
1000
0000
,  // measure 15
0001
0000
0001
0000
,  // measure 16
1000
0000
1000
0000
,  // measure 17
0010
0010
0010
0000
,  // measure 18
0100
0100
0100
0000
,  // measure 19
0001
0001
0001
0000
,  // measure 20
1000
1000
1000
0000
,  // measure 21
0010
0010
0010
0010
,  // measure 22
0010
0010
0010
0010
,  // measure 23
0020
0000
0000
0000
,  // measure 24
0030
0000
0000
0000
,  // measure 25
0110
0000
0000
0000
,  // measure 26
0110
0000
0000
0000
,  // measure 27
1001
0000
0000
0000
,  // measure 28
1001
0000
0000
0000
,  // measure 29
0110
0000
0000
0000
,  // measure 30
0110
0000
0000
0000
,  // measure 31
1001
0000
0000
0000
,  // measure 32
0010
0010
0010
0000
,  // measure 33
1000
0000
1000
0000
,  // measure 34
0001
0000
0001
0000
,  // measure 35
0100
0000
0100
0000
,  // measure 36
0010
0000
0010
0000
,  // measure 37
1000
0000
0001
0000
,  // measure 38
0100
0000
0010
0000
,  // measure 39
1000
1000
1000
0000
,  // measure 40
0001
0001
0001
0000
,  // measure 41
2000
3000
1000
0000
,  // measure 42
0002
0003
0001
0000
,  // measure 43
0200
0300
0100
0000
,  // measure 44
0020
0030
0010
0000
,  // measure 45
2000
3000
1000
0000
,  // measure 46
0002
0003
0001
0000
,  // measure 47
1000
1000
1000
1000
,  // measure 48
2000
0000
3000
0000
,  // measure 49
1001
0000
0000
0000
,  // measure 50
0000
0000
0000
0000
,  // measure 51
0000
0000
0000
0000
,  // measure 52
0000
0000
0000
0000
,  // measure 53
0010
0000
0010
0000
,  // measure 54
0010
0000
0010
0000
,  // measure 55
0100
0000
0100
0000
,  // measure 56
0100
0000
0100
0000
,  // measure 57
0001
0000
0001
0000
,  // measure 58
0001
0000
0001
0000
,  // measure 59
1000
0000
1000
0000
,  // measure 60
1000
0000
1000
0000
,  // measure 61
0010
0000
0010
0000
,  // measure 62
0100
0000
0100
0000
,  // measure 63
0001
0000
0001
0000
,  // measure 64
1000
0000
1000
0000
,  // measure 65
0020
0030
0010
0000
,  // measure 66
0200
0300
0100
0000
,  // measure 67
0020
0030
0010
0000
,  // measure 68
0200
0300
0100
0000
,  // measure 69
0010
0010
0010
0000
,  // measure 70
0010
0010
0010
0000
,  // measure 71
0010
0010
0010
0010
,  // measure 72
0010
0000
0000
0000
,  // measure 73
0100
0000
0100
0000
,  // measure 74
1001
0000
0000
0000
,  // measure 75
0010
0000
0010
0000
,  // measure 76
1001
0000
0000
0000
,  // measure 77
1000
0000
1000
0000
,  // measure 78
1001
0000
0000
0000
,  // measure 79
0001
0000
0001
0000
,  // measure 80
1001
0000
0000
0000
,  // measure 81
0010
0010
0010
0010
,  // measure 82
0010
0000
0000
0000
,  // measure 83
1000
1000
1000
1000
,  // measure 84
1000
0000
0000
0000
,  // measure 85
0100
0100
0100
0100
,  // measure 86
0100
0000
0000
0000
,  // measure 87
0001
0001
0001
0001
,  // measure 88
0001
0000
0000
0000
,  // measure 89
1001
0000
0000
0000
;
