#VERSION:0.83;
#TITLE:ランカーキラーガール;
#SUBTITLE:(STARDOM Remix);
#ARTIST:中島由貴 × いちか;
#TITLETRANSLIT:Ranker killer girl;
#SUBTITLETRANSLIT:;
#ARTISTTRANSLIT:Yuki Nakashima x Ichika;
#GENRE:;
#ORIGIN:;
#CREDIT:;
#BANNER:Ranker killer girl (STARDOM Remix).png;
#BACKGROUND:Ranker killer girl (STARDOM Remix)-bg.png;
#PREVIEWVID:;
#JACKET:Ranker killer girl (STARDOM Remix)-jacket.png;
#CDIMAGE:;
#DISCIMAGE:;
#LYRICSPATH:;
#CDTITLE:;
#MUSIC:Ranker killer girl (STARDOM Remix).ogg;
#OFFSET:-0.084000;
#SAMPLESTART:76.432953;
#SAMPLELENGTH:12.000000;
#SELECTABLE:YES;
#BPMS:0.000=135.000;
#STOPS:;
#DELAYS:;
#WARPS:;
#TIMESIGNATURES:0.000=4=4;
#TICKCOUNTS:0.000=4;
#COMBOS:0.000=1;
#SPEEDS:0.000=1.000=0.000=0;
#SCROLLS:0.000=1.000;
#FAKES:;
#LABELS:0.000=Song Start;
#BGCHANGES:;
#KEYSOUNDS:;
#ATTACKS:
;

//---------------dance-single - ----------------
#NOTEDATA:;
#CHARTNAME:;
#STEPSTYPE:dance-single;
#DESCRIPTION:;
#CHARTSTYLE:;
#DIFFICULTY:Hard;
#METER:14;
#RADARVALUES:0.671059,0.744935,0.365816,0.083140,0.810615,565.000000,521.000000,44.000000,10.000000,0.000000,0.000000,0.000000,0.000000,0.000000,0.671059,0.744935,0.365816,0.083140,0.810615,565.000000,521.000000,44.000000,10.000000,0.000000,0.000000,0.000000,0.000000,0.000000;
#CREDIT:;
#NOTES:
0000
0000
0000
0000
,
0000
0000
0000
0000
,
0000
0000
0000
0000
,
0000
0000
0000
0000
,
0000
0000
0000
0000
,
0010
0000
1000
0000
0001
0100
0000
0100
0000
0000
1000
0000
0001
0010
0000
0010
,
0001
0000
1000
0000
0010
0100
0000
0100
0000
0000
1000
0000
0001
0010
0000
0000
,
1001
0100
1001
0010
1001
0100
1001
0010
,
1001
0000
1001
0000
1001
0000
1001
0000
0010
0100
0010
0100
0010
0000
1000
0000
,
0001
0000
0010
0000
1000
0100
0000
0001
0000
0000
1000
0000
0010
1000
0000
0001
,
0000
0000
1000
0000
0100
0010
0000
0001
0000
0100
0000
1000
0000
0000
0010
1000
,
0000
0100
1000
0000
0001
0000
0000
1000
0000
0100
0000
0010
0000
0000
0000
0001
,
1000
0001
0000
0010
0000
0100
0000
1000
0000
1000
0001
0000
1000
0010
1000
0000
,
0001
0000
0001
0000
0010
0100
0000
0100
0010
0000
1000
0000
0010
0100
0000
0100
,
0010
0000
1000
0000
0001
0100
0000
0001
0000
0010
0000
1000
0000
1000
0100
0010
,
0000
0100
0010
0000
0100
0000
0000
0001
0000
0010
0000
1000
0001
0000
0000
1000
,
0100
1000
0000
0001
0010
0001
0000
1000
0100
0000
0001
0000
1000
0010
0100
0000
,
0001
0000
0010
0000
0001
0100
0000
0100
0001
0000
1000
0000
0010
0100
0000
0100
,
0010
0000
1000
0000
0001
0010
0000
0010
0100
0000
1000
0000
0100
0010
0100
0000
,
0001
0000
1000
0000
0001
0010
0000
0010
1000
0000
0001
0000
1000
0100
0000
0100
,
0001
0000
1000
0000
0001
0010
0000
0010
0000
0010
0100
0000
0001
1000
0100
0000
,
0001
0000
0001
0000
0100
1000
0000
0100
0001
0000
0100
0000
1000
0010
0000
0010
,
1000
0000
0100
0000
0010
0001
0000
0001
0100
0000
1000
0000
0100
0001
0100
0000
,
1000
0000
0010
0000
0001
0010
0000
0010
1000
0000
0100
0000
0001
0100
0000
0100
,
1000
0100
0000
1000
0010
1000
0000
0010
1000
0010
1000
0000
0001
0100
0001
0000
,
1000
0000
1000
0000
1010
0000
0000
0001
0000
0000
0100
0000
1001
0000
0000
0000
,
0001
0000
0001
0000
0011
0000
0000
1000
0000
0000
0010
0000
1001
0000
0000
0000
,
0100
0000
0100
0000
0110
0000
0000
0001
0000
0000
0100
0000
1001
0000
0000
0000
,
1000
0000
1010
0000
0001
0000
0101
0000
1000
0000
1001
0000
1001
0000
0010
0100
,
0010
0000
1000
0000
1010
0000
0000
0001
0000
0001
0100
0000
1001
0000
0000
0000
,
1000
0000
0001
0000
0011
0000
0000
0001
0000
0001
1000
0000
0110
0000
0000
0000
,
1000
0000
0100
0000
0011
0000
0000
0010
0000
0010
0100
0000
1001
0000
0000
0000
,
1000
0000
0001
0000
0110
0000
0010
0100
0000
0100
1000
0000
1100
0000
0001
0100
,
0020
0000
0000
0000
1000
0000
0000
0000
1000
0000
0000
0000
1030
0000
0100
0010
,
0002
0000
0000
0000
0100
0000
0000
0000
0100
0000
0000
0000
0103
0000
0010
0100
,
2000
0000
0000
0000
0001
0000
0000
0000
0001
0000
0000
0000
3001
0000
0010
0001
,
0200
0000
0000
0000
0010
0000
0000
0000
0010
0000
0010
0000
0310
0000
1000
0100
,
0020
0000
0000
0000
0001
0000
0000
0000
0001
0000
0031
0000
0001
0000
0010
0100
,
2000
0000
0000
0000
0010
0000
0000
0000
0010
0000
3010
0000
0010
0000
1000
0100
,
0020
0000
0001
0000
0031
0000
0100
0010
2000
0000
0001
0000
3001
0000
0100
0010
,
0100
0001
0100
0001
1000
0010
1000
0010
1000
0100
0010
0001
0010
0100
1000
0001
,
0100
0000
0100
0000
1001
0000
0000
0010
0000
0000
0010
0000
1001
0000
0000
0100
,
0000
0000
1000
0000
0100
0010
0000
0001
0000
0100
0000
1000
0001
0000
0000
0000
,
0010
0000
1000
0000
0001
0010
0000
1000
0010
0000
0001
0000
1000
0100
0000
0001
,
0100
0000
1000
0000
0001
0010
0000
0100
0000
1000
0000
1001
0000
0001
0100
0001
,
0000
0001
0100
0000
0010
1000
0000
1100
0000
0110
0000
0011
0000
1000
0100
1000
,
0000
0001
0000
0100
0000
0110
0000
0010
0000
0100
0001
0000
0001
0100
1000
0000
,
0100
0000
0001
0000
1000
0010
0000
0001
0010
0000
1000
0000
0001
0100
0000
1000
,
0100
0000
0001
0000
1000
0010
0000
0001
0000
0011
0000
0110
0000
1000
0100
1000
,
0000
0100
1000
0000
0010
0100
0000
0011
0000
0110
0000
1100
0000
0000
0000
0100
,
0010
0100
0000
0001
0000
1000
0000
0010
0000
1000
0100
0000
0010
0001
0010
0000
,
1000
0000
0010
1000
0000
0010
1000
0100
0000
0100
0000
0010
0001
0000
0100
0000
,
0001
0000
0010
0001
0000
0001
0100
0010
0000
0010
1000
0000
0100
0010
0001
0000
,
0010
0000
0010
0000
0001
0010
0000
0100
1000
0000
0100
0000
1000
0100
0000
0010
,
0001
0100
1000
0100
0001
0010
1000
0100
,
0001
0000
0010
0000
0001
0010
0000
0010
0100
0000
1000
0000
0100
0000
0010
0000
,
1000
0000
0100
0000
0010
0001
0000
0001
0100
0000
0010
0000
1000
0000
0001
0000
,
1000
0000
0100
0000
0001
0010
0000
0010
0001
0000
0100
0000
1000
0000
0001
0000
,
1000
0000
1001
0000
0010
0000
0110
0000
1000
0000
1100
0000
1100
0000
0001
0100
,
0010
0000
1000
0000
0001
0010
0000
0010
1000
0000
0010
0000
0001
0000
1000
0000
,
0100
0000
0001
0000
1000
0100
0000
0100
0001
0000
1000
0000
0010
1000
0100
0000
,
0010
0000
0001
0000
0010
0001
0000
0001
0100
0000
0010
0000
1000
0100
0000
0100
,
0010
0000
0011
0000
1000
0000
1100
0000
0010
0100
0010
0100
0001
1000
0001
2000
,
0002
0000
0000
0000
,
3003
0000
0000
0000
;

//---------------dance-double - ----------------
#NOTEDATA:;
#CHARTNAME:;
#STEPSTYPE:dance-double;
#DESCRIPTION:;
#CHARTSTYLE:;
#DIFFICULTY:Hard;
#METER:14;
#RADARVALUES:0.602171,0.718330,0.199536,0.066512,0.640178,507.000000,483.000000,24.000000,8.000000,0.000000,0.000000,0.000000,0.000000,0.000000,0.602171,0.718330,0.199536,0.066512,0.640178,507.000000,483.000000,24.000000,8.000000,0.000000,0.000000,0.000000,0.000000,0.000000;
#CREDIT:;
#NOTES:
00000000
00000000
00000000
00000000
,
00000000
00000000
00000000
00000000
,
00000000
00000000
00000000
00000000
,
00000000
00000000
00000000
00000000
,
00000000
00000000
00000000
00000000
,
01000000
00000000
00001000
00000000
00010000
00001000
00000000
00001000
00010000
00000000
00000100
00000000
00001000
00000010
00000000
00000010
,
00000100
00000000
00000001
00000000
00000010
00000100
00000000
00000100
00000000
00000000
00000010
00000000
00001000
00000100
00000000
00000000
,
00001000
00001100
00010000
00010100
00001000
00001100
00010000
00010100
,
00011000
00000000
00011000
00000000
00011000
00000000
00011000
00000000
00001000
00100000
00010000
00000000
00110000
00000000
00000000
00000000
,
00010000
00000000
00100000
00000000
10000000
01000000
00000000
00010000
00000000
00000000
00000100
00000000
00000010
00000001
00000000
00000100
,
00000000
00000000
00001000
00000000
00000100
00000010
00000000
00000001
00000000
00000100
00000000
00001000
00000000
00000000
00001000
00010000
,
00000000
00010000
00100000
00000000
01000000
00000000
00000000
10000000
00000000
01000000
00000000
00100000
00000000
00000000
00000000
00010000
,
10000000
00010000
00000000
00100000
00000000
01000000
00000000
10000000
00000000
10000000
00010000
00000000
10000000
00100000
10000000
00000000
,
00010000
00000000
00010000
00000000
00100000
00001000
00000000
00001000
00010000
00000000
00000100
00000000
00001000
00000010
00000000
00000010
,
00000100
00000000
00000001
00000000
00000010
00000100
00000000
00001000
00000000
00010000
00000000
00001000
00000000
00000000
00001000
00100000
,
00000000
00100000
00010000
00000000
01000000
00000000
00000000
00010000
00000000
00100000
00000000
10000000
00010000
00000000
00000000
10000000
,
01000000
10000000
00000000
00010000
00000000
00100000
01000000
00100000
00000000
00000000
10000000
00000000
01000000
00000000
00010000
00000000
,
00001000
00000000
00000100
00000000
00000010
00000001
00000000
00000001
00000010
00000000
00000100
00000000
00000010
00000000
00000000
00000000
,
00000001
00000000
00000100
00000000
00001000
00000100
00000000
00000100
00000000
00010000
00000000
00010000
00001000
00000000
00000000
00000000
,
00100000
00000000
00010000
00000000
01000000
00100000
00000000
00100000
01000000
00000000
00100000
00000000
10000000
00000000
00000000
00000000
,
01000000
00000000
00010000
00000000
00100000
00010000
00000000
00001000
00000000
00000000
00010000
00000000
00000100
00000000
00001000
00000000
,
00000001
00000000
00000001
00000000
00000010
00000100
00000000
00000100
00000010
00000000
00000001
00000000
00000100
00000000
00001000
00000000
,
00010000
00000000
00100000
00000000
10000000
00100000
00000000
00100000
01000000
00000000
00100000
00000000
10000000
00000000
01000000
00000000
,
00010000
00000000
00001000
00000000
00000100
00000010
00000000
00000010
00000100
00000000
00000001
00000000
00000100
00000000
00000010
00000000
,
00001000
00000000
00000100
00000000
00010000
00001000
00000000
00001000
00010000
00000000
00001000
00000000
01000000
00000000
00000000
00000000
,
00100000
10000000
11000000
00000000
00100000
00001000
00011000
00000000
,
00000100
00001000
00001010
00000000
00000001
00000100
00001100
00000000
,
00000100
00010000
00011000
00000000
00100000
00010000
01010000
00000000
,
00000000
00000000
10100000
00000000
00000000
00000000
01010000
00000000
00000000
00000000
00100000
00000000
00001000
00000000
00010000
00001000
,
00010000
00000000
00000100
00000000
00001000
00000000
00000010
00000100
00000000
00000100
00000001
00000000
00000100
00000000
00000000
00000000
,
00000010
00000000
00010000
00000000
00001000
00000000
00001000
00100000
00000000
00100000
00010000
00000000
01000000
00000000
00000000
00000000
,
00100000
00000000
10000000
00000000
01000000
00000000
00100000
00010000
00000000
00010000
00100000
00000000
00001000
00000000
00000000
00000000
,
00010000
00000000
00000100
00000000
00001000
00000000
00000010
00000100
00000000
00000100
00000010
00000000
00001000
00000000
00000100
00000010
,
00000002
00000000
00000000
00000000
00000100
00000000
00000000
00000000
00000100
00000000
00000000
00000000
00000100
00000003
00000010
00000000
,
00002000
00000000
00000000
00000000
00000100
00000000
00000000
00000000
00000100
00000000
00000000
00000000
00003100
00000000
00010000
00001000
,
00020000
00000000
00001000
00000000
00000100
00000000
00031000
00100000
,
00020000
00000000
00000000
00000000
01000000
00000000
00000000
00000000
10000000
00030000
10000000
00000000
01000000
00000000
00100000
00010000
,
00200000
00000000
00000000
00000000
00001000
00000000
00000000
00000000
00301000
00000000
00010000
00000000
00000100
00000000
00001000
00000010
,
00000200
00000000
00000000
00000000
00000001
00000000
00000000
00000000
00000301
00000000
00000100
00000000
00000010
00000000
00001000
00000100
,
00010000
00000000
00001000
00000000
00100000
00000000
00010000
01000000
00100000
00000000
10000000
00000000
01000000
00000000
00100000
00000000
,
00001000
00000100
00000010
00000001
00000100
00001000
00010000
01000000
,
01000000
00000000
01000000
00000000
10010000
00000000
00000000
00100000
00000000
00000000
00100000
00000000
10010000
00000000
00000000
10000000
,
00000000
00000000
01000000
00000000
00010000
00000000
00000000
00001000
00000000
00000100
00000000
00000010
00000001
00000000
00000000
00000000
,
00000001
00000000
00000100
00000000
00000010
00001000
00000000
00001000
00000100
00000000
00010000
00000000
00001000
00100000
00000000
00100000
,
00010000
00000000
01000000
00000000
00100000
10000000
00000000
01000000
00000000
00010000
00000000
00001000
00000000
00000000
00000100
00001000
,
00000000
00001000
00000010
00000000
00000100
00000000
00000001
00000010
00000000
00000010
00000000
00000100
00000010
00000000
00000000
00001000
,
00000100
00000010
00000000
00000001
00000000
00000100
00000000
00001000
00000000
00001000
00010000
00000000
00001000
00100000
00001000
00000000
,
00100000
00010000
00100000
00000000
00010000
01000000
00000000
01000000
00100000
00000000
10000000
00000000
01000000
00100000
00000000
00100000
,
00010000
00000000
00100000
00000000
00001000
00010000
00000000
00000100
00000000
00001000
00000000
00000010
00000100
00000000
00000001
00000100
,
00000000
00000001
00000100
00000000
00000010
00000000
00000000
00001000
00000000
00000100
00000000
00000010
00000000
00000000
00000000
00000001
,
00000100
00000001
00000000
00000100
00000000
00001000
00000000
00010000
00000000
00100000
01000000
00000000
00100000
10000000
00100000
00000000
,
10000000
00000000
00100000
10000000
00000000
00100000
10000000
01000000
00000000
01000000
00000000
00000000
00010000
00000000
00001000
00000000
,
00000100
00000000
00000000
00000010
00000000
00000001
00000100
00000010
00000000
00000010
00001000
00000000
00000100
00000000
00010000
00000000
,
00100000
00000000
00100000
00000000
00010000
00100000
00000000
01000000
10000000
00000000
01000000
00000000
10000000
01000000
00000000
00100000
,
00010000
01000000
10000000
01000000
00010000
00001000
00000100
00000010
,
00000001
00000000
00000010
00000000
00000001
00000010
00000000
00000010
00000100
00000000
00001000
00000000
00000100
00000000
00000010
00000000
,
00001000
00000000
00000100
00000000
00000010
00000001
00000000
00000001
00000100
00000000
00000001
00000000
00000100
00000000
00001000
00000000
,
00010000
00000000
00000100
00000000
00010000
00001000
00000000
00001000
00100000
00000000
00010000
00000000
01000000
00000000
00100000
00000000
,
10000000
00000000
10010000
00000000
00100000
00000000
01100000
00000000
10000000
00000000
11000000
00000000
11000000
00000000
00010000
01000000
,
00010000
00000000
00100000
00000000
00100000
00010000
00000000
00010000
00001000
00000000
00000100
00000000
00001000
00000000
00000001
00000000
,
00000010
00000000
00001000
00000000
00000100
00001000
00000000
00001000
00000100
00000000
00010000
00000000
00001000
00000000
00100000
00000000
,
00010000
00000000
01000000
00000000
00100000
10000000
00000000
10000000
01000000
00000000
00100000
00000000
00010000
00001000
00000000
00001000
,
00010000
00000000
00000100
00000000
00001000
00000000
00000010
00000000
00000100
00000001
00000100
00000001
00001000
00000000
00000100
00000000
,
00022000
00000000
00000000
00000000
,
00033000
00000000
00000000
00000000
;

//---------------dance-double - ----------------
#NOTEDATA:;
#CHARTNAME:;
#STEPSTYPE:dance-double;
#DESCRIPTION:;
#CHARTSTYLE:;
#DIFFICULTY:Medium;
#METER:9;
#RADARVALUES:0.410949,0.425677,0.182908,0.191222,0.000000,346.000000,324.000000,22.000000,23.000000,0.000000,0.000000,0.000000,0.000000,0.000000,0.410949,0.425677,0.182908,0.191222,0.000000,346.000000,324.000000,22.000000,23.000000,0.000000,0.000000,0.000000,0.000000,0.000000;
#CREDIT:;
#NOTES:
00000000
00000000
00000000
00000000
,
00000000
00000000
00000000
00000000
,
00000000
00000000
00000000
00000000
,
00000000
00000000
00000000
00000000
,
00000000
00000000
00000000
00000000
,
10000000
01000000
00010000
00000000
00001000
00000100
00000001
00000000
,
00000001
00000010
00001000
00000000
00010000
00100000
10000000
00000000
,
10000000
01000000
10000000
01000000
00100000
00010000
00100000
00010000
,
01000000
01000000
01000000
01000000
02000000
00000000
03100000
00000000
,
10000000
01000000
00100000
00000000
01000000
00100000
00010000
00000000
,
00100000
00001000
00010000
00000000
00000100
00001000
00000010
00000000
,
00000001
00000100
00001000
00000000
00001000
00000100
00000001
00000000
,
00001000
00000100
00000010
00000001
00000100
00000100
00000110
00000000
,
00000001
00000100
00001000
00000000
00000100
00010000
00001000
00000000
,
00100000
00010000
01000000
00000000
00010000
01000000
10000000
00000000
,
00100000
10000000
01000000
00000000
00100000
00001000
00010000
00000000
,
00001000
00001000
00010000
00010000
00001000
00001000
00010000
00000000
,
00000100
00001000
00000010
00000000
00000010
00000001
00000100
00000000
,
00000100
00001000
00000100
00000000
00000001
00000010
00000001
00000000
,
00000010
00001000
00000100
00000000
00000100
00010000
00001000
00000000
,
00100000
00010000
01000000
00000000
00100000
10000000
01000000
00000000
,
10000000
00100000
00010000
00000000
00001000
00000100
00000010
00000000
,
00000001
00000100
00001000
00000000
00010000
00100000
01000000
00000000
,
10000000
01000000
10000000
01000000
00100000
00010000
00100000
00010000
,
01000000
01000000
01000000
01000000
00100000
00100000
00100000
00000000
,
20000000
31000000
00100000
00011000
,
00000200
00001300
00000001
00000011
,
00000200
00010300
00001000
00110000
,
00000000
01100000
00000000
01100000
00000000
10000000
01000000
00100000
,
00020000
00000000
01030000
00000000
10000000
01000000
00100000
00000000
,
00002000
00000000
00013000
00000000
00000100
00001000
00000010
00000000
,
00000200
00000000
00000301
00000000
00001000
00000100
00010000
00000000
,
00002000
00000000
01003000
00000000
00010000
00100000
01000000
10000000
,
00200000
01000000
01000000
01300000
,
20000000
01000000
01000000
31000000
,
00020000
00001000
00001000
00031000
,
00200000
00000000
00010000
00000000
00010000
00010000
00310000
00000000
,
02000000
00000000
00100000
00000000
00100000
00100000
03100000
00000000
,
20000000
00000000
31000000
00000000
00100000
00010000
00100000
00000000
,
00001000
00010000
00001000
00000000
00000010
00001000
00000010
00000000
,
00000001
00000010
00000100
00001000
00000100
00000010
00000001
00000000
,
00000100
00000100
00000100
00000000
00000010
00000010
00000010
00000000
,
00000001
00000100
00001000
00010000
,
00100000
00010000
01000000
00000000
00100000
10000000
01000000
00000000
,
10000000
01000000
00010000
00000000
00001000
00000100
00000001
00000000
,
00000010
00001000
00000100
00000000
00000100
00000001
00000010
00000000
,
00000001
00000010
00001000
00000000
00010000
01000000
10000000
00000000
,
00100000
00100000
00100000
00000000
10000000
01000000
00100000
00000000
,
00001000
00001000
00001000
00000000
00010000
00100000
01000000
00000000
,
10000000
01000000
00100000
00000000
00001000
00010000
00001000
00000000
,
00010000
00000100
00001000
00000100
00010000
00010000
00010000
00000000
,
00001100
00000000
00000110
00000000
00000001
00000010
00000100
00000000
,
00001100
00000000
00011000
00000000
00100000
00010000
01000000
00000000
,
00100000
00100000
00100000
00000000
01000000
01000000
01000000
00000000
,
10010000
01100000
10010000
01100000
,
20000000
32000000
03010000
00110000
,
00002000
00023000
01030000
01010000
,
20000000
30200000
00320000
01030000
,
00000000
10100000
00000000
01010000
00000000
10000000
01000000
00100000
,
00010000
00000000
00101000
00000000
00010000
00000100
00001000
00000000
,
00000001
00000000
00000110
00000000
00001000
00000100
00010000
00000000
,
00001000
00000000
00110000
00000000
00010000
00100000
01000000
00000000
,
10000000
01000000
10000000
01000000
00100000
00010000
00100000
00000000
,
02200000
00000000
00000000
00000000
,
03300000
00000000
00000000
00000000
;

//---------------dance-single - ----------------
#NOTEDATA:;
#CHARTNAME:;
#STEPSTYPE:dance-single;
#DESCRIPTION:;
#CHARTSTYLE:;
#DIFFICULTY:Medium;
#METER:9;
#RADARVALUES:0.409762,0.425677,0.166280,0.191222,0.000000,345.000000,325.000000,20.000000,23.000000,0.000000,0.000000,0.000000,0.000000,0.000000,0.409762,0.425677,0.166280,0.191222,0.000000,345.000000,325.000000,20.000000,23.000000,0.000000,0.000000,0.000000,0.000000,0.000000;
#CREDIT:;
#NOTES:
0000
0000
0000
0000
,
0000
0000
0000
0000
,
0000
0000
0000
0000
,
0000
0000
0000
0000
,
0000
0000
0000
0000
,
1000
0100
0001
0000
0001
0100
1000
0000
,
1000
0010
0001
0000
0001
0010
1000
0000
,
1000
0100
1000
0100
0010
0001
0010
0001
,
0100
0100
0100
0100
0200
0000
0310
0000
,
1000
0100
0010
0000
0100
0010
0001
0000
,
0010
0100
1000
0000
0100
1000
0010
0000
,
1000
0100
0010
0000
0010
0001
0100
0000
,
0001
0010
0100
1000
0010
0010
0110
0000
,
0001
0100
1000
0000
1000
0100
0001
0000
,
0010
0001
0100
0000
0001
0100
1000
0000
,
0010
1000
0100
0000
0100
0010
0001
0000
,
1000
1000
0001
0001
1000
1000
0001
0000
,
1000
0100
0010
0000
0010
0001
0100
0000
,
0100
1000
0100
0000
0100
0001
0010
0000
,
0010
1000
0100
0000
0100
0001
0010
0000
,
0010
0001
0100
0000
0010
1000
0100
0000
,
1000
0010
0001
0000
1000
0100
0010
0000
,
0001
0010
1000
0000
0001
0010
0100
0000
,
1000
0100
1000
0100
0010
0001
0010
0001
,
0100
0100
0100
0100
0010
0010
0010
0000
,
2000
3100
0010
0001
,
0020
0130
1000
1010
,
0200
0301
1000
1001
,
0000
0110
0000
0110
0000
1000
0100
0010
,
0002
0000
0103
0000
1000
0100
0010
0000
,
0002
0000
0013
0000
0100
1000
0010
0000
,
0200
0000
0301
0000
1000
0100
0010
0000
,
0002
0000
0103
0000
0001
0010
0100
1000
,
0020
0100
0100
0130
,
2000
0100
0100
3100
,
0002
0010
0010
0013
,
0200
0000
1000
0000
1000
1000
1300
0000
,
0200
0000
0010
0000
0010
0010
0310
0000
,
0002
0000
0013
0000
0100
1000
0100
0000
,
0010
0001
0010
0000
0100
1000
0010
0000
,
0001
0010
0100
1000
0100
0010
0001
0000
,
0100
0100
0100
0000
0010
0010
0010
0000
,
1000
0100
0010
0001
,
0010
0001
0100
0000
0010
1000
0100
0000
,
1000
0100
0001
0000
0001
0100
1000
0000
,
0010
1000
0100
0000
0100
0001
0010
0000
,
0010
0100
1000
0000
1000
0100
0010
0000
,
0001
0001
0001
0000
1000
0100
0010
0000
,
1000
1000
1000
0000
0001
0010
0100
0000
,
1000
0100
0010
0000
1000
0001
1000
0000
,
0001
0010
0100
0000
1000
1000
1000
0000
,
0011
0000
0110
0000
1000
0100
0010
0000
,
0011
0000
0100
0000
1000
0100
0010
0000
,
0010
0010
0010
0000
0100
0100
0100
0000
,
1001
0110
1001
0110
,
2000
3200
0301
0011
,
0002
0203
1300
1001
,
2000
3020
0032
0103
,
0000
1010
0000
0101
0000
1000
0100
0010
,
0001
0000
1001
0000
0010
0100
0001
1000
,
0010
0000
1001
0000
0100
0010
1000
0001
,
0100
0000
0011
0000
0001
0010
0100
0000
,
1000
0100
1000
0100
0010
0001
0010
0000
,
0220
0000
0000
0000
,
0330
0000
0000
0000
;

//---------------dance-single - ----------------
#NOTEDATA:;
#CHARTNAME:;
#STEPSTYPE:dance-single;
#DESCRIPTION:;
#CHARTSTYLE:;
#DIFFICULTY:Beginner;
#METER:4;
#RADARVALUES:0.167468,0.235702,0.041570,0.074826,0.000000,141.000000,136.000000,5.000000,9.000000,0.000000,0.000000,0.000000,0.000000,0.000000,0.167468,0.235702,0.041570,0.074826,0.000000,141.000000,136.000000,5.000000,9.000000,0.000000,0.000000,0.000000,0.000000,0.000000;
#CREDIT:;
#NOTES:
0000
0000
0000
0000
,
0000
0000
0000
0000
,
0000
0000
0000
0000
,
0000
0000
0000
0000
,
0000
0000
0000
0000
,
0010
0000
0100
0000
,
0001
0000
1000
0000
,
0001
0001
0001
0001
,
0002
0000
0003
0000
,
0100
0000
0100
0000
,
0100
0000
0100
0000
,
0010
0000
0010
0000
,
0010
0010
0010
0000
,
1000
0000
0001
0000
,
1000
1000
1000
0000
,
0001
0000
1000
0000
,
0001
0001
0001
0000
,
0100
0000
0010
0000
,
0100
0100
0100
0000
,
0010
0000
0100
0000
,
0010
0010
0010
0000
,
1000
0000
0001
0000
,
1000
1000
1000
0000
,
0001
0001
0001
0001
,
0002
0000
0003
0000
,
0000
1000
0000
1000
,
0000
0001
0000
0001
,
0000
0100
0000
0100
,
0000
0010
0010
0010
,
0000
1000
0000
0001
,
0000
1000
0000
0001
,
0000
0100
0000
0010
,
0000
0100
0000
0100
,
0200
0000
0300
0000
,
0020
0000
0030
0000
,
2000
0000
3000
0000
,
0002
0000
0003
0000
,
1000
1000
1000
0000
,
0001
0001
0001
0000
,
1001
0000
1001
0000
,
0100
0100
0100
0100
,
0200
0000
0000
0000
,
0300
0000
0000
0000
,
0001
0001
0001
0000
,
1000
1000
1000
0000
,
0001
0000
1000
0000
,
0001
0001
0001
0000
,
0100
0100
0100
0000
,
0010
0010
0010
0000
,
0100
0000
0010
0000
,
0100
0100
0100
0000
,
0001
0000
1001
0000
,
1000
0000
1001
0000
,
0010
0010
0010
0010
,
0020
0000
0000
0030
,
1000
1000
1000
0000
,
0001
0001
0001
0000
,
1000
1000
1000
0000
,
0000
0100
0100
0100
,
0000
0010
0010
0000
,
0100
0100
0100
0000
,
0001
0001
0001
0001
,
0002
0000
0003
0000
,
1001
0000
0000
0000
;

//---------------dance-double - ----------------
#NOTEDATA:;
#CHARTNAME:;
#STEPSTYPE:dance-double;
#DESCRIPTION:;
#CHARTSTYLE:;
#DIFFICULTY:Easy;
#METER:5;
#RADARVALUES:0.235168,0.292653,0.116396,0.307618,0.000000,198.000000,184.000000,14.000000,37.000000,0.000000,0.000000,0.000000,0.000000,0.000000,0.235168,0.292653,0.116396,0.307618,0.000000,198.000000,184.000000,14.000000,37.000000,0.000000,0.000000,0.000000,0.000000,0.000000;
#CREDIT:;
#NOTES:
00000000
00000000
00000000
00000000
,
00000000
00000000
00000000
00000000
,
00000000
00000000
00000000
00000000
,
00000000
00000000
00000000
00000000
,
00000000
00000000
00000000
00000000
,
00000001
00000100
00001000
00010000
,
01000000
00010000
00001000
00000100
,
00000001
00000001
00001000
00001000
,
00000010
00000010
00000110
00001001
,
00000002
00000003
00002000
00003000
,
00000001
00000100
00001000
00000000
,
00010000
01000000
10000000
00000000
,
10000000
01000000
00010000
00000000
,
00001000
00001000
00010000
00010000
,
00001000
00010000
00100000
01000000
,
10000000
10000000
00010000
00010000
,
10000000
01000000
00200000
00300000
,
00001000
00000100
00000010
00000001
,
00000010
00000010
00000100
00000100
,
00000001
00000010
00000100
00001000
,
00000010
00000010
00000100
00000100
,
00000010
00001000
00010000
01000000
,
10000000
10000000
00010000
00010000
,
01000000
00010000
00001000
00000100
,
00000010
00000010
00000100
00000100
,
00000002
00000100
00000000
00000103
,
00002000
00000100
00000000
00003100
,
00020000
00001000
00000000
00031000
,
00000000
00110000
00000000
00110000
00000000
00010000
00010000
00000000
,
02000000
00010000
00000000
03001000
,
00020000
00000100
00000000
00030010
,
00002000
00000100
00000000
00003001
,
00000020
00010000
00000000
00001030
,
00002020
00000000
00000000
00003030
,
00022000
00000000
00000000
00033000
,
02020000
00000000
00000000
03030000
,
22000000
00000000
33000000
00100000
,
00220000
00000000
00330000
00010000
,
00022000
00000000
00033000
00001000
,
00000010
00000001
00000100
00001000
,
00010000
00100000
01000000
10000000
,
20020000
00000000
00000000
00000000
,
30030000
00000000
00100000
10010000
,
01000000
01000000
00010000
00010000
,
00001000
00001000
00000100
00000100
,
00000001
00000100
00001000
00000000
,
00010000
01000000
10000000
00000000
,
00100000
00100000
00001000
00001000
,
00010000
00010000
00000010
00000010
,
00001000
00000100
00000001
00000000
,
00000100
00001000
00010000
00000000
,
00200000
00300000
00010000
01000000
,
20000000
30000000
00100000
00010000
,
00002000
00003000
00020000
00030000
,
00001000
00001000
00000100
00000001
,
00000100
00000100
00000200
00000300
,
00010000
00010000
00020000
00030000
,
00001000
00001000
00002000
00003000
,
00000000
00100000
00000000
00100000
00000000
00100000
00100000
00000000
,
10000000
01000000
00020000
00030000
,
00001000
00000100
00000002
00000003
,
00000010
00000100
00001000
00010000
,
00022000
00000000
00033000
00000000
,
00022000
00000000
00000000
00000000
,
00033000
00000000
00000000
00000000
;

//---------------dance-single - ----------------
#NOTEDATA:;
#CHARTNAME:;
#STEPSTYPE:dance-single;
#DESCRIPTION:;
#CHARTSTYLE:;
#DIFFICULTY:Easy;
#METER:6;
#RADARVALUES:0.260110,0.425677,0.166280,0.565352,0.000000,219.000000,199.000000,20.000000,68.000000,0.000000,0.000000,0.000000,0.000000,0.000000,0.260110,0.425677,0.166280,0.565352,0.000000,219.000000,199.000000,20.000000,68.000000,0.000000,0.000000,0.000000,0.000000,0.000000;
#CREDIT:;
#NOTES:
// measure 0
0000
0000
0000
0000
,  // measure 1
0000
0000
0000
0000
,  // measure 2
0000
0000
0000
0000
,  // measure 3
0000
0000
0000
0000
,  // measure 4
0000
0000
0000
0000
,  // measure 5
1000
1000
1000
0000
0001
0001
0001
0000
,  // measure 6
1000
1000
1000
0000
0001
0001
0001
0000
,  // measure 7
1001
0110
1001
0110
,  // measure 8
0010
0010
0010
0000
0220
0000
0330
0000
,  // measure 9
2000
3000
0002
0003
,  // measure 10
0200
0300
0020
0030
,  // measure 11
0001
0100
2000
3001
,  // measure 12
1000
0100
0002
1003
,  // measure 13
0001
0001
0001
0000
1000
1000
1000
0000
,  // measure 14
0001
0100
1000
0010
,  // measure 15
0001
0001
1000
1000
,  // measure 16
0001
0010
0200
0300
,  // measure 17
0002
0010
0100
1003
,  // measure 18
2000
0010
0001
3100
,  // measure 19
0010
0100
0010
0000
0100
0010
0100
0000
,  // measure 20
0002
0100
1000
0013
,  // measure 21
2000
0100
0010
3001
,  // measure 22
0200
0010
0001
0310
,  // measure 23
0002
0010
0100
1003
,  // measure 24
0010
0100
0010
0000
2002
0000
3003
0000
,  // measure 25
0020
1000
0000
0130
,  // measure 26
0200
0001
0000
0310
,  // measure 27
0020
1000
0000
0130
,  // measure 28
0000
0101
0000
1001
0000
0010
0010
0000
,  // measure 29
2000
0100
0000
3001
,  // measure 30
0002
0010
0000
1003
,  // measure 31
0200
0010
0000
0310
,  // measure 32
0000
0000
0110
0000
0000
1000
0001
0000
,  // measure 33
2000
0000
0000
3000
,  // measure 34
0002
0000
0000
0003
,  // measure 35
0200
0000
0000
0300
,  // measure 36
0020
0000
0000
0130
,  // measure 37
2002
0000
3003
0110
,  // measure 38
2002
0000
3003
0110
,  // measure 39
0000
0110
0000
0110
,  // measure 40
0100
0100
0100
0100
,  // measure 41
2002
0000
0000
3003
,  // measure 42
1000
0100
0010
0001
,  // measure 43
2000
3100
0002
0103
,  // measure 44
1000
0100
0010
0001
,  // measure 45
1000
0001
1000
0001
,  // measure 46
0100
0100
0100
0000
0220
0000
0330
0000
,  // measure 47
0010
1000
0100
1000
,  // measure 48
0010
0001
0100
0001
,  // measure 49
0020
0130
0200
0310
,  // measure 50
1000
0001
1000
0000
2002
0000
3003
0000
,  // measure 51
0020
0030
1000
0100
,  // measure 52
0002
0003
0010
1000
,  // measure 53
0010
0010
0010
0000
0100
0100
0100
0000
,  // measure 54
2002
0000
0000
3003
,  // measure 55
0002
0203
2000
3300
,  // measure 56
2000
3020
0002
0033
,  // measure 57
0020
0230
0302
2003
,  // measure 58
3000
0010
0000
0010
0000
1000
0001
0000
,  // measure 59
0200
0302
0020
0033
,  // measure 60
0200
2300
0020
3030
,  // measure 61
0002
0023
0230
2300
,  // measure 62
0002
0000
0000
3003
,  // measure 63
0220
0000
0000
0000
,  // measure 64
0330
0000
0000
0000
;
