#TITLE:Override;
#SUBTITLE:;
#ARTIST:Nhato;
#TITLETRANSLIT:;
#SUBTITLETRANSLIT:;
#ARTISTTRANSLIT:;
#GENRE:;
#CREDIT:;
#BANNER:Override.png;
#BACKGROUND:Override-bg.png;
#LYRICSPATH:;
#CDTITLE:;
#MUSIC:Override.ogg;
#OFFSET:0.016000;
#SAMPLESTART:83.641144;
#SAMPLELENGTH:10.971428;
#SELECTABLE:YES;
#BPMS:0.000000=175.000000
;
#STOPS:
;
#BGCHANGES:0.000=Override.avi=1.000=0=0=0=StretchNoLoop====,
99999=-nosongbg-=1.000=0=0=0 // don't automatically add -songbackground-
;
#KEYSOUNDS:;
#ATTACKS:;

//---------------dance-single - ----------------
#NOTES:
     dance-single:
     :
     Hard:
     15:
     0.784942,1.187225,0.417001,0.523295,0.711354,672.000000,621.000000,51.000000,64.000000,0.000000,0.000000,0.784942,1.187225,0.417001,0.523295,0.711354,672.000000,621.000000,51.000000,64.000000,0.000000,0.000000:
0000
0000
0000
0000
,
0000
0000
0000
0000
,
0000
0000
0000
0000
,
0000
0000
0000
0000
,
0000
0000
0000
0000
,
1000
0000
0000
1000
0000
0000
0100
0000
0002
0000
0000
0000
0003
0000
0100
0000
,
0001
0000
0000
0001
0000
0000
0100
0000
2000
0000
0000
0000
3000
0000
0100
0000
,
0010
0000
0000
0001
0000
0000
0100
0000
0010
0000
0000
1000
0000
0000
0200
0000
,
0020
0000
0000
0330
,
1000
0000
0100
0000
0010
0000
0001
0000
1000
0000
0100
0000
0010
0000
0001
1000
,
0010
0000
0100
0000
0001
0000
1000
0000
0010
0000
0100
0000
0001
0000
1000
0001
,
0100
0000
0010
0000
1000
0000
0001
0100
0001
0000
1000
0000
0010
0000
0100
0020
,
0200
0000
0330
1001
,
0110
0000
0002
0013
0100
2000
3100
0010
,
0001
0000
0100
0000
0001
0100
0001
0000
1000
0010
1000
0000
0001
0100
0001
0000
,
1000
0100
0020
0130
1000
0200
0310
0001
,
0100
0000
0001
0000
0100
0001
0000
1000
0000
0001
0100
0000
0001
0100
0010
0000
,
1000
0001
2000
3010
0100
0002
0103
0010
,
1000
0000
0001
0000
0010
0001
0010
0000
0100
1000
0100
0000
0010
0001
0010
0000
,
0100
0001
2000
3001
0100
0020
1030
0100
,
0010
0000
0001
0010
0000
0100
1000
0000
0020
0000
0000
0000
1030
0100
0010
0001
,
0100
0000
0000
0000
0001
0010
0001
0000
0001
0100
0001
0000
0001
1000
0001
0000
,
1000
0100
1000
0000
1000
0010
1000
0000
1000
0001
1000
0000
0001
0100
0010
0000
,
1000
0100
1000
0000
0010
0100
0010
0000
0010
1000
0010
0000
0010
0100
0010
0000
,
0100
0001
0100
0000
0100
0010
0100
0010
0100
0000
0001
0000
1000
0000
0100
0000
,
0010
0000
0001
0000
1000
0010
1000
0000
1000
0001
1000
0000
1000
0100
1000
0000
,
1000
0010
1000
0000
0001
0010
0001
0000
0001
0100
0001
0000
1000
0001
1000
0000
,
0010
0000
0100
0000
0001
0000
1000
0000
0010
0000
0000
1100
0000
0000
0001
0000
,
1001
0000
0000
0100
0000
0000
0010
0000
0022
0000
0033
0000
0001
0100
0001
0100
,
0010
0000
1000
0000
0001
0010
0001
0000
0100
0010
0100
0000
0001
0010
0001
0000
,
1000
0100
1000
0000
0010
0100
0010
0000
1000
0100
1000
0000
0001
0010
0100
0000
,
1000
0000
0001
0000
0100
0010
0100
0000
0001
0100
0001
0000
0100
0010
0100
0000
,
0001
0010
0100
0000
1000
0100
1000
0100
0010
0000
0100
0000
1000
0000
0001
0000
,
0100
0000
0001
0000
1000
0010
1000
0000
0001
0010
0001
0000
1000
0100
1000
0000
,
0001
0100
0001
0000
1000
0010
1000
0000
0001
0010
0001
0000
1000
0000
0100
0000
,
0110
0000
0000
1010
0000
0000
0101
0000
0000
0000
0110
0000
0000
0000
1002
0000
,
0000
0000
0100
0000
0000
0000
0103
0001
0100
0000
0010
0000
1000
0000
0100
0000
,
0012
0000
0000
0000
,
0203
0000
0320
0000
,
2030
0000
3200
0000
,
0320
0000
0032
0000
,
0103
0000
0000
0100
0000
0000
0100
0000
0020
0000
0000
0000
0030
0000
0000
0000
,
1000
0000
0000
1000
0000
0000
1000
0000
0200
0000
0000
0000
0300
0000
0000
0000
,
0010
0000
0000
0010
0000
0000
0010
0000
0001
0000
0000
0001
0000
0000
0002
0000
,
2000
0000
0000
3003
,
0011
0000
0000
0011
0000
0000
0101
0000
2002
0000
0000
0000
3003
0000
0000
0000
,
1010
0000
0000
1010
0000
0000
1100
0000
2002
0000
0000
0000
3003
0000
0000
0000
,
0010
0000
0000
0010
0000
0000
1000
0000
0001
0000
0000
0001
0000
0000
0100
0000
,
0010
0000
0000
0010
0000
0000
0100
0000
0002
0000
0000
0000
1003
0001
1000
0001
,
1000
0000
0000
1010
0000
0000
1000
0000
2200
0000
0000
0000
3300
0000
0001
0000
,
0101
0000
0000
1001
0000
0000
1000
0000
2200
0000
0000
0000
3300
0000
0000
0000
,
0002
0000
0000
0010
0000
0000
0013
0000
0200
0000
0000
1000
0000
0000
1300
0000
,
0002
0000
0000
0100
0000
0000
0103
0000
0020
0000
0000
0000
1030
0000
0001
0100
,
0010
0000
0000
0010
0000
0000
0010
1000
0100
0000
0000
0100
0000
0000
0100
0010
,
0001
0000
0000
0001
0000
0000
0001
0100
0010
0000
0000
0010
0000
0000
0010
1000
,
0001
0000
0000
0001
0000
0000
0001
1000
0100
0000
0000
0100
0000
0000
0100
0010
,
0001
0000
0000
0001
0000
0000
0001
1000
0100
0000
0000
0100
0000
0000
0100
1000
,
0010
1000
0010
1000
0010
1000
0010
1000
0001
0100
0001
0100
0001
0100
0001
0100
,
0010
0100
0010
0100
0010
0100
0010
0100
0001
1000
0001
1000
0001
1000
0001
1000
,
0002
0000
0000
0000
,
0103
0000
0010
0100
0000
0010
0100
0000
0220
0000
0000
0000
0330
0000
0000
0000
,
0001
0000
0000
0001
0100
0000
0010
0000
2000
0000
0100
0000
3100
0000
1000
0000
,
0010
0000
0000
0010
1000
0000
0001
0000
0200
0000
0010
0000
0310
0000
0100
0000
,
0001
0000
0001
0010
0000
0010
0100
0000
1000
0000
1000
0100
0000
0100
0010
0000
,
0001
0000
0001
1000
0000
1000
0010
0000
0200
0000
0000
0000
0310
0100
0010
0000
,
1000
0000
0000
1000
0100
0000
0010
0000
0002
0000
0100
0000
0103
0000
0001
0000
,
0100
0000
0000
0100
0010
0000
1000
0000
2000
0000
0001
0000
3001
0000
1000
0000
,
0100
0000
0100
0010
0000
0010
0100
0000
0001
0000
1000
0001
0000
0001
1000
0000
,
0010
0000
0010
1000
0000
1000
0100
0000
1000
0000
0010
0000
0110
0000
0000
0000
,
0001
0000
0000
0100
0100
0000
0010
0000
0200
0000
0000
0000
0301
0000
1000
0000
,
0010
0000
0000
1000
1000
0000
0010
0000
0200
0000
0000
0000
0301
0000
1000
0000
,
0001
0000
0001
0010
0000
0010
0001
0000
1000
0000
1000
0100
0000
0100
1000
0000
,
0001
0000
0010
0001
0000
1000
0100
0000
0020
0000
0000
0000
0031
0100
0001
0000
,
0100
0000
0000
0100
0010
0000
1000
0000
0002
0000
0100
0000
0103
0000
0001
0000
,
1000
0000
0000
1000
0100
0000
0010
0000
0002
0000
0010
0000
0013
0000
0100
0000
,
1000
0000
1000
0100
0000
0100
0010
0000
0001
0000
0001
0010
0000
0010
0100
0000
,
0001
0000
0000
0101
0000
0000
1000
0000
1100
0000
0000
0110
0000
0000
0001
0000
,
0101
0000
0000
1100
0000
0000
0101
0000
2002
0000
0000
0000
3003
0000
1001
0000
,
1001
0000
0000
1100
0000
0000
0011
0000
2002
0000
0000
0000
3003
0000
0001
0100
,
0001
0000
0001
0100
0000
0100
0010
0000
1000
0000
1000
0010
0000
0010
0100
0000
,
0001
0000
0100
0010
0000
1000
0001
0000
0200
0000
0000
0000
0301
0100
0001
0100
,
0010
0000
0000
1010
0000
0000
1000
0000
0002
0000
0010
0000
0013
0000
0001
0000
,
0100
0000
0000
0101
0000
0000
0001
0000
2000
0000
0100
0000
3100
0000
1000
0000
,
0010
0000
0010
1000
0000
1000
0001
0000
0100
0000
0100
0001
0000
0001
1000
0000
,
0101
0000
0000
0101
0000
0000
1100
0000
0101
0000
0000
0101
0000
0000
1010
0000
,
0011
0000
0000
0011
0000
0000
1100
0000
0110
0000
0000
0011
0000
0000
2000
0000
,
0002
0000
0000
0000
,
0000
0000
0000
0000
,
3003
0000
0000
0000
;

//---------------dance-double - ----------------
#NOTES:
     dance-double:
     :
     Hard:
     14:
     0.730043,0.899413,0.425177,0.449706,0.461971,625.000000,573.000000,52.000000,55.000000,0.000000,0.000000,0.730043,0.899413,0.425177,0.449706,0.461971,625.000000,573.000000,52.000000,55.000000,0.000000,0.000000:
00000000
00000000
00000000
00000000
,
00000000
00000000
00000000
00000000
,
00000000
00000000
00000000
00000000
,
00000000
00000000
00000000
00000000
,
00000000
00000000
00000000
00000000
,
10000000
00000000
00000000
01000000
00000000
00000000
00100000
00000000
00020000
00000000
00000000
00000000
00030000
00000000
00000000
00000000
,
00001000
00000000
00000000
00000100
00000000
00000000
00000010
00000000
00000002
00000000
00000000
00000000
00000003
00000000
00000000
00000000
,
00000010
00000000
00000000
00000100
00000000
00000000
00001000
00000000
00010000
00000000
00000000
00001000
00000000
00000000
00010000
00000000
,
00200000
00000000
00000000
00300000
,
00100000
10000000
01000000
00010000
00001000
00000100
00000001
00000010
,
00000010
00000001
00000010
00001000
00010000
00100000
10000000
01000000
,
01000000
10000000
01000000
00010000
00001000
00000100
00000010
00000001
,
00002002
00000000
00003003
00001001
,
00000001
00000100
00002000
00003100
00000010
00000002
00000013
00000100
,
00001000
00000000
00000100
00000000
00010000
00001000
00010000
00000000
00001000
00010000
00001000
00000000
00010000
00001000
00010000
00000000
,
00001000
00100000
00020000
00130000
01000000
20000000
31000000
00100000
,
00010000
00000000
01000000
00000000
00100000
10000000
00000000
01000000
00000000
00000000
00100000
00000000
00001000
00000000
00010000
00000000
,
00000100
00001000
00000200
00000310
00000001
00000020
00000130
00001000
,
00000100
00000000
00010000
00000000
00001000
00010000
00001000
00000000
00010000
00001000
00010000
00000000
00001000
00010000
00001000
00000000
,
00100000
00010000
02000000
03100000
10000000
00200000
01300000
00010000
,
10010000
00000000
00000000
01010000
00000000
00000000
10000000
00000000
20020000
00000000
30030000
00000000
10000000
01000000
00100000
00000000
,
00001000
00000000
00010000
00000000
00000100
00001000
00000100
00000000
00001000
00000100
00001000
00000000
00000100
00001000
00000100
00000000
,
00000010
00000001
00000010
00000000
00000001
00000010
00000001
00000000
00000100
00000010
00000100
00000000
00000001
00000000
00001000
00000000
,
00000100
00000000
00010000
00000000
00001000
00010000
00001000
00000000
00001000
00100000
00001000
00000000
00001000
01000000
00001000
00000000
,
01000000
00000000
00010000
00000000
10000000
00000000
01000000
10000000
01000000
00000000
00100000
00000000
00001000
00000000
00010000
00000000
,
00000100
00000000
00001000
00000000
00000001
00000010
00000001
00000000
00000001
00000100
00000001
00000000
00000001
00001000
00000001
00000000
,
00001000
00000100
00001000
00000000
00001000
00000010
00001000
00000000
00001000
00000100
00001000
00000000
00000100
00000000
00010000
00000000
,
00001000
00000000
00100000
00000000
00010000
00100000
00010000
00000000
01000000
00000000
00100000
00000000
01000000
00100000
01000000
00100000
,
01000000
00000000
00000000
01010000
00000000
00000000
00010000
00000000
10020000
00000000
00000000
00000000
01030000
00100000
01000000
00100000
,
01000000
00000000
00010000
00000000
10000000
01000000
10000000
00000000
10000000
00100000
10000000
00000000
10000000
00010000
10000000
00000000
,
00010000
00100000
00010000
00000000
00010000
01000000
00010000
00000000
00010000
00100000
00010000
00000000
00100000
00000000
00001000
00000000
,
00010000
00000000
00000100
00000000
00001000
00000010
00001000
00000000
00001000
00000001
00001000
00000000
00001000
00000100
00001000
00000000
,
00000100
00000000
00010000
00000000
00001000
00100000
00001000
00100000
00001000
00000000
00100000
00000000
00010000
00000000
01000000
00000000
,
00100000
00000000
10000000
00000000
01000000
10000000
01000000
00000000
10000000
00000000
01000000
00000000
00010000
00000000
00001000
00000000
,
00000100
00000000
00000001
00000000
00000100
00000001
00000100
00000000
00000001
00000000
00000100
00000000
00001000
00000000
00010000
00000000
,
01000000
00000000
00000000
01100000
00000000
00000000
10100000
00000000
00000000
00000000
00010000
00000000
00100000
00000000
01000000
00000000
,
00000000
10000000
00000000
01000000
00010000
00001000
00000100
00000010
,
00000200
00000000
00000000
00000000
,
00020300
00000000
00032000
00000000
,
02003000
00000000
23000000
00000000
,
32000000
00000000
03002000
00000000
,
00003100
00000000
00000000
00000010
00000000
00000000
00000001
00000000
00000020
00000000
00000000
00000000
00000030
00000000
00000000
00000000
,
00000100
00000000
00000000
00001000
00000000
00000000
00010000
00000000
00200000
00000000
00000000
00000000
00300000
00000000
00000000
00000000
,
10000000
00000000
00000000
01000000
00000000
00000000
00010000
00000000
00001000
00000000
00000000
00000100
00000000
00000000
00000002
00000000
,
00002000
00000000
00000000
00003003
,
00000011
00000000
00000000
00000110
00000000
00000000
00001000
00000000
00002200
00000000
00000000
00000000
00003300
00000000
00000000
00000000
,
00011000
00000000
00000000
00101000
00000000
00000000
00001000
00000000
02002000
00000000
00000000
00000000
03003000
00000000
00000000
00000000
,
00010000
00000000
00000000
00100000
00000000
00000000
10000000
00000000
10000000
00000000
00000000
01000000
00000000
00000000
00010000
00000000
,
00010000
00000000
00000000
00001000
00000000
00000000
00000100
00000000
00000002
00000000
00000000
00000000
00000103
00000000
00000000
00000000
,
00001010
00000000
00000000
00001100
00000000
00000000
00001010
00000000
00002020
00000000
00000000
00000000
00003030
00000000
00000000
00000000
,
00011000
00000000
00000000
00010100
00000000
00000000
00011000
00000000
00022000
00000000
00000000
00000000
00033000
00000000
00000000
00000000
,
00001000
00000000
00000000
00010000
00000000
00000000
00100000
00000000
01000000
00000000
00000000
00100000
00000000
00000000
00010000
00000000
,
00001000
00000000
00000000
00000100
00000000
00000000
00000010
00000000
00000002
00000000
00000000
00000000
00001003
00000000
00000010
00000100
,
00000010
00000000
00000100
00000000
00000001
00000000
00001000
00000001
00001000
00000000
00000100
00000000
00010000
00000000
00001000
00010000
,
00001000
00000000
00100000
00000000
00010000
00000000
01000000
00100000
01000000
00000000
00100000
00000000
10000000
00000000
00010000
10000000
,
00010000
00000000
01000000
00000000
00010000
00000000
00100000
00010000
00100000
00000000
00010000
00000000
01000000
00000000
00100000
10000000
,
00100000
00000000
10000000
00000000
01000000
00000000
00100000
00010000
00100000
00000000
00001000
00000000
00010000
00000000
00000100
00000000
,
00001000
00000010
00000100
00000001
00000100
00001000
00010000
01000000
,
00100000
10000000
00100000
10000000
01000000
00010000
00001000
00000100
,
00000002
00000000
00000000
00000003
,
00000011
00000000
00000000
00000110
00000000
00000000
00001100
00000000
00002002
00000000
00000000
00000000
00003003
00000000
00000000
00000000
,
00000001
00000000
00000000
00000001
00000100
00000000
00000010
00000000
00002000
00000000
00000000
00000000
00003100
00000000
00010000
00000000
,
00001000
00000000
00000000
00001000
00010000
00000000
00001000
00000000
00200000
00000000
00000000
00000000
00310000
00000000
01000000
00000000
,
00100000
00000000
00000000
00100000
10000000
00000000
01000000
00000000
00100000
00000000
00000000
00100000
00010000
00000000
01000000
00000000
,
00100000
00000000
00000000
00100000
10000000
00000000
01000000
00000000
00010000
00000000
00001000
00000000
00000100
00000000
00000010
00000000
,
00000001
00000000
00000000
00000001
00000100
00000000
00000010
00000000
00002000
00000000
00000000
00000000
00003100
00000000
00001000
00000000
,
00000010
00000000
00000000
00000010
00001000
00000000
00000100
00000000
00020000
00000000
00000000
00000000
00031000
00000000
00100000
00000000
,
00010000
00000000
00000000
00010000
01000000
00000000
00100000
00000000
10000000
00000000
00000000
10000000
01000000
00000000
00100000
00000000
,
00010000
00000000
00000000
01000000
00000000
00000000
10000000
00000000
00100000
00000000
10000000
00000000
01000000
00000000
00010000
00000000
,
00001000
00000000
00000000
00001000
00010000
00000000
00000100
00000000
00002000
00000000
00000010
00000000
00003010
00000000
00001000
00000000
,
00000001
00000000
00000000
00000001
00000100
00000000
00000010
00000000
00002000
00000000
00000100
00000000
00003100
00000000
00000100
00000000
,
00010000
00000000
00000000
00010000
00001000
00000000
00100000
00000000
00010000
00000000
00000000
00010000
01000000
00000000
00100000
00000000
,
10000000
00000000
00000000
10000000
01000000
00000000
00100000
00000000
00010000
00000000
00001000
00000000
00000100
00000000
00000010
00000000
,
00000001
00000000
00000000
00000001
00000100
00000000
00000010
00000000
00002000
00000000
00000100
00000000
00003100
00000000
00001000
00000000
,
00000010
00000000
00000000
00000010
00010000
00000000
00001000
00000000
00002000
00000000
00010000
00000000
00013000
00000000
00001000
00000000
,
00100000
00000000
00100000
00010000
00000000
00010000
01000000
00000000
00100000
00000000
00100000
10000000
00000000
10000000
01000000
00000000
,
11000000
00000000
00000000
01100000
00000000
00000000
01000000
00000000
01010000
00000000
00000000
10100000
00000000
00000000
10000000
00000000
,
11000000
00000000
00000000
10100000
00000000
00000000
10010000
00000000
02020000
00000000
00000000
00000000
03030000
00000000
00100000
00000000
,
00101000
00000000
00000000
00011000
00000000
00000000
00011000
00000000
00020200
00000000
00000000
00000000
00030300
00000000
00001000
00000000
,
00000010
00000000
00000010
00001000
00000000
00001000
00000001
00000000
00000100
00000000
00000100
00000001
00000000
00000001
00001000
00000000
,
00000010
00000000
00000000
00001000
00000000
00000000
00000100
00000000
00020000
00000000
00001000
00000000
00031000
00010000
00001000
00010000
,
00000100
00000000
00000000
00001100
00000000
00000000
00001000
00000000
00000001
00000000
00000010
00000000
00000100
00000000
00001000
00000000
,
00000001
00000000
00000000
00000101
00000000
00000000
00001000
00000000
00000100
00000000
00010000
00000000
00001000
00000000
01000000
00000000
,
00100000
00000000
00000000
10100000
00000000
00000000
10000000
00000000
01000000
00000000
00000000
11000000
00000000
00000000
10000000
00000000
,
10100000
00000000
00000000
10100000
00000000
00000000
00010000
00000000
00110000
00000000
00000000
00110000
00000000
00000000
00001000
00000000
,
00011000
00000000
00000000
00010010
00000000
00000000
00001000
00000000
00001001
00000000
00000000
00001100
00000000
00000000
00000100
00000000
,
00022000
00000000
00000000
00000000
,
00000000
00000000
00000000
00000000
,
00033000
00000000
00000000
00000000
;

//---------------dance-double - ----------------
#NOTES:
     dance-double:
     :
     Medium:
     11:
     0.519791,0.647577,0.179883,0.408824,0.318883,445.000000,423.000000,22.000000,50.000000,0.000000,0.000000,0.519791,0.647577,0.179883,0.408824,0.318883,445.000000,423.000000,22.000000,50.000000,0.000000,0.000000:
00000000
00000000
00000000
00000000
,
00000000
00000000
00000000
00000000
,
00000000
00000000
00000000
00000000
,
00000000
00000000
00000000
00000000
,
00000000
00000000
00000000
00000000
,
00010000
00100000
02000000
03000000
,
00001000
00010000
00000200
00000300
,
00001000
00000100
00000010
00000001
,
00002002
00000000
00000000
00003003
,
00000010
00000100
00000100
00000000
00000001
00000100
00001000
00000000
,
00010000
00010000
00001000
00000000
00100000
00010000
01000000
00000000
,
00100000
10000000
01000000
00000000
00010000
00001000
00100000
00000000
,
00002000
00023000
02030000
03100000
,
10000000
00000000
10010000
00000000
10000000
00010000
10000000
00000000
,
10000000
01000000
00100000
01000000
10000000
01000000
00010000
00000000
,
00001000
00000000
00010000
00000000
00000100
00001000
00000010
00000000
,
00000001
00000100
00001000
00000100
00000001
00000000
00001001
00000000
,
00000010
00000000
00000101
00000000
00000001
00000010
00000100
00000000
,
00001000
00000100
00010000
00001000
00010000
00000100
00001000
00000000
,
00000100
00000000
00011000
00000000
00100000
00010000
01000000
00000000
,
00100000
00000000
00000000
00100000
00000000
00000000
10000000
00000000
00010000
00000000
00000000
00000000
01100000
00000000
00000000
00000000
,
10000000
00000000
00000000
10000000
01000000
00000000
00000000
01000000
00100000
00000000
00000000
00100000
00010000
00000000
00000000
00010000
,
00100000
00000000
00000000
00100000
01000000
00000000
00000000
01000000
00010000
00000000
00000000
00010000
00100000
00000000
00000000
00100000
,
00001000
00000000
00000000
00001000
00010000
00000000
00000000
00010000
00000010
00000000
00000000
00000010
00000100
00000000
00000000
00000100
,
00000001
00000000
00000000
00000001
00001000
00000000
00000000
00000000
00000001
00000000
00000100
00000000
00001000
00000000
00010000
00000000
,
01000000
00000000
00000000
01000000
00100000
00000000
00000000
00100000
00010000
00000000
00000000
00010000
00100000
00000000
00000000
00100000
,
10000000
00000000
00000000
10000000
01000000
00000000
00000000
01000000
00100000
00000000
00000000
00100000
00001000
00000000
00000000
00001000
,
00010000
00000000
00000000
00000000
00001100
00000000
00000000
00000000
00000010
00000000
00000000
00000010
00000000
00000000
00000001
00000000
,
00000100
00000000
00000000
00000100
00000000
00000000
00000010
00000000
00002000
00000000
00000000
00000000
00003001
00000000
00000000
00000000
,
00000101
00000000
00000000
00000001
00000100
00000000
00000000
00000100
00000010
00000000
00000000
00000010
00000100
00000000
00000000
00000100
,
00000001
00000000
00000000
00000001
00001000
00000000
00000000
00001000
00000100
00000000
00000000
00000100
00010000
00000000
00000000
00010000
,
00001000
00000000
00000000
00001000
01000000
00000000
00000000
01000000
00100000
00000000
00000000
00100000
10000000
00000000
00000000
10000000
,
01000000
00000000
00000000
01000000
00100000
00000000
00000000
00100000
00010000
00000000
00100000
00000000
01000000
00000000
10000000
00000000
,
01000000
00000000
00100000
10000000
01000000
10000000
00100000
00000000
,
01100000
00000000
01000000
00010000
00100000
00001000
00100000
00000000
,
00110000
00000000
00000000
00100000
00000000
00000000
00100000
00000000
00000000
00000000
10010000
00000000
00000000
00000000
01100000
00000000
,
00000000
10000000
01000000
00000000
00010000
00000000
00001000
00000100
,
00000020
00000000
00000000
00000000
,
00000032
00000000
00000000
00000000
,
00000203
00000000
00002300
00000000
,
00023000
00000000
00230000
00000000
,
02300000
00000000
00000000
00000000
,
03020000
00000000
00000000
00000000
,
00032000
00003200
00000320
00000032
,
00000203
00000000
00000000
00000300
,
00000010
00000000
00000000
00000010
00000000
00000000
00000001
00000000
00000100
00000000
00000000
00000000
00001000
00000000
00000000
00000000
,
00100000
00000000
00000000
00100000
00000000
00000000
00010000
00000000
10000000
00000000
00000000
00000000
01000000
00000000
00000000
00000000
,
00200000
00300000
02000000
03000000
,
20000000
30020000
20030000
30000000
,
00100000
00000000
00000000
00100000
00000000
00000000
10000000
00000000
01000000
00000000
00000000
00000000
00010000
00000000
00000000
00000000
,
00000100
00000000
00000000
00000100
00000000
00000000
00001000
00000000
00000001
00000000
00000000
00000000
00000010
00000000
00000000
00000000
,
00002000
00003100
00000002
00000103
,
00002000
00013000
02000000
03100000
,
20010000
31000000
10020000
01030000
,
00120000
01030000
20100000
31000000
,
00201000
00310000
00012000
00003100
,
00002010
00003001
00000102
00000013
,
00000001
00000010
00000001
00000010
00000100
00001000
00000100
00001000
,
00100000
00010000
00100000
00010000
10000000
01000000
10000000
01000000
,
00200000
02300000
03200000
00300000
,
10000000
00000000
00000000
01000000
00000000
00000000
00100000
00000000
00020000
00000000
00000000
00000000
10030000
00000000
00000000
00000000
,
00100000
00000000
00000000
10000000
00000000
00000000
01000000
00000000
00100000
00000000
00100000
00000000
00100000
00000000
00000000
00000000
,
00001000
00000000
00000000
00010000
00000000
00000000
00000100
00000000
00001000
00000000
00001000
00000000
00001000
00000000
00000000
00000000
,
00000010
00000000
00000000
00000100
00000000
00000000
00000001
00000000
00001000
00000000
00000000
00001000
00000000
00000000
00000010
00000000
,
00000100
00000000
00000000
00000010
00000000
00000000
00001000
00000000
00000100
00000000
00000100
00000000
00000100
00000000
00000000
00000000
,
00010000
00000000
00000000
00001000
00000000
00000000
01000000
00000000
00010000
00000000
00010000
00000000
01000000
00000000
00000000
00000000
,
00100000
00000000
00000000
10000000
00000000
00000000
01000000
00000000
00100000
00000000
00100000
00000000
00010000
00000000
00000000
00000000
,
00001000
00000000
00000000
00010000
00000000
00000000
00000100
00000000
00000100
00000000
00000000
00001000
00000000
00000000
00000010
00000000
,
00000010
00000000
00000000
00000100
00000000
00000000
00000001
00000000
00002002
00000000
00000000
00000000
00003003
00000000
00000000
00000000
,
00000010
00000000
00000000
00001000
00000000
00000000
00000100
00000000
00010000
00000000
00010000
00000000
00010000
00000000
00000000
00000000
,
00001000
00000000
00000000
00100000
00000000
00000000
00010000
00000000
01000000
00000000
01000000
00000000
01000000
00000000
00000000
00000000
,
00100000
00000000
00000000
10000000
00000000
00000000
01000000
00000000
00100000
00000000
00000000
00001000
00000000
00000000
00010000
00000000
,
00000100
00000000
00000000
00000010
00000000
00000000
00000001
00000000
00000100
00000000
00000100
00000000
00000100
00000000
00000000
00000000
,
00000001
00000000
00000000
00000100
00000000
00000000
00001000
00000000
00010000
00000000
00010000
00000000
00010000
00000000
00000000
00000000
,
00001000
00000000
00000000
00100000
00000000
00000000
01000000
00000000
00100000
00000000
00100000
00000000
00100000
00000000
00000000
00000000
,
10000000
00000000
00000000
01000000
00000000
00000000
00010000
00000000
00001000
00000000
00000000
00000100
00000000
00000000
00000001
00000000
,
00000100
00000000
00000000
00000100
00000000
00000000
00000100
00000000
00000010
00000000
00000000
00000010
00000000
00000000
00000010
00000000
,
00001000
00000000
00000000
00000100
00000000
00000000
00000010
00000000
00000002
00000000
00000000
00000000
00000000
00000000
00000000
00000000
,
00000013
00000000
00000000
00000100
00000000
00000000
00001000
00000000
00000200
00000000
00000000
00000000
00000000
00000000
00000000
00000000
,
00001300
00000000
00000000
00000100
00000000
00000000
00000010
00000000
00000001
00000000
00000000
00000100
00000000
00000000
00001000
00000000
,
00010000
00000000
00000000
00010000
00000000
00000000
00001000
00000000
00100000
00000000
00100000
00000000
00100000
00000000
00010000
00000000
,
01000000
00000000
00000000
00100000
00000000
00000000
10000000
00000000
02000000
00000000
00100000
00000000
00100000
00000000
03100000
00000000
,
00010000
00000000
00000000
00100000
00000000
00000000
10000000
00000000
02000000
00000000
00100000
00000000
00100000
00000000
03100000
00000000
,
10000000
00000000
00000000
01000000
00000000
00000000
00010000
00000000
00001000
00000000
00000000
00000100
00000000
00000000
00000001
00000000
,
00000001
00000000
00000000
00000010
00000000
00000000
00001000
00000000
00010000
00000000
00000000
00100000
00000000
00000000
10000000
00000000
,
10000000
00000000
00000000
01000000
00000000
00000000
00100000
00000000
00001000
00000000
00000000
00010000
00000000
00000000
00001000
00000000
,
00022000
00000000
00000000
00000000
,
00000000
00000000
00000000
00000000
,
00033000
00000000
00000000
00000000
;

//---------------dance-single - ----------------
#NOTES:
     dance-single:
     :
     Medium:
     11:
     0.537312,0.647577,0.188059,0.425177,0.322971,460.000000,437.000000,23.000000,52.000000,0.000000,0.000000,0.537312,0.647577,0.188059,0.425177,0.322971,460.000000,437.000000,23.000000,52.000000,0.000000,0.000000:
// measure 0
0000
0000
0000
0000
,  // measure 1
0000
0000
0000
0000
,  // measure 2
0000
0000
0000
0000
,  // measure 3
0000
0000
0000
0000
,  // measure 4
0000
0000
0000
0000
,  // measure 5
0001
0010
0200
0300
,  // measure 6
1000
0100
0020
0030
,  // measure 7
0001
0010
0100
1000
,  // measure 8
2002
0000
0000
3003
,  // measure 9
1000
0100
0010
0000
0100
0010
0001
0000
,  // measure 10
1000
0010
0100
0000
0010
0100
0001
0000
,  // measure 11
0010
1000
0100
0000
0010
0001
0100
0000
,  // measure 12
2000
3002
0203
0310
,  // measure 13
1000
0000
1001
0000
1000
0001
1000
0000
,  // measure 14
1000
0100
0010
0100
1000
0100
0001
0000
,  // measure 15
1000
0000
0110
0000
0001
0100
0010
0000
,  // measure 16
0001
0100
1000
0100
0001
0000
1001
0000
,  // measure 17
0010
0000
1100
0000
0001
0010
0100
0000
,  // measure 18
1000
0100
0010
0001
0010
0100
2000
3000
,  // measure 19
0110
0000
1001
0000
0010
0001
0100
0000
,  // measure 20
0010
0000
0000
0010
0000
0000
1000
0000
0001
0000
0000
0000
0110
0000
0000
0000
,  // measure 21
1000
0000
0000
1000
0100
0000
0000
0100
0010
0000
0000
0010
0001
0000
0000
0001
,  // measure 22
0010
0000
0000
0010
0100
0000
0000
0100
0001
0000
0000
0001
0010
0000
0000
0010
,  // measure 23
0100
0000
0000
0100
1000
0000
0000
1000
0010
0000
0000
0010
0100
0000
0000
0100
,  // measure 24
0001
0000
0000
0001
1000
0000
0000
0000
1000
0000
0100
0000
0001
0000
0000
0000
,  // measure 25
0100
0000
0000
0100
0010
0000
0000
0010
0001
0000
0000
0001
0010
0000
0000
0010
,  // measure 26
1000
0000
0000
1000
0100
0000
0000
0100
0010
0000
0000
0010
0001
0000
0000
0001
,  // measure 27
0100
0000
0000
0000
0110
0000
0000
0000
0010
0000
0000
0010
0000
0000
1000
0000
,  // measure 28
0001
0000
0000
0001
0000
0000
0100
0000
0020
0000
0000
0000
0130
0000
0000
0000
,  // measure 29
1001
0000
0000
1000
0100
0000
0000
0100
0010
0000
0000
0010
0001
0000
0000
0001
,  // measure 30
0100
0000
0000
0100
0010
0000
0000
0010
0100
0000
0000
0100
0001
0000
0000
0001
,  // measure 31
1000
0000
0000
1000
0100
0000
0000
0100
0010
0000
0000
0010
0001
0000
0000
0001
,  // measure 32
0100
0000
0000
0100
0010
0000
0000
0010
1000
0000
0100
0000
0010
0000
0001
0000
,  // measure 33
0100
0010
0100
0010
1000
0100
1000
0100
,  // measure 34
0010
0001
0010
0001
0010
0100
0010
0100
,  // measure 35
1000
0000
0000
0010
0000
0000
0110
0000
0000
0000
1001
0000
0000
0000
0110
0000
,  // measure 36
0000
0000
1000
0000
0100
0000
0010
0000
0001
0000
0000
0001
0100
0000
0020
0000
,  // measure 37
0200
0000
0000
0000
0000
0000
0000
0030
,  // measure 38
0002
0000
0000
0000
0000
0000
0000
0300
,  // measure 39
0020
0000
0000
0003
0200
0000
0000
0030
,  // measure 40
2000
0000
0000
0300
0020
0000
3030
0000
,  // measure 41
0200
0000
0010
0000
,  // measure 42
0302
0000
1000
0000
,  // measure 43
2003
3200
0320
0032
,  // measure 44
0203
0000
0000
0300
,  // measure 45
0010
0000
0000
0010
0000
0000
0001
0000
0100
0000
0000
0000
1000
0000
0000
0000
,  // measure 46
0010
0000
0000
0010
0000
0000
1000
0000
0100
0000
0000
0000
0001
0000
0000
0000
,  // measure 47
0020
0030
0200
0300
,  // measure 48
2000
3002
2003
3000
,  // measure 49
0010
0000
0000
0010
0000
0000
1000
0000
0100
0000
0000
0000
0001
0000
0000
0000
,  // measure 50
0010
0000
0000
0010
0000
0000
0001
0000
0100
0000
0000
0000
1000
0000
0000
0000
,  // measure 51
0020
0130
2000
3100
,  // measure 52
0020
0031
0200
0310
,  // measure 53
2001
3100
1002
0103
,  // measure 54
0012
0103
2010
3100
,  // measure 55
0012
0103
2001
3100
,  // measure 56
0210
0301
1020
0130
,  // measure 57
0001
0010
0001
0010
0100
1000
0100
1000
,  // measure 58
0001
0010
0100
1000
0001
0010
0100
1000
,  // measure 59
0002
0203
0320
1030
,  // measure 60
1000
0000
0000
0100
0000
0000
0010
0000
0002
0000
0000
0000
1003
0000
0000
0000
,  // measure 61
0010
0000
0000
1000
0000
0000
0100
0000
0010
0000
0010
0000
0010
0000
0000
0000
,  // measure 62
0001
0000
0000
1000
0000
0000
0100
0000
0010
0000
0010
0000
0010
0000
0000
0000
,  // measure 63
0001
0000
0000
0010
0000
0000
0100
0000
0010
0000
0000
0100
0000
0000
1000
0000
,  // measure 64
0100
0000
0000
0010
0000
0000
0001
0000
0100
0000
0100
0000
0100
0000
0000
0000
,  // measure 65
1000
0000
0000
0001
0000
0000
0100
0000
0001
0000
0001
0000
0100
0000
0000
0000
,  // measure 66
0010
0000
0000
1000
0000
0000
0100
0000
0010
0000
0010
0000
0001
0000
0000
0000
,  // measure 67
1000
0000
0000
0001
0000
0000
0100
0000
0100
0000
0000
0001
0000
0000
1000
0000
,  // measure 68
1000
0000
0000
0010
0000
0000
0100
0000
0220
0000
0000
0000
0330
0000
0000
0000
,  // measure 69
1000
0000
0000
0100
0000
0000
0010
0000
0001
0000
0001
0000
0001
0000
0010
0000
,  // measure 70
0100
0000
0000
0010
0000
0000
0001
0000
1000
0000
1000
0000
1000
0000
0001
0000
,  // measure 71
0010
0000
0000
0010
0000
0000
0100
0000
0010
0000
0000
1000
0000
0000
1000
0000
,  // measure 72
0001
0000
0000
0001
0000
0000
0100
0000
0010
0000
0010
0000
0010
0000
0000
0000
,  // measure 73
1000
0000
0000
0100
0000
0000
0010
0000
0001
0000
0001
0000
0001
0000
1000
0000
,  // measure 74
0001
0000
0000
0010
0000
0000
0100
0000
0010
0000
0010
0000
0010
0000
0001
0000
,  // measure 75
1000
0000
0000
0100
0000
0000
0010
0000
0001
0000
0000
0010
0000
0000
0100
0000
,  // measure 76
1000
0000
0000
0100
0000
0000
0001
0000
1000
0000
0000
0010
0000
0000
0001
0000
,  // measure 77
1000
0000
0000
0100
0000
0000
0010
0000
0002
0000
0000
0000
0000
0000
0103
0000
,  // measure 78
0010
0000
0000
0100
0000
0000
1000
0000
0200
0000
0000
0000
0000
0000
0310
0000
,  // measure 79
1000
0000
0000
0100
0000
0000
0010
0000
0001
0000
0000
0100
0000
0000
1000
0000
,  // measure 80
0001
0000
0000
0010
0000
0000
1000
0000
0001
0000
0001
0000
0100
0000
0010
0000
,  // measure 81
0100
0000
0000
0010
0000
0000
1000
0000
0200
0000
0010
0000
0010
0000
0310
0000
,  // measure 82
0001
0000
0000
0010
0000
0000
1000
0000
0200
0000
0010
0000
0010
0000
0310
0000
,  // measure 83
1000
0000
0000
0100
0000
0000
0001
0000
1000
0000
0000
0010
0000
0000
0001
0000
,  // measure 84
1000
0000
0000
0100
0000
0000
0010
0000
0001
0000
0000
0010
0000
0000
0100
0000
,  // measure 85
1000
0000
0000
0100
0000
0000
0010
0000
0100
0000
0000
0010
0000
0000
0001
0000
,  // measure 86
2002
0000
0000
0000
,  // measure 87
0000
0000
0000
0000
,  // measure 88
3003
0000
0000
0000
;

//---------------dance-single - ----------------
#NOTES:
     dance-single:
     :
     Beginner:
     5:
     0.177546,0.246112,0.057235,0.016353,0.000000,152.000000,145.000000,7.000000,2.000000,0.000000,0.000000,0.177546,0.246112,0.057235,0.016353,0.000000,152.000000,145.000000,7.000000,2.000000,0.000000,0.000000:
// measure 0
0000
0000
0000
0000
,  // measure 1
0000
0000
0000
0000
,  // measure 2
0000
0000
0000
0000
,  // measure 3
0000
0000
0000
0000
,  // measure 4
0000
0000
0000
0000
,  // measure 5
0100
0000
0000
0000
,  // measure 6
0010
0000
0000
0000
,  // measure 7
1000
0000
0100
0000
,  // measure 8
0010
0000
0000
0000
,  // measure 9
0010
0000
0000
0000
,  // measure 10
0100
0000
0000
0000
,  // measure 11
1000
0000
0100
0000
,  // measure 12
0010
0000
0001
0000
,  // measure 13
0100
0000
0000
0000
,  // measure 14
0001
0000
0000
0000
,  // measure 15
0010
0000
0000
0000
,  // measure 16
1000
0000
0000
0000
,  // measure 17
0010
0000
1000
0000
,  // measure 18
0100
0000
0001
0000
,  // measure 19
0010
0000
0010
0000
,  // measure 20
0010
0010
0010
0000
,  // measure 21
0100
0000
0010
0000
,  // measure 22
0001
0000
0100
0000
,  // measure 23
1000
0000
0100
0000
,  // measure 24
0001
0000
0100
0000
,  // measure 25
1000
0000
0010
0000
,  // measure 26
0100
0000
0001
0000
,  // measure 27
1000
0000
0001
0000
,  // measure 28
0100
0100
0100
0000
,  // measure 29
0010
0000
0001
0000
,  // measure 30
0100
0000
0100
0000
,  // measure 31
0010
0000
0100
0000
,  // measure 32
0100
0000
1000
0000
,  // measure 33
0001
0000
0100
0000
,  // measure 34
1000
0000
0100
0000
,  // measure 35
1001
0000
0000
0000
,  // measure 36
0110
0000
0000
0000
,  // measure 37
1001
0000
0000
0000
,  // measure 38
0000
0000
0000
0000
,  // measure 39
0001
0000
0001
0000
,  // measure 40
0001
0000
0000
0000
,  // measure 41
1000
0000
0000
0000
,  // measure 42
0001
0000
0000
0000
,  // measure 43
0100
0000
0100
0000
,  // measure 44
0100
0000
0000
0000
,  // measure 45
0001
0000
0100
0000
,  // measure 46
1000
0000
0100
0000
,  // measure 47
0001
0000
0000
0000
,  // measure 48
0000
0000
0000
0000
,  // measure 49
1000
0000
0010
0000
,  // measure 50
0001
0000
0010
0000
,  // measure 51
1000
0000
0000
0000
,  // measure 52
0010
0010
0010
0000
,  // measure 53
0001
0000
0010
0000
,  // measure 54
0100
0000
1000
0000
,  // measure 55
1000
0000
0100
0000
,  // measure 56
0010
0000
0001
0000
,  // measure 57
1000
1000
1000
0000
,  // measure 58
0001
0001
0001
0000
,  // measure 59
0010
0000
0000
0000
,  // measure 60
1001
0000
0000
0000
,  // measure 61
1000
0000
1000
0000
,  // measure 62
0100
0000
0100
0000
,  // measure 63
0001
0000
0001
0000
,  // measure 64
0100
0000
0100
0000
,  // measure 65
0010
0000
0010
0000
,  // measure 66
1000
0000
1000
0000
,  // measure 67
0010
0000
1000
0000
,  // measure 68
0100
0000
0001
0000
,  // measure 69
0010
0000
2000
3000
,  // measure 70
1000
0000
0002
0003
,  // measure 71
0001
0000
0010
0000
,  // measure 72
0100
0000
1000
0000
,  // measure 73
1000
1000
1000
0000
,  // measure 74
0001
0001
0001
0000
,  // measure 75
1000
0000
0100
0000
,  // measure 76
0010
0000
0001
0000
,  // measure 77
1001
0000
0000
0000
,  // measure 78
0110
0000
0000
0000
,  // measure 79
1000
0000
1000
0000
,  // measure 80
0010
0000
0001
0000
,  // measure 81
1000
0000
1000
0000
,  // measure 82
0100
0000
0001
0000
,  // measure 83
0010
0010
0010
0000
,  // measure 84
1000
0000
0001
0000
,  // measure 85
0100
0000
0010
0000
,  // measure 86
1001
0000
0000
0000
;

//---------------dance-double - ----------------
#NOTES:
     dance-double:
     :
     Easy:
     6:
     0.281505,0.323789,0.073588,0.302530,0.000000,241.000000,232.000000,9.000000,37.000000,0.000000,0.000000,0.281505,0.323789,0.073588,0.302530,0.000000,241.000000,232.000000,9.000000,37.000000,0.000000,0.000000:
00000000
00000000
00000000
00000000
,
00000000
00000000
00000000
00000000
,
00000000
00000000
00000000
00000000
,
00000000
00000000
00000000
00000000
,
00000000
00000000
00000000
00000000
,
20000000
00000000
30000000
00000000
,
00020000
00000000
00030000
00000000
,
01000000
00000000
00100000
00000000
,
00020000
00000000
00030000
00000000
,
10000000
01000000
00010000
00000000
,
00001000
00000100
00000001
00000000
,
00000001
00000010
00000100
00001000
,
00000220
00000000
00000330
00000000
,
00000001
00000001
00000100
00000100
,
00001000
00001000
00000100
00000100
,
00000001
00000100
00001000
00000100
,
00000001
00000100
00001000
00001000
,
00010000
00010000
00001000
00001000
,
00010000
00010000
00001000
00001000
,
00100000
00010000
01000000
10000000
,
02000000
03000000
00200000
00300000
,
10000000
01000000
01000000
00100000
,
00100000
00010000
00001000
00010000
,
00000100
00000100
00001000
00001000
,
00000010
00000001
00000010
00000100
,
00001000
00000010
00000010
00001000
,
00001000
00010000
00010000
00001000
,
00001000
00010000
00001000
00010000
,
00001000
00000000
01000000
00000000
,
00100000
10000000
10000000
01000000
,
01000000
00010000
00010000
00100000
,
00100000
00001000
00001000
00010000
,
00010000
00000100
00000100
00001000
,
00000010
00000100
00000010
00000100
,
00000001
00001000
00000001
00001000
,
00000001
00000000
00000010
00000000
,
00000100
00000000
00001000
00000000
,
00002002
00000000
00000000
00000000
,
00000000
00000000
00000000
00000000
,
00000000
00000000
00000000
00000000
,
00000000
00000000
00000000
00003003
,
00000001
00000100
00001000
00000000
,
00010000
01000000
10000000
00000000
,
10000000
01000000
00100000
00010000
,
01000000
00000000
00000000
00000000
,
10000000
01000000
10010000
00000000
,
00010000
00100000
10010000
00000000
,
00000000
00000000
00000000
00000000
,
00000000
00000000
00000000
00000000
,
00000010
00000100
00001001
00000000
,
00000100
00000010
00001001
00000000
,
00000000
00000000
00000000
00000000
,
00010000
00001000
00010000
00001000
,
02000000
03000000
00020000
00030000
,
00002000
00003000
00000200
00000300
,
00000020
00000030
00002000
00003000
,
00020000
00030000
00200000
00300000
,
10000000
10000000
01000000
00010000
,
00001000
00001000
00000100
00000001
,
00000010
00000000
00000000
00000000
,
00200000
00000000
02000000
03300000
,
10000000
01000000
10000000
01000000
,
00010000
01000000
00010000
01000000
,
10000000
01000000
00010000
00010000
,
00001000
00000100
00000001
00000001
,
00000100
00001000
00000100
00000100
,
00000001
00000100
00000001
00000001
,
00000010
00000010
00001000
00001000
,
00010000
00100000
10000000
00000000
,
01000000
01000000
20020000
30030000
,
00100000
00100000
20020000
30030000
,
10000000
01000000
00010000
01000000
,
10000000
01000000
00020000
00030000
,
00001000
00000100
00000002
00000003
,
00000001
00000100
00002000
00003000
,
00000100
00000100
00000010
00000010
,
00000001
00000100
00002000
00003000
,
00020000
00000000
00031000
00000000
,
00002000
00000000
00013000
00000000
,
00010000
00000000
01000000
00000000
,
10000000
01000000
00010000
00000000
,
00001000
00000100
00000010
00000010
,
00000001
00000010
00000100
00000100
,
00002000
00003000
00020000
00030000
,
02000000
03000000
20000000
30000000
,
00200000
00300000
00002000
00003000
,
00022000
00000000
00000000
00000000
,
00000000
00000000
00000000
00000000
,
00033000
00000000
00000000
00000000
;

//---------------dance-single - ----------------
#NOTES:
     dance-single:
     :
     Easy:
     6:
     0.328227,0.431718,0.220765,0.294353,0.000000,281.000000,254.000000,27.000000,36.000000,0.000000,0.000000,0.328227,0.431718,0.220765,0.294353,0.000000,281.000000,254.000000,27.000000,36.000000,0.000000,0.000000:
// measure 0
0000
0000
0000
0000
,  // measure 1
0000
0000
0000
0000
,  // measure 2
0000
0000
0000
0000
,  // measure 3
0000
0000
0000
0000
,  // measure 4
0000
0000
0000
0000
,  // measure 5
0010
0000
0010
0000
,  // measure 6
0100
0000
0100
0000
,  // measure 7
1000
0000
0001
0000
,  // measure 8
2000
0000
3000
0000
,  // measure 9
0010
0000
0001
0000
,  // measure 10
0100
0000
1000
0000
,  // measure 11
0010
0010
0010
0010
,  // measure 12
2002
0000
0000
3003
,  // measure 13
0010
0001
0100
0001
,  // measure 14
0010
1000
0100
1000
,  // measure 15
0010
0010
0100
0100
,  // measure 16
0010
0001
0100
1000
,  // measure 17
0010
0010
1000
0100
,  // measure 18
0010
0010
0001
0100
,  // measure 19
0001
0001
1000
1000
,  // measure 20
0020
0000
0200
0330
,  // measure 21
0001
0100
0100
1000
,  // measure 22
1000
0010
0010
0001
,  // measure 23
0001
0100
0100
1000
,  // measure 24
0100
0010
0001
0110
,  // measure 25
0001
0010
0010
1000
,  // measure 26
1000
0100
0100
0001
,  // measure 27
0001
0010
0100
0010
,  // measure 28
2000
3100
0002
0103
,  // measure 29
0010
1001
0100
1001
,  // measure 30
0010
0010
0100
0100
,  // measure 31
1000
0110
0001
0110
,  // measure 32
1000
1000
0001
0001
,  // measure 33
1000
0010
0001
0010
,  // measure 34
1000
0100
0001
0100
,  // measure 35
2000
3000
0002
0003
,  // measure 36
0100
0100
0010
0010
,  // measure 37
2002
0000
0000
0000
,  // measure 38
0000
0000
3003
0000
,  // measure 39
0010
0000
0001
0000
,  // measure 40
0100
0000
1000
0000
,  // measure 41
0010
0100
1001
0000
,  // measure 42
0100
0010
1001
0000
,  // measure 43
0010
0010
0100
0100
,  // measure 44
2002
0000
0000
3003
,  // measure 45
0001
0100
2002
3003
,  // measure 46
1000
0100
2002
3003
,  // measure 47
0000
0000
0000
0000
,  // measure 48
0000
0000
0000
0000
,  // measure 49
0010
0010
2002
3003
,  // measure 50
0100
0100
2002
3003
,  // measure 51
0000
0000
0000
0000
,  // measure 52
0010
0001
0100
1000
,  // measure 53
0020
0030
2000
3000
,  // measure 54
0200
0300
0002
0003
,  // measure 55
0200
0300
2000
3000
,  // measure 56
0020
0030
0002
0003
,  // measure 57
0100
1000
0010
0001
,  // measure 58
0010
1000
0100
0001
,  // measure 59
0010
0000
0000
0000
,  // measure 60
1100
0101
2002
3003
,  // measure 61
0010
0010
0100
1001
,  // measure 62
0100
0100
0010
1001
,  // measure 63
1000
0100
0001
0100
,  // measure 64
1000
1000
0010
1001
,  // measure 65
0001
0011
0100
1000
,  // measure 66
1000
1100
0010
0001
,  // measure 67
0100
0100
0010
0010
,  // measure 68
1000
0001
0020
0030
,  // measure 69
0001
0100
1000
0100
,  // measure 70
1000
0100
0001
0100
,  // measure 71
0010
0010
0100
0100
,  // measure 72
1000
0001
1000
0001
,  // measure 73
0010
0010
0100
0100
,  // measure 74
0001
1000
0001
1000
,  // measure 75
0100
0100
0010
0010
,  // measure 76
1000
0001
0100
0100
,  // measure 77
0020
0030
0100
0000
,  // measure 78
0200
0300
0010
0000
,  // measure 79
0001
0011
0100
0100
,  // measure 80
1000
1100
0010
0010
,  // measure 81
0001
0100
1001
0000
,  // measure 82
1000
0100
1001
0000
,  // measure 83
0010
0010
0100
0100
,  // measure 84
1000
0001
1000
0001
,  // measure 85
0010
0100
1000
0001
,  // measure 86
2002
0000
0000
0000
,  // measure 87
0000
0000
0000
0000
,  // measure 88
3003
0000
0000
0000
;
