#VERSION:0.83;
#TITLE:Indestructible;
#SUBTITLE:;
#ARTIST:Matduke;
#TITLETRANSLIT:;
#SUBTITLETRANSLIT:;
#ARTISTTRANSLIT:;
#GENRE:;
#ORIGIN:;
#CREDIT:;
#BANNER:Indestructible.png;
#BACKGROUND:Indestructible-bg.png;
#PREVIEWVID:;
#JACKET:Indestructible-jacket.png;
#CDIMAGE:;
#DISCIMAGE:;
#LYRICSPATH:;
#CDTITLE:;
#MUSIC:Indestructible.ogg;
#OFFSET:1.300000;
#SAMPLESTART:71.803444;
#SAMPLELENGTH:12.413795;
#SELECTABLE:YES;
#DISPLAYBPM:174.000000;
#BPMS:0.000=174.000,
116.000=87.000,
132.000=174.000;
#STOPS:;
#DELAYS:;
#WARPS:;
#TIMESIGNATURES:0.000=4=4;
#TICKCOUNTS:0.000=4;
#COMBOS:0.000=1;
#SPEEDS:0.000=1.000=0.000=0;
#SCROLLS:0.000=1.000;
#FAKES:;
#LABELS:0.000=Song Start;
#BGCHANGES:3.500=Indestructible.avi=1.000=0=0=0=StretchNoLoop====,
99999=-nosongbg-=1.000=0=0=0 // don't automatically add -songbackground-
;
#KEYSOUNDS:;
#ATTACKS:
;

//---------------dance-single - ----------------
#NOTEDATA:;
#CHARTNAME:;
#STEPSTYPE:dance-single;
#DESCRIPTION:;
#CHARTSTYLE:;
#DIFFICULTY:Hard;
#METER:13;
#RADARVALUES:0.678619,0.890688,0.063947,0.137029,0.461330,520.000000,513.000000,7.000000,15.000000,0.000000,0.000000,0.000000,0.000000,0.000000,0.678619,0.890688,0.063947,0.137029,0.461330,520.000000,513.000000,7.000000,15.000000,0.000000,0.000000,0.000000,0.000000,0.000000;
#CREDIT:;
#DISPLAYBPM:174.000000;
#NOTES:
0000
0000
0000
0000
,
0000
0000
0000
0000
,
0000
0000
0000
0000
,
0000
0000
0000
0000
,
0000
0000
0000
0000
,
0001
0100
0010
0100
0010
1000
0100
0010
,
0001
0100
0010
1000
0001
0010
0100
0010
,
0001
0100
0001
1000
0010
0100
0010
0100
,
0001
0010
0000
0010
0100
0000
1000
0000
0100
0000
0000
0000
1100
0000
0000
0000
,
1000
0010
0100
0010
0100
0001
0010
0100
,
0010
0100
0010
0001
1000
0100
0010
0001
,
0100
0010
1000
0001
0100
0010
1000
0100
,
1000
0100
1000
0100
1000
0000
0010
0000
0200
0000
0000
0000
0301
0000
0000
0000
,
0010
0100
0010
0001
1000
0100
1000
0100
,
0010
0001
0010
0100
1000
0100
0010
0001
,
1000
0100
0001
0100
0010
0100
1000
0100
,
0010
0100
0010
0001
0100
0010
0200
0000
,
0310
0100
1000
0100
0010
0100
0001
0100
,
0001
1000
0100
0010
0001
0010
0100
1000
,
0100
0010
0100
0010
0001
1000
0001
1000
,
0001
0010
0100
0010
0001
0000
2002
3003
,
0001
0000
0001
0000
0010
0000
0010
0000
0100
0000
0100
0000
1000
0000
1000
0010
,
0100
0000
0100
0000
0010
0000
0010
0000
1000
0000
1000
0000
0001
0000
0001
0100
,
0010
0100
0010
0100
0001
0000
0000
0000
1000
0010
1000
0010
0100
0000
0000
0000
,
0001
1000
0001
1000
0001
1000
0001
1000
0010
0000
0000
0000
1001
0000
0000
0000
,
1000
0100
0010
0001
0100
0100
0010
0010
,
0001
0000
0010
0000
0100
0000
1000
0000
0010
0100
0010
0100
0010
0000
0010
0000
,
1000
1000
0100
0100
0010
0010
0001
0001
,
1000
0001
1000
0001
1000
0001
1000
0002
2000
0000
0000
0000
3003
0000
0000
0000
,
2002
0000
0000
0000
,
0000
0000
0000
0000
,
3003
0000
0000
0000
,
0000
0000
0000
0000
,
0001
0000
0000
0001
0000
0000
0001
0000
0100
0000
0000
0100
0000
0000
0100
0000
,
1000
0000
0000
1000
0000
0000
1000
0000
0010
0000
0000
0010
0000
0000
0010
0000
,
0001
0000
0000
0001
0000
0000
0001
0000
1000
0000
0000
1000
0000
0000
1000
0000
,
0010
0000
0000
0010
0000
0000
0010
0000
0100
0000
0000
0100
0000
0000
0100
0000
,
0001
0000
0000
0001
0000
0000
0001
0000
0100
0000
0000
0100
0000
0000
0100
0000
,
1000
0000
0000
1000
0000
0000
1000
0000
0010
0000
0000
0010
0000
0000
0010
0000
,
0001
0000
0000
0001
0000
0000
0100
0000
1000
0000
0000
1000
0000
0000
0010
0000
,
0001
0000
0000
0001
0000
0000
0010
0000
1000
0000
0000
1000
0000
0000
0100
0000
,
0001
0000
0001
0000
0010
0000
0010
0000
0100
0000
0100
0000
1000
0000
1000
0100
,
1000
1000
0100
0100
0010
0010
0001
0001
,
0100
0010
0100
0010
1000
0000
0000
0000
0010
0100
0010
0100
0001
0000
0000
0000
,
1000
0001
1000
0001
1000
0001
1000
0001
1000
0000
0000
0000
0110
0000
0000
0000
,
0001
0000
0001
0000
0010
0000
0010
0000
0100
0000
0100
0000
1000
0001
1000
0000
,
0010
0000
0010
0000
1000
0000
1000
0000
0100
0000
0100
0000
0001
1000
0001
0000
,
1000
0001
1000
0001
1000
0001
1000
0001
1000
0001
1000
0001
1000
0001
1000
0001
,
2000
0000
0000
3000
,
0001
0000
0001
0100
0000
0000
1000
0000
0001
0000
0001
0100
0000
0000
0010
0000
,
1000
0000
1000
0100
0000
0000
0001
0000
1000
0000
1000
0100
0000
0000
0010
0000
,
0001
0000
0001
0010
0000
0000
0100
0000
1000
0000
1000
0100
0000
0000
0010
0000
,
0001
0000
0001
0010
0000
0000
0100
0000
1000
0000
0000
1000
0000
0000
0001
0000
,
0100
0000
0100
0001
0000
0000
1000
0000
0001
0000
0001
0100
0000
0000
0001
0000
,
1000
0000
1000
0100
0000
0000
1000
0000
0001
0000
0001
0010
0000
0000
0100
0000
,
1000
0000
1000
0010
0000
0000
1000
0000
0001
0000
0001
0010
0000
0000
0001
0000
,
1000
0000
1000
0100
0000
0000
1000
0000
0010
0000
0100
0000
0001
1000
0001
0000
,
1000
0000
1000
0100
0000
0000
1000
0000
0001
0000
0001
0010
0000
0000
0100
0000
,
1000
0000
1000
0010
0000
0000
1000
0000
0100
0000
0100
0010
0000
0000
0001
0000
,
0100
0000
0100
0010
0000
0000
0100
0000
0001
0000
0001
0100
0000
0000
0001
0000
,
1000
0000
1000
0010
0000
0000
1000
0000
0001
0000
0000
0010
0000
0000
0100
0000
,
1000
0000
1000
0100
0000
0000
0001
0000
1000
0000
1000
0100
0000
0000
0010
0000
,
0001
0000
0001
0010
0000
0000
1000
0000
0001
0000
0001
0010
0000
0000
0100
0000
,
1000
0000
1000
0001
0000
0000
0100
0000
0001
0000
0001
1000
0000
0000
0100
0000
,
0001
1000
0010
0100
0001
1000
0010
0100
,
0002
0000
0000
0000
0100
0000
0000
0000
0010
0000
0000
0000
1003
0000
0010
1000
,
0020
0000
0100
0000
1000
0000
0130
0001
,
1000
0001
1000
0001
0100
0000
0000
0000
0001
1000
0001
1000
0010
0000
0000
0000
,
1000
0100
1000
0100
1000
0100
1000
0100
0010
0000
0000
0000
1001
0000
0000
0000
,
0001
0000
0010
0000
0100
0000
0010
0000
0001
0000
1000
0000
0001
0000
1000
0001
,
1000
0000
0010
0000
0100
0000
0001
0000
1000
0001
1000
0001
1000
0000
0010
0000
,
0100
0100
0010
0010
1000
1000
0001
0001
,
1000
0001
1000
0001
1000
0001
1000
0002
2000
0000
0000
0000
3003
0000
0000
0000
,
2002
0000
0000
0000
,
0000
0000
0000
0000
,
3003
0000
0000
0000
;

//---------------dance-double - ----------------
#NOTEDATA:;
#CHARTNAME:;
#STEPSTYPE:dance-double;
#DESCRIPTION:;
#CHARTSTYLE:;
#DIFFICULTY:Hard;
#METER:13;
#RADARVALUES:0.655128,0.787916,0.173570,0.100488,0.315166,502.000000,483.000000,19.000000,11.000000,0.000000,0.000000,0.000000,0.000000,0.000000,0.655128,0.787916,0.173570,0.100488,0.315166,502.000000,483.000000,19.000000,11.000000,0.000000,0.000000,0.000000,0.000000,0.000000;
#CREDIT:;
#DISPLAYBPM:174.000000;
#NOTES:
00000000
00000000
00000000
00000000
,
00000000
00000000
00000000
00000000
,
00000000
00000000
00000000
00000000
,
00000000
00000000
00000000
00000000
,
00000000
00000000
00000000
00000000
,
00010000
00100000
01000000
10000000
01000000
00100000
00010000
10000000
,
01000000
00100000
00010000
00100000
01000000
10000000
01000000
00100000
,
00001000
00010000
00000100
00010000
00001000
00010000
00000010
00010000
,
00000100
00001000
00000000
00001000
00000010
00000000
00000100
00000000
00000001
00000000
00000000
00000000
00001001
00000000
00000000
00000000
,
00000001
00000010
00000100
00000010
00000001
00000100
00001000
00000100
,
00000010
00000100
00001000
00010000
00001000
00010000
01000000
10000000
,
01000000
00100000
00010000
00100000
01000000
10000000
00100000
01000000
,
00010000
10000000
00100000
10010000
,
10000000
01000000
10000000
01000000
00100000
00010000
00100000
01000000
,
10000000
01000000
00100000
01000000
00010000
00001000
00010000
01000000
,
00100000
00010000
00100000
01000000
00100000
00001000
00100000
01000000
,
00100000
00010000
01000000
00100000
10000000
00000000
00110000
00000000
,
00001000
00010000
00000100
00010000
00001000
00000100
00001000
00010000
,
00000010
00001000
00000100
00001000
00000010
00000001
00000010
00001000
,
00000100
00000010
00000001
00000010
00000100
00001000
00000100
00000010
,
00000001
00000010
00000100
00001000
00000100
00000000
00011000
00000000
,
00110000
00000000
00000000
00000000
01100000
00000000
00000000
00000000
11000000
00000000
00000000
00000000
00100000
00000000
10000000
00010000
,
10000000
11000000
01100000
00110000
,
10000000
01000000
00020000
00000000
00031000
00000100
00000002
00000000
,
00000013
00000001
00000100
00001000
00010000
00000000
00011000
00000000
,
00100000
00010000
01000000
00010000
00100000
10000000
00100000
00010000
,
01000000
00000000
00100000
00000000
10000000
00000000
00010000
00000000
10000000
00010000
10000000
00010000
10000000
00000000
00100000
00000000
,
10000000
01000000
00010000
00001000
00100000
00001000
00010000
00000100
,
00001000
00000100
00001000
00000100
00001000
00000100
00001000
00000100
00002000
00000000
00000000
00000000
00003000
00000000
00000000
00000000
,
00022000
00000000
00000000
00000000
,
00000000
00000000
00000000
00000000
,
00033000
00000000
00000000
00000000
,
00000000
00000000
00000000
00000000
,
00100000
00000000
00000000
00100000
00000000
00000000
00100000
00000000
10000000
00000000
00000000
10000000
00000000
00000000
10000000
00000000
,
01000000
00000000
00000000
01000000
00000000
00000000
01000000
00000000
00010000
00000000
00000000
00010000
00000000
00000000
00010000
00000000
,
00001000
00000000
00000000
00001000
00000000
00000000
00001000
00000000
00000010
00000000
00000000
00000010
00000000
00000000
00000010
00000000
,
00000001
00000000
00000000
00000001
00000000
00000000
00000001
00000000
00000100
00000000
00000000
00000100
00000000
00000000
00000100
00000000
,
00010000
00000000
00000000
00010000
00000000
00000000
01000000
00000000
10000000
00000000
00000000
10000000
00000000
00000000
01000000
00000000
,
00010000
00000000
00000000
00010000
00000000
00000000
00001000
00000000
00000100
00000000
00000000
00000100
00000000
00000000
00000001
00000000
,
00000010
00000000
00000000
00000010
00000000
00000000
00001000
00000000
00010000
00000000
00000000
00010000
00000000
00000000
00100000
00000000
,
10000000
00000000
00000000
10000000
00000000
00000000
01000000
00000000
00100000
00000000
00000000
00000000
10010000
00000000
00000000
00000000
,
10000000
00000000
10000000
00000000
01000000
00000000
01000000
00000000
00100000
00000000
00100000
00000000
00010000
00000000
00100000
00001000
,
00010000
00010000
00000100
00000100
00001000
00001000
00000010
00002000
,
00003001
00000010
00000001
00000010
00000001
00000000
00000000
00000000
00001000
00000100
00001000
00000100
00001000
00000000
00000000
00000000
,
00000010
00000100
00000010
00000100
00000010
00000100
00000010
00000100
00000010
00000000
00000000
00000000
00001001
00000000
00000000
00000000
,
00000001
00000100
00001000
00010000
00100000
01000000
10000000
01000000
,
10000000
01000000
00010000
00001000
00000100
00000010
00000001
00000100
,
00000001
00000010
00000001
00000000
00000100
00000010
00000100
00000000
00000001
00000010
00000001
00000000
00001000
00000100
00001000
00000000
,
00020000
00000000
00000000
00030000
,
00001000
00010000
00100000
00000000
00010000
01000000
10000000
00000000
,
10000000
00100000
00010000
00001000
00000100
00000010
00000001
00000000
,
00000001
00000100
00000010
00000000
00001000
00000100
00000010
00000000
,
00000001
00000100
00001000
00010000
00100000
01000000
10000000
00000000
,
00100000
10000000
01000000
10000000
00100000
10000000
01000000
00010000
,
00001000
00000100
00000010
00000100
00001000
00000001
00000100
00000010
,
00001000
00000100
00000010
00000100
00001000
00000001
00000010
00000100
,
00001000
00001100
00011000
00110000
,
00010000
00000000
00010000
00100000
00000000
00000000
10000000
00000000
01000000
00000000
01000000
00100000
00000000
00000000
00001000
00000000
,
00010000
00000000
00010000
00000100
00000000
00000000
00000010
00000000
00000001
00000000
00000001
00000100
00000000
00000000
00001000
00000000
,
00010000
00000000
00010000
00000100
00000000
00000000
00001000
00000000
00000001
00000000
00000001
00000100
00000000
00000000
00000010
00000000
,
00001000
00000000
00001000
00000100
00000000
00000000
00010000
00000000
00001000
00000000
00001000
01000000
00000000
00000000
00010000
00000000
,
00100000
00000000
00100000
10000000
00000000
10000000
00100000
00000000
01000000
00000000
01000000
00010000
00000000
00000000
10000000
00000000
,
01000000
00000000
01000000
00100000
00000000
00100000
01000000
00000000
10000000
00000000
10000000
01000000
00000000
00000000
00100000
00000000
,
00001000
00000000
00001000
00010000
00000000
00000000
00000100
00000000
00001000
00000000
00001000
00000001
00000000
00000000
00000010
00000000
,
00000001
00000000
00000001
00000100
00000000
00000000
00000010
00000000
00001000
00000000
00000100
00000000
00000010
00000000
00000001
00000000
,
00000100
00000000
00000100
00000000
00000001
00000000
00000001
00000000
00000010
00000000
00000010
00000000
00001000
00000000
00001000
00000100
,
00010000
00010000
00001000
00001000
00100000
00100000
00010000
02000000
,
03100000
01000000
00100000
01000000
00100000
00000000
00000000
00000000
10000000
01000000
10000000
01000000
00100000
00000000
00000000
00000000
,
00010000
00100000
00010000
00100000
01000000
10000000
01000000
10000000
01000000
00000000
00000000
00000000
10010000
00000000
00000000
00000000
,
10000000
01000000
00100000
00010000
00001000
00000100
00000001
00000010
,
00000001
00000000
00000100
00000000
00001000
00000000
00010000
00000000
00001000
00010000
00001000
00010000
00001000
00000000
00010000
00000000
,
00001000
00100000
01000000
10000000
01000000
00100000
00001000
00010000
,
00001000
00010000
00001000
00010000
00001000
00010000
00001000
00010000
00002000
00000000
00000000
00000000
00003000
00000000
00000000
00000000
,
00022000
00000000
00000000
00000000
,
00000000
00000000
00000000
00000000
,
00033000
00000000
00000000
00000000
;

//---------------dance-double - ----------------
#NOTEDATA:;
#CHARTNAME:;
#STEPSTYPE:dance-double;
#DESCRIPTION:;
#CHARTSTYLE:;
#DIFFICULTY:Medium;
#METER:10;
#RADARVALUES:0.502439,0.582373,0.493304,0.182705,0.000000,385.000000,331.000000,54.000000,20.000000,0.000000,0.000000,0.000000,0.000000,0.000000,0.502439,0.582373,0.493304,0.182705,0.000000,385.000000,331.000000,54.000000,20.000000,0.000000,0.000000,0.000000,0.000000,0.000000;
#CREDIT:;
#DISPLAYBPM:174.000000;
#NOTES:
00000000
00000000
00000000
00000000
,
00000000
00000000
00000000
00000000
,
00000000
00000000
00000000
00000000
,
00000000
00000000
00000000
00000000
,
00000000
00000000
00000000
00000000
,
00010000
00100000
01000000
00000000
10000000
01000000
00100000
00000000
,
00010000
00100000
01000000
00000000
10000000
01000000
00100000
00000000
,
00010000
00000100
00010000
00000000
00001000
00100000
00001000
00000000
,
00010000
00000100
00001000
00000100
00010000
00000000
00011000
00000000
,
00001000
00000100
00001000
00000000
00000010
00000100
00000001
00000000
,
00001000
00000100
00001000
00000000
00000100
00010000
00001000
00000000
,
00100000
00010000
00100000
00000000
00010000
01000000
00100000
00000000
,
10000000
00010000
01000000
10010000
,
00100000
10000000
01000000
00000000
00100000
00000000
00011000
00000000
,
00001000
00010000
00000100
00000000
00001000
00000000
00000110
00000000
,
00000001
00000100
00001000
00000000
00000100
00000000
00001010
00000000
,
00000001
00000100
00001000
00000000
00010000
00000000
00011000
00000000
,
00001000
00100000
00010000
00000000
01000000
00100000
10000000
00000000
,
10000000
01000000
00100000
00000000
00110000
00000000
11000000
00000000
,
10000000
01000000
00100000
00000000
00001000
00010000
00000100
00000000
,
00001000
00000010
00000001
00000000
00000110
00000000
00001001
00000000
,
00000001
00000100
00001000
00000000
00010000
00000000
01100000
00000000
,
10000000
01000000
00010000
00000000
00001000
00000000
00000110
00000000
,
00000001
00000010
00001000
00000000
00010000
00100000
10000000
00000000
,
10000000
01000000
00100000
00000000
00010000
00000000
01010000
00000000
,
10000000
01000000
00100000
00000000
00110000
00000000
00011000
00000000
,
00001000
00000100
00000010
00000000
00000010
00000010
00000010
00000000
,
00000001
00000100
00001000
00000000
00010000
00000000
00001100
00000000
,
00010000
00001000
00100000
00000000
01100000
00000000
00010000
00000000
,
00022000
00000000
00000000
00000000
,
00000000
00000000
00000000
00000000
,
00033000
00000000
00000000
00000000
,
00000000
00000000
00000000
00000000
,
00200000
00000000
20300000
00000000
,
32000000
00000000
03020000
00000000
,
00032000
00000000
00003020
00000000
,
00000032
00000000
00000203
00000000
,
00020300
01030000
20000000
31000000
,
00020000
00031000
00000200
00000301
,
00000020
00001030
00020000
00130000
,
20000000
31000000
00100000
10010000
,
10000000
01000000
00010000
00000000
00011000
00000000
00001100
00000000
,
00000001
00000100
00001000
00000000
00001100
00000000
00011000
00000000
,
00100000
00010000
01000000
00000000
00100000
10000000
01000000
00000000
,
00100000
00001000
00010000
00001000
00010000
00000000
00011000
00000000
,
00000100
00001000
00000010
00000000
00000100
00000001
00000010
00000000
,
00001000
00000100
00010000
00000000
00001000
00100000
00010000
00000000
,
01000000
01000000
01000000
01000000
01000000
01000000
01000000
01000000
,
00020000
00000000
00000000
00030000
,
00110000
00000000
01100000
00000000
00100000
10000000
01000000
00000000
,
00100000
00000000
00011000
00000000
00000100
00001000
00000010
00000000
,
00001001
00000000
00001100
00000000
00000100
00010000
00001000
00000000
,
00010000
00000000
00110000
00000000
00100000
00010000
01000000
00000000
,
00100000
10000000
01000000
00000000
00110000
00000000
00011000
00000000
,
00000100
00001000
00000010
00000000
00000101
00000000
00001100
00000000
,
00000001
00000100
00000010
00000000
00001010
00000000
00011000
00000000
,
00010000
00001000
00100000
00000000
00110000
00000000
01100000
00000000
,
10000000
10000000
01000000
00000000
00100000
00100000
00001000
00000000
,
00010000
00010000
00000010
00000000
00001000
00000100
00000010
00000000
,
00000001
00000001
00000100
00000000
00001000
00001000
00010000
00000000
,
00100000
00100000
01000000
00000000
10000000
01000000
00010000
00000000
,
10000000
01000000
00100000
00000000
11000000
00000000
00110000
00000000
,
00001000
00010000
00000100
00000000
00001100
00000000
00000110
00000000
,
00000001
00000100
00001000
00000000
00010000
00000000
01000000
00000000
,
01100000
00110000
00011000
00001100
,
00000010
00001000
00000100
00000010
00000001
00000010
00000100
00000000
,
00001000
00000010
00000100
00000001
00000100
00001000
00010000
00000000
,
00100000
00100000
00110000
00000000
10000000
10000000
11000000
00000000
,
00100000
00001000
00010000
00001000
00001000
00000000
00011000
00000000
,
00000100
00001000
00000010
00000000
00000100
00000001
00001000
00000000
,
00000100
00010000
00001000
00000000
00100000
00100000
00100000
00000000
,
01100000
10010000
00011000
00001100
,
00000010
00000001
00000100
00001000
00010000
01000000
10000000
00000000
,
20020000
00000000
00000000
00000000
,
00000000
00000000
00000000
00000000
,
30030000
00000000
00000000
00000000
;

//---------------dance-single - ----------------
#NOTEDATA:;
#CHARTNAME:;
#STEPSTYPE:dance-single;
#DESCRIPTION:;
#CHARTSTYLE:;
#DIFFICULTY:Medium;
#METER:10;
#RADARVALUES:0.523320,0.650887,0.511574,0.210111,0.000000,401.000000,345.000000,56.000000,23.000000,0.000000,0.000000,0.000000,0.000000,0.000000,0.523320,0.650887,0.511574,0.210111,0.000000,401.000000,345.000000,56.000000,23.000000,0.000000,0.000000,0.000000,0.000000,0.000000;
#CREDIT:;
#DISPLAYBPM:174.000000;
#NOTES:
0000
0000
0000
0000
,
0000
0000
0000
0000
,
0000
0000
0000
0000
,
0000
0000
0000
0000
,
0000
0000
0000
0000
,
0001
0010
0100
0000
1000
0100
0010
0000
,
0001
0010
0100
0000
1000
0100
0010
0000
,
0001
0010
0001
0000
1000
0010
1000
0000
,
0001
0010
0100
1000
0001
0000
1001
0000
,
0010
0100
0010
0000
1000
0100
0010
0000
,
0100
0010
0100
0000
0001
0010
0100
0000
,
0010
0001
0010
0000
0001
0100
0010
0000
,
1000
0001
0100
1001
,
0010
1000
0100
0000
0010
0000
1001
0000
,
0001
0010
0100
0000
1000
0000
0110
0000
,
1000
0100
0010
0000
1000
0000
0101
0000
,
0001
0010
0100
0000
0001
0000
1010
0000
,
0001
0010
0001
0000
0100
0010
1000
0000
,
1000
0100
0010
0000
0011
0000
1100
0000
,
1000
0100
0010
0000
0001
0010
0100
0000
,
1000
0001
0100
0000
0110
0000
1001
0000
,
1000
0100
0010
0001
0100
0000
0110
0000
,
0001
0010
0100
1000
0001
0000
0110
0000
,
1000
0100
0020
0000
0031
0010
0200
0000
,
1300
0100
1000
0010
0100
0000
0110
0000
,
1000
1000
0100
0000
0001
0001
0100
0000
,
0010
0010
0010
0000
0110
0110
0110
0000
,
1000
0100
0010
0001
0001
0010
0100
1000
,
0001
0100
1000
0100
0001
0000
1001
0000
,
2002
0000
0000
0000
,
0000
0000
0000
0000
,
3003
0000
0000
0000
,
0000
0000
0000
0000
,
0020
0000
2030
0000
,
3200
0000
0302
0000
,
0023
0000
0032
0000
,
0203
0000
2300
0000
,
3002
0103
2000
3100
,
0002
0013
0200
1300
,
0020
1030
0002
0013
,
2000
3100
0010
1001
,
1000
0100
0001
0000
0101
0000
1100
0000
,
0001
0100
1000
0000
0101
0000
1100
0000
,
0010
0100
0001
0000
1000
0010
0100
0000
,
0010
1000
0001
1000
0001
0000
1001
0000
,
0010
0100
0010
0000
1000
0100
0010
0000
,
0001
0010
0100
0000
0010
0100
1000
0000
,
0001
0001
0001
0001
0001
0001
0001
0000
,
0220
0000
0000
0330
,
0011
0000
0110
0000
0010
1000
0100
0000
,
1010
0000
0101
0000
0010
1000
0001
0000
,
0110
0000
1001
0000
0010
0001
0100
0000
,
0010
0010
0011
0000
1000
0100
0010
0000
,
0001
1000
0100
0000
0011
0000
1001
0000
,
1000
0001
0100
0000
1001
0000
1100
0000
,
0001
0100
0010
0000
1010
0000
1001
0000
,
1000
0001
0010
0000
0011
0000
0110
0000
,
1000
1000
0100
0000
0010
0010
0010
0000
,
0001
0001
0100
0000
0010
0010
0010
0000
,
1000
1000
1100
0000
0001
0000
0110
0000
,
0001
0001
0001
0000
0100
0000
0110
0000
,
1000
0100
0010
0000
1100
0000
0011
0000
,
0001
0010
0100
0000
0110
0000
1001
0000
,
1000
0001
0100
0100
0001
0001
1000
0001
,
1000
1000
0010
0100
0001
0001
0001
0000
,
0010
1000
0100
0010
0001
0010
0100
0000
,
0010
0100
1000
0100
0001
0100
1000
0000
,
0010
0010
0110
0000
0001
0001
1001
0000
,
0010
0001
0100
0010
0100
0000
1001
0000
,
0001
0001
0100
0000
1000
1000
0100
0000
,
0100
0100
0100
0000
0110
0110
0110
0000
,
0110
0000
1001
0000
0001
0010
0100
0000
,
1000
0100
0010
0001
0001
0010
0100
1000
,
2002
0000
0000
0000
,
0000
0000
0000
0000
,
3003
0000
0000
0000
;

//---------------dance-double - ----------------
#NOTEDATA:;
#CHARTNAME:;
#STEPSTYPE:dance-double;
#DESCRIPTION:;
#CHARTSTYLE:;
#DIFFICULTY:Easy;
#METER:6;
#RADARVALUES:0.310599,0.411087,0.146164,0.274058,0.000000,238.000000,222.000000,16.000000,30.000000,0.000000,0.000000,0.000000,0.000000,0.000000,0.310599,0.411087,0.146164,0.274058,0.000000,238.000000,222.000000,16.000000,30.000000,0.000000,0.000000,0.000000,0.000000,0.000000;
#CREDIT:;
#DISPLAYBPM:174.000000;
#NOTES:
00000000
00000000
00000000
00000000
,
00000000
00000000
00000000
00000000
,
00000000
00000000
00000000
00000000
,
00000000
00000000
00000000
00000000
,
00000000
00000000
00000000
00000000
,
00100000
00100000
00100000
00100000
,
01000000
01000000
01000000
01000000
,
00100000
01000000
00100000
01000000
,
00100000
10000000
01000000
00010000
,
00001000
00001000
00001000
00001000
,
00000010
00000010
00000001
00000001
,
00000100
00000100
00001000
00001000
,
00000010
00000100
00001000
00000001
,
00000010
00000010
00000100
00000001
,
00000100
00000100
00000010
00001000
,
00000001
00000100
00001000
00010000
,
01000000
10000000
00100000
10010000
,
00100000
00100000
01000000
01000000
,
00010000
00010000
00100000
00100000
,
01000000
01000000
10000000
10000000
,
00100000
10000000
01000000
00010000
,
00001000
00001000
00010000
00011000
,
00010000
00010000
00001000
00011000
,
00200000
00300000
00000020
00000030
,
00010000
00010000
00002000
00003000
,
00010000
00010000
00100000
01000000
,
10000000
10000000
01000000
00100000
,
00020000
00030000
00002000
00003000
,
00022000
00000000
00000000
00033000
,
00011000
00000000
00000000
00000000
,
00000000
00000000
00000000
00000000
,
00000000
00000000
00000000
00000000
,
00000000
00000000
00000000
00000000
,
00200000
00000000
00000000
00000000
,
02000000
00000000
00000000
03300000
,
20000000
00000000
00000000
00000000
,
00020000
00000000
00000000
30030000
,
20000000
30000000
02000000
03000000
,
00020000
00030000
00002000
00003000
,
00000020
00000030
00000002
00000003
,
00000200
00000000
00000020
00000330
,
00000001
00000100
00000001
00000100
,
00001000
00010000
00001000
00010000
,
01000000
10000000
01000000
00010000
,
01000000
01000000
02200000
03300000
,
10000000
01000000
00100000
00011000
,
00000100
00000010
00000001
00000110
,
00000001
00000010
00000100
00011000
,
00022000
00000000
00000000
00033000
,
00100000
00100000
01000000
10010000
,
00100000
00100000
00001000
00001000
,
00010000
00010000
00000100
00000100
,
00001000
00000100
00000010
00000001
,
00000100
00000100
00000010
00001001
,
00000010
00000010
00000100
00000100
,
00000001
00000001
00001000
00001000
,
00000100
00010000
00001000
00011000
,
00100000
00100000
00010000
01000000
,
00100000
00100000
10000000
01000000
,
00010000
00001000
00000100
00000001
,
00000010
00000010
00000100
00001001
,
00000010
00000010
00000001
00000100
,
00000010
00000010
00001000
00000100
,
00000001
00000100
00001000
00010000
,
01000000
10000000
01000000
00010000
,
00100000
00100000
00100000
00100000
,
10000000
10000000
01000000
01000000
,
00020000
00030000
00002000
00003000
,
00010000
00001000
00022000
00033000
,
00010000
00000100
00001000
00000001
,
00001000
00000100
00010000
00001000
,
01000000
00100000
10000000
01000000
,
00200000
00000000
00301000
00010000
,
00022000
00000000
00000000
00000000
,
00000000
00000000
00000000
00000000
,
00033000
00000000
00000000
00000000
;

//---------------dance-single - ----------------
#NOTEDATA:;
#CHARTNAME:;
#STEPSTYPE:dance-single;
#DESCRIPTION:;
#CHARTSTYLE:;
#DIFFICULTY:Easy;
#METER:7;
#RADARVALUES:0.357580,0.616630,0.548115,0.228381,0.000000,274.000000,214.000000,60.000000,25.000000,0.000000,0.000000,0.000000,0.000000,0.000000,0.357580,0.616630,0.548115,0.228381,0.000000,274.000000,214.000000,60.000000,25.000000,0.000000,0.000000,0.000000,0.000000,0.000000;
#CREDIT:;
#DISPLAYBPM:174.000000;
#NOTES:
// measure 0
0000
0000
0000
0000
,  // measure 1
0000
0000
0000
0000
,  // measure 2
0000
0000
0000
0000
,  // measure 3
0000
0000
0000
0000
,  // measure 4
0000
0000
0000
0000
,  // measure 5
0010
0000
0010
0000
,  // measure 6
0100
0000
0100
0000
,  // measure 7
0010
0100
0010
0100
,  // measure 8
0010
0010
0010
1001
,  // measure 9
1000
0000
0001
0000
,  // measure 10
1000
0000
0001
0000
,  // measure 11
1000
1000
0001
0001
,  // measure 12
1000
0001
1000
0110
,  // measure 13
0010
0010
0001
0100
,  // measure 14
0010
0010
1000
0100
,  // measure 15
0010
0001
0010
0100
,  // measure 16
1000
1000
0001
1001
,  // measure 17
0100
0100
0010
0010
,  // measure 18
0001
0001
1000
1000
,  // measure 19
0100
0010
0001
1000
,  // measure 20
0010
0100
0001
1001
,  // measure 21
0010
1000
0100
1100
,  // measure 22
0010
0001
0100
0101
,  // measure 23
1000
1100
0001
0101
,  // measure 24
0010
0010
1001
1001
,  // measure 25
0010
0001
0100
1001
,  // measure 26
0010
1000
0100
1001
,  // measure 27
0020
0000
0230
0000
,  // measure 28
0302
1000
1000
1003
,  // measure 29
2002
0000
0000
0000
,  // measure 30
0000
0000
0000
0000
,  // measure 31
3003
0000
0000
0000
,  // measure 32
0000
0000
0000
0000
,  // measure 33
0020
0000
0000
0000
,  // measure 34
0032
0000
0000
0000
,  // measure 35
0203
0000
0000
0000
,  // measure 36
2300
0000
0000
0000
,  // measure 37
3010
0000
0001
0000
,  // measure 38
0100
0000
1000
0000
,  // measure 39
0010
0001
0100
1000
,  // measure 40
0020
0000
0230
0000
,  // measure 41
0310
0000
1001
0110
,  // measure 42
2002
3003
0010
0100
,  // measure 43
2002
3003
0200
0300
,  // measure 44
0020
0030
1001
1001
,  // measure 45
0010
1000
0100
0011
,  // measure 46
0010
0001
0100
1010
,  // measure 47
0220
0000
0000
0330
,  // measure 48
0110
0000
0000
0000
,  // measure 49
0001
1000
0100
0100
,  // measure 50
1000
0001
0100
0100
,  // measure 51
0001
0010
0100
1001
,  // measure 52
1000
0100
0010
1001
,  // measure 53
0001
0011
1000
1100
,  // measure 54
0010
0110
1000
1001
,  // measure 55
0011
0011
1010
1010
,  // measure 56
1100
1100
0101
0101
,  // measure 57
0010
0001
0100
1000
,  // measure 58
0010
0010
0100
0100
,  // measure 59
0010
1010
0100
0101
,  // measure 60
0010
0110
1001
1001
,  // measure 61
0001
0101
1000
1100
,  // measure 62
0010
1010
0001
0011
,  // measure 63
0011
0011
0110
0110
,  // measure 64
1001
1001
1100
1100
,  // measure 65
0001
0100
1000
0010
,  // measure 66
1000
0100
0001
0010
,  // measure 67
0200
0300
0020
0030
,  // measure 68
0001
0100
1001
1001
,  // measure 69
0010
1000
0100
1100
,  // measure 70
0010
0001
0100
0101
,  // measure 71
0010
0010
0010
0010
,  // measure 72
0220
0000
0330
0000
,  // measure 73
2002
0000
0000
0000
,  // measure 74
0000
0000
0000
0000
,  // measure 75
3003
0000
0000
0000
;

//---------------dance-single - ----------------
#NOTEDATA:;
#CHARTNAME:;
#STEPSTYPE:dance-single;
#DESCRIPTION:;
#CHARTSTYLE:;
#DIFFICULTY:Beginner;
#METER:5;
#RADARVALUES:0.182705,0.274058,0.036541,0.182705,0.000000,140.000000,136.000000,4.000000,20.000000,0.000000,0.000000,0.000000,0.000000,0.000000,0.182705,0.274058,0.036541,0.182705,0.000000,140.000000,136.000000,4.000000,20.000000,0.000000,0.000000,0.000000,0.000000,0.000000;
#CREDIT:;
#DISPLAYBPM:174.000000;
#NOTES:
// measure 0
0000
0000
0000
0000
,  // measure 1
0000
0000
0000
0000
,  // measure 2
0000
0000
0000
0000
,  // measure 3
0000
0000
0000
0000
,  // measure 4
0000
0000
0000
0000
,  // measure 5
0010
0000
0000
0000
,  // measure 6
0100
0000
0000
0000
,  // measure 7
0010
0000
0100
0000
,  // measure 8
0010
0000
0010
0000
,  // measure 9
1000
0000
0001
0000
,  // measure 10
1000
0000
0001
0000
,  // measure 11
1000
0000
1000
0000
,  // measure 12
0001
0000
0001
0000
,  // measure 13
0010
0000
0001
0000
,  // measure 14
0100
0000
1000
0000
,  // measure 15
0010
0000
1000
0000
,  // measure 16
0100
0000
0001
0000
,  // measure 17
0200
0000
0300
0000
,  // measure 18
0020
0000
0030
0000
,  // measure 19
2000
3000
2000
3000
,  // measure 20
1000
1000
1000
0000
,  // measure 21
0020
0000
0030
0000
,  // measure 22
0200
0000
0300
0000
,  // measure 23
1000
0000
0001
0000
,  // measure 24
0010
0000
0110
0000
,  // measure 25
0010
0010
0010
0000
,  // measure 26
0100
0100
0100
0000
,  // measure 27
0010
0000
0100
0000
,  // measure 28
0010
0010
0010
0000
,  // measure 29
2002
0000
0000
0000
,  // measure 30
0000
0000
0000
0000
,  // measure 31
3003
0000
0000
0000
,  // measure 32
0000
0000
0000
0000
,  // measure 33
0010
0000
0000
0000
,  // measure 34
0001
0000
0000
0000
,  // measure 35
0100
0000
0000
0000
,  // measure 36
1000
0000
0000
0000
,  // measure 37
0010
0000
0001
0000
,  // measure 38
0100
0000
1000
0000
,  // measure 39
0010
0000
0001
0000
,  // measure 40
0200
0000
0300
0000
,  // measure 41
0010
0000
0010
0000
,  // measure 42
0100
0000
0100
0000
,  // measure 43
0001
0000
1000
0000
,  // measure 44
0001
0001
0001
0000
,  // measure 45
1000
1000
1000
0000
,  // measure 46
0001
0001
0001
0000
,  // measure 47
2002
0000
0000
0000
,  // measure 48
3003
0000
0000
0000
,  // measure 49
0010
0000
0100
0000
,  // measure 50
0010
0000
0010
0000
,  // measure 51
0100
0000
0010
0000
,  // measure 52
0100
0100
0100
0000
,  // measure 53
0001
0000
1000
0000
,  // measure 54
0010
0010
0010
0000
,  // measure 55
1000
0000
0001
0000
,  // measure 56
0010
0010
0010
0000
,  // measure 57
0100
0100
0100
0000
,  // measure 58
0010
0010
0010
0000
,  // measure 59
1000
0000
0001
0000
,  // measure 60
0100
0000
0010
0000
,  // measure 61
1000
1000
2000
3000
,  // measure 62
0001
0001
0002
0003
,  // measure 63
0100
0000
0010
0000
,  // measure 64
1000
0000
0001
0000
,  // measure 65
0100
0100
0100
0000
,  // measure 66
0010
0010
0010
0000
,  // measure 67
2000
3000
2000
3000
,  // measure 68
0001
0001
0001
0000
,  // measure 69
0100
0100
0200
0300
,  // measure 70
0010
0010
0020
0030
,  // measure 71
1000
1000
0001
0001
,  // measure 72
0200
0000
0300
0000
,  // measure 73
2002
0000
0000
0000
,  // measure 74
0000
0000
0000
0000
,  // measure 75
3003
0000
0000
0000
;
