#VERSION:0.83;
#TITLE:栄冠のカンパネラ;
#SUBTITLE:;
#ARTIST:OSTER project;
#TITLETRANSLIT:Eikan no campanella;
#SUBTITLETRANSLIT:;
#ARTISTTRANSLIT:;
#GENRE:;
#ORIGIN:;
#TAGS:;
#CREDIT:;
#BANNER:;
#BACKGROUND:;
#PREVIEWVID:;
#JACKET:Eikan no campanella-jacket.png;
#CDIMAGE:;
#DISCIMAGE:;
#LYRICSPATH:;
#CDTITLE:;
#MUSIC:Eikan no campanella.ogg;
#OFFSET:-0.020000;
#SAMPLESTART:63.928303;
#SAMPLELENGTH:12.000000;
#SELECTABLE:YES;
#BPMS:0.000000=185.000336
;
#STOPS:192.000000=1.621616
,338.750000=0.324318
;
#DELAYS:;
#WARPS:;
#TIMESIGNATURES:0.000000=4=4
;
#TICKCOUNTS:0.000000=4
;
#COMBOS:0.000000=1
;
#SPEEDS:0.000000=1.000000=0.000000=0
;
#SCROLLS:0.000000=1.000000
;
#FAKES:;
#LABELS:0.000000=Song Start
;
#BGCHANGES:0.000=Eikan no campanella.mp4=1.000=0=0=1=====,
99999=-nosongbg-=1.000=0=0=0 // don't automatically add -songbackground-
;
#KEYSOUNDS:;
#ATTACKS:
;

//---------------dance-double - ----------------
#NOTEDATA:;
#CHARTNAME:;
#CHARTHASH:2724289196;
#STEPSTYPE:dance-double;
#BANNER:;
#DESCRIPTION:;
#CHARTSTYLE:;
#DIFFICULTY:Easy;
#METER:7;
#METERF:7.000000;
#LASTSECONDHINT:116.776543;
#RADARVALUES:0.000000,0.000000,0.000000,0.000000,0.000000,0.000000,0.000000,0.000000,0.000000,0.000000,0.000000,0.000000,0.000000,0.000000,0.000000,0.000000,0.000000,0.000000,0.000000,0.000000,0.000000,0.000000,0.000000,0.000000,0.000000,0.000000,0.000000,0.000000;
#CREDIT:;
#NOTES:
00000000
00000000
00000000
00000000
,
00000000
00000000
00000000
00000000
,
00000000
00000000
00000000
00000000
,
00000000
00000000
00000000
00000000
,
00000000
00000000
00000000
00000000
,
20000000
30000000
00200000
00300000
,
00020000
00030000
00002000
00003000
,
00000200
00000300
00000002
00000003
,
00001000
00000001
00001000
00000001
,
00000010
00000010
00000110
00000110
,
00000000
00000000
00000000
00000000
,
00000002
00000003
00002000
00003000
,
00000100
00010000
00001000
00100000
,
00020000
00030000
20000000
30000000
,
01000000
00100000
00001000
00010000
,
00000200
00000300
00000020
00000030
,
00000001
00001000
00000010
00000100
,
00000002
00000003
00000001
00000100
,
00002000
00003000
00000100
00010000
,
00002000
00003000
00020000
00030000
,
00010000
10000000
00100000
01000000
,
00020000
00030000
20000000
30000000
,
00010000
00100000
00001000
00010000
,
00000020
00000030
00020000
00030100
,
00001000
00000001
00001000
00000100
,
00010000
00001000
00100000
00010000
,
10000000
01000000
00100000
00010000
,
20020000
00000000
30030000
00000000
,
02000000
00000000
03020000
00000000
,
00032000
00000000
00003000
00000000
,
00000010
00000100
00002002
00003003
,
00000001
00000100
00001000
00000000
,
00010000
00001000
00100000
00000000
,
00010000
01000000
10000000
00000000
,
00010000
10000000
01100000
00000000
,
20020000
00000000
30030000
00000000
,
00200000
00000000
00300000
00000000
,
00002000
00000000
00023000
00000000
,
00030100
00001000
00000010
00000001
,
00000200
00000000
00000300
00000000
,
00010000
00001000
00100000
00010000
,
02000000
00000000
23000000
00000000
,
30100000
01000000
10000000
00010000
,
20020000
30030000
01000000
00100000
,
10000000
10000000
00010000
00010000
,
10000000
01000000
00010000
01000000
,
10000000
00000000
00010000
00000000
,
00000100
00001000
00000001
00000010
,
00000000
00000000
00000000
00000001
,
00000100
00000001
00000100
00001000
,
00000100
00001000
00000000
00010000
,
00000100
00010000
00001000
00010000
,
00010000
00010000
00000000
00100000
,
00010000
01000000
00000000
00100000
,
10000000
01000000
00100000
00010000
,
10000000
00010000
00000000
00002000
,
00003000
00020000
00030000
00000100
,
00000010
00001000
00000001
00001000
,
00000100
00020000
00030000
00001000
,
00100000
00020000
00030000
00010000
,
00000100
00002000
00003000
00000001
,
00001000
00000001
00000000
00000100
,
00001000
00000100
00000000
00010000
,
00001000
00100000
00000000
00200000
,
00300000
02000000
03000000
00010000
,
10000000
00010000
00000000
02000000
,
03000000
00020000
00030000
00000100
,
00001000
00000010
00000000
00000002
,
00000003
00002000
00003000
00000100
,
00010000
00001000
00100000
00020000
,
00000000
00030000
00000000
20000000
,
30000000
20020000
30030000
10000000
,
01000000
00100000
00010000
00010000
,
00100000
01000000
00000000
00010000
,
00001000
00010000
00000000
00000100
,
00001000
00000001
00000000
00001000
,
00000100
00010000
00000100
00010000
,
00001000
00100000
00010000
01000000
,
00000000
00100000
00000000
10000000
,
00000000
00010000
00000000
10000000
,
01000000
00010000
00000000
00001000
,
00000100
00000010
00000000
00000001
,
00000100
00001000
00000000
00010000
,
00100000
01000000
00000000
10000000
,
01000000
00010000
00001000
00000000
,
00022000
00000000
00000000
00000000
,
00000000
00000000
00000000
00000000
,
00000000
00000000
00000000
00000000
,
00000000
00000000
00033000
00000000
;

//---------------dance-double - ----------------
#NOTEDATA:;
#CHARTNAME:;
#CHARTHASH:3304622775;
#STEPSTYPE:dance-double;
#BANNER:;
#DESCRIPTION:;
#CHARTSTYLE:;
#DIFFICULTY:Medium;
#METER:12;
#METERF:12.000000;
#LASTSECONDHINT:116.776543;
#RADARVALUES:0.000000,0.000000,0.000000,0.000000,0.000000,0.000000,0.000000,0.000000,0.000000,0.000000,0.000000,0.000000,0.000000,0.000000,0.000000,0.000000,0.000000,0.000000,0.000000,0.000000,0.000000,0.000000,0.000000,0.000000,0.000000,0.000000,0.000000,0.000000;
#CREDIT:;
#NOTES:
00000000
00000000
00000000
00000000
,
00000000
00000000
00000000
00000000
,
00000000
00000000
00000000
00000000
,
00000000
00000000
00000000
00000000
,
00000000
00000000
00000000
00000000
,
20000000
32000000
03020000
02030000
,
23000000
00000000
30100000
01000000
00010000
00000000
01000000
00000000
,
00001000
00000000
00010000
00000100
00010000
00000000
00000100
00000000
,
00002000
00003020
00000230
00000302
,
00001003
00000100
00001000
00000100
00000010
00000001
00000010
00000001
,
00000200
00000000
00000000
00000310
,
00000002
00000103
00002000
00013000
,
01000000
00000000
00000000
00000000
10000000
00000000
00000000
00000000
00100000
00000000
00000000
10000000
00000000
00000000
00100000
00000000
,
20000000
31000000
00200000
00301000
,
00010000
00000000
00000000
00000000
00000100
00000000
00000000
00000000
00001000
00000000
00000000
00000010
00000000
00000000
00001000
00000000
,
00000002
00000013
00000200
00001300
,
00000010
00000000
00000000
00000000
00001000
00000000
00000000
00000000
00000001
00000000
00000000
00000010
00000000
00000000
00000100
00000000
,
00001000
00000010
00000001
00000100
,
00001000
00000000
01000000
00000000
00010000
00100000
01000000
10000000
,
00100000
10100000
01000000
01010000
,
10000000
00000000
01000000
00000000
00100000
00000000
00000000
00000000
00001000
00000000
00000000
00010000
00000000
00000000
00001000
00000000
,
00010000
00001100
00000010
00000101
,
00000010
00000000
00000000
00000000
00001000
00000000
00000100
00000000
00000010
00000000
00000000
00000001
00000000
00000000
00000100
00000000
,
00000010
00001100
00010000
00011000
,
00100000
00000000
00000000
00000000
00010000
00000000
01000000
00000000
10000000
00000000
00000000
00100000
00000000
00000000
01000000
00000000
,
00010000
10010000
01100000
10010000
,
10000000
01000000
00100000
00010000
10000000
01000000
00100000
00010000
,
20000000
00000000
32000000
00000000
,
03020000
00000000
00032000
00000000
,
00003020
00000000
00000032
00000000
,
00000103
00000010
00002002
00003003
,
00000001
00000101
00001000
00001100
,
00010000
00000000
00011000
00000000
00100000
00000000
00010000
01000000
,
00100000
00000000
00100000
00000000
00100000
00000000
01000000
00000000
01000000
00000000
01000000
00000000
,
00010000
10000000
01100000
00010000
,
20020000
30030000
01000000
00010000
,
00002000
00003000
00010000
00000100
,
00002000
00003000
00000001
00000010
,
00000001
00000000
00000010
00000000
00000001
00000000
00001000
00000000
00000100
00000000
00001000
00000000
,
00000010
00001000
00000100
00010000
,
00001000
00000000
00010000
00000000
00001000
00000000
00100000
00000000
00010000
00000000
01000000
00000000
,
00100000
10000000
11000000
10000000
,
00100000
00000000
01000000
00000000
00010000
00000000
10000000
00000000
01000000
00000000
00100000
00000000
,
00020000
01030000
10000000
00100000
,
10000000
00100000
10000000
00000000
00010000
01000000
00010000
00000000
,
00100000
00001000
00100000
00000000
00001000
00010000
00001000
00000000
,
00010000
00000100
00001000
00000000
00000100
00001000
00000010
00000000
,
00000100
00000010
00000100
00000010
00001000
00000001
00001000
00000001
,
00000000
00000000
00000000
00000002
,
00000203
00002300
00023000
02030000
,
03100000
10000000
02000000
00000000
03100000
00010000
02000000
00000000
,
03100000
10000000
02000000
00000000
03020000
00000000
00032000
00000000
,
00003200
00000302
00001003
00000002
,
00000023
00000000
00000031
00000100
00001000
00000000
00020000
00000000
,
02030000
00000000
03100000
10000000
01000000
00100000
00010000
00000000
,
10000000
01000000
00010000
00000000
00100000
00000000
00002000
00000000
,
00013000
00000100
00002000
00000000
00003001
00000000
00000011
00000000
,
00000110
00001100
00011000
00120000
,
01030000
00100000
20000000
00000000
31000000
00100000
00020000
00000000
,
00130000
00001000
00020000
00000000
00030200
00000000
00000302
00000000
,
00000023
00000000
00002030
00000000
00003100
00000000
00000001
00000100
,
00001000
00000100
00000001
00000000
00001000
00000000
00000100
00010000
,
00001000
00010000
00000100
00000000
00010000
00000000
00001000
00100000
,
00010000
01000000
00100000
00000000
10000000
01000000
00200000
00000000
,
00000000
00301000
00002000
00000000
00003000
00000000
00010000
00000100
,
00010000
00000000
00000100
00000000
00001000
00000000
00000000
00001000
00000000
00000000
00001000
00000000
00000020
00000000
00000000
00000000
,
00000000
00000100
00000230
00000000
00000300
00000000
00000001
00000100
,
00001000
00000000
00000100
00000000
00000001
00000000
00000000
00000001
00000000
00000000
00001000
00000000
00000100
00000000
00000000
00000000
,
00010000
00001000
00200000
00000000
00310000
00000000
10000000
00000000
,
01000000
00100000
00020000
00000000
20030000
00000000
31000000
00100000
,
01000000
00100000
10000000
01000000
10000000
01000000
00100000
00010000
,
00100000
00010000
00100000
00000000
00011000
00000000
00010000
00001000
,
00000000
00000000
00000000
00010100
00000000
00010100
00000000
00001000
,
00001000
00000000
00000000
00001001
00000000
00000000
00000000
00000000
,
00001001
00000000
00000000
00000110
00000000
00000110
00000000
00000000
,
00001001
00000000
00000001
00000100
00000010
00000000
00002000
00000000
,
00003200
00020300
00030020
00002030
,
00003100
00010000
00001000
00000000
00100000
00010000
01000000
00000000
,
00100000
10000000
01000000
00000000
01000000
00100000
00010000
00000000
,
00010000
00000100
00002000
00000000
00003001
00000000
00000001
00000010
,
00000100
00000000
00001000
00000100
00010000
00000000
00001000
00000000
,
01000000
00010000
00100000
01000000
10000000
00000000
00100000
10000000
,
01000000
00000000
00100000
00001000
00010000
00000000
00000100
00001000
,
00000010
00001000
00000100
00000001
00000100
00000000
00001000
00000100
,
00000010
00000001
00000100
00000010
00001000
00000100
00000000
00000000
,
00022000
00000000
00000000
00000000
,
00000000
00000000
00000000
00000000
,
00000000
00000000
00000000
00000000
,
00000000
00000000
00033000
00000000
;

//---------------dance-double - ----------------
#NOTEDATA:;
#CHARTNAME:;
#CHARTHASH:1046120158;
#STEPSTYPE:dance-double;
#BANNER:;
#DESCRIPTION:;
#CHARTSTYLE:;
#DIFFICULTY:Hard;
#METER:15;
#METERF:15.000000;
#LASTSECONDHINT:116.776543;
#RADARVALUES:0.000000,0.000000,0.000000,0.000000,0.000000,0.000000,0.000000,0.000000,0.000000,0.000000,0.000000,0.000000,0.000000,0.000000,0.000000,0.000000,0.000000,0.000000,0.000000,0.000000,0.000000,0.000000,0.000000,0.000000,0.000000,0.000000,0.000000,0.000000;
#CREDIT:;
#NOTES:
00000000
00000000
00000000
00000000
,
00000000
00000000
00000000
00000000
,
00000000
00000000
00000000
00000000
,
00000000
00000000
00000000
00000000
,
00000000
00000000
00000000
00000000
,
12000000
03100000
00012000
00003100
,
00002010
00000000
00000000
00003001
00000010
00000100
00002000
00000000
00000000
00003100
00000000
00000000
,
00012000
00000000
00000000
00103000
00010000
01000000
00100000
00000000
00000000
10000000
00000000
00000000
,
10000000
00000000
01000000
00000000
00100000
00000000
00010000
00000000
00001000
00000000
00010000
00000000
00000100
00000000
00001000
00000010
,
00000100
00000001
00000010
00000100
00001000
00000010
00000001
00000010
,
00002000
00000000
00000000
00003001
,
00000002
00000103
00000010
00001000
00000200
00001300
00000010
00000100
,
00000001
00000000
00000100
00000000
00001000
00000000
00000100
00000000
00000001
00000000
00000000
00000010
00000000
00000000
00001000
00000000
,
00000200
00010300
00001000
01000000
00020000
10030000
00100000
01000000
,
00001000
00000000
00010000
00000000
00000100
00000000
00001000
00000000
00000010
00000000
00000000
00001000
00000000
00000000
00000001
00000000
,
00002000
00003010
00000100
00000001
00000200
00000310
00001000
00000100
,
00010000
00000000
00001000
00000000
01000000
00000000
00100000
00000000
10000000
00000000
00000000
01000000
00000000
00000000
00010000
00000000
,
00001000
00000000
00010000
00000000
00000010
00000000
00001000
00000000
00000001
00000000
00000010
00000000
00000100
00000000
00001000
00000100
,
00001000
00000000
00000100
00000000
00010000
00000000
00001000
00000000
00100000
00010000
00100000
00010000
10000000
01000000
10000000
01000000
,
10000000
00000000
00010000
00000000
00100000
00000000
00001000
00010000
00001000
00000000
00010000
00000000
00000100
00000000
00001000
00000000
,
00000001
00000000
00000010
00000000
00000100
00000000
00001000
00000100
00001000
00000000
00000000
00000100
00000000
00000000
00010000
00000000
,
00001000
00100000
00010000
10000000
00010000
10000000
01000000
00100000
,
00001000
00000000
00010000
00000000
00000100
00000000
00001000
00000010
00001000
00000000
00000000
00000001
00000000
00000000
00001000
00000000
,
00000001
00000100
00001000
00000100
00010000
00001000
01000000
00010000
,
10000000
00000000
01000000
00000000
00100000
00000000
00010000
00100000
00010000
00000000
00000000
01000000
00000000
00000000
00100000
00000000
,
10000000
01000000
00010000
00000000
00001000
00000100
00000001
00000000
,
00000010
00000100
00000010
00000100
00001000
00000100
00001000
00000100
00010000
00001000
00010000
00001000
00100000
00010000
01000000
00100000
,
20000000
00000000
30020000
00000000
,
00032000
00000000
00000000
00000000
00003002
00000000
00000103
00000101
,
00000102
00000000
00000000
00000000
00002003
00000000
00003000
00001010
,
00001010
00000000
00000000
00000000
00011000
00000000
00000000
00000000
01010000
00000000
00000000
01010000
00000000
00000000
01010000
00000000
,
00020000
01030000
20000000
31000000
00020000
00130000
00002000
00013000
,
00000200
00000000
00000000
00001300
00000000
00000000
00000002
00000000
00000000
00001003
00000000
00000000
00000020
00000000
00000000
00001030
00000000
00000000
00000100
00000000
00010000
00000000
00001000
00000000
,
00100000
00000000
00010000
00000000
01000000
00000000
10000000
00000000
00100000
00000000
00010000
00000000
,
00001000
00001100
00000110
00000011
,
00002002
00000000
00000000
00000000
00003003
00000000
00000010
00001000
00000200
00000000
00000000
00000000
00010300
00000000
00001000
00000000
,
02000000
00000000
00000000
00000000
00000000
00000000
03010000
10000000
00200000
00000000
00000000
00000000
10300000
00000000
01000000
00000000
,
00200000
00000000
00000000
00000000
00301000
00000000
00010000
00000100
00010000
00000000
00001000
00000000
00010000
00000000
00000100
00000000
,
00001000
00000000
00000001
00000000
00001000
00000000
00000100
00000000
00010000
00000000
00001000
00000000
,
00100000
00010000
01000000
10000000
01000000
00010000
00100000
00001000
,
00010000
00000000
00000100
00000000
00001000
00000000
00000001
00000000
00001000
00000000
00000010
00000000
,
00001000
00000100
00000010
00000100
00010000
00001000
00100000
00010000
,
01000000
00000000
00100000
00000000
10000000
00000000
01000000
00000000
00010000
00000000
00001000
00000000
,
00000100
00000000
00000001
00000100
00001000
00000000
00011000
00000000
,
00010000
01000000
10000000
01000000
00010000
10000000
01000000
00100000
,
00010000
10000000
01000000
00010000
01000000
10000000
00100000
01000000
,
00001000
00010000
00000010
00000100
00000001
00001000
00000100
00010000
,
00001000
00010000
00001000
00010000
00001000
00010000
00001000
00010000
00000100
00001000
00000100
00001000
00000001
00000010
00000100
00001000
,
00000010
00000000
02000000
00000000
03020000
00000000
00000000
00230000
00000000
00000000
02300000
00000000
13000000
00000000
00000000
00000000
,
01010000
00000000
00000000
00000000
00011000
00000000
00000000
00000000
00001100
00000000
00000000
00000000
00000010
00000001
00000100
00000000
,
00001000
00010000
02000000
00000000
13000000
01000000
00020000
00000000
,
00031000
00000000
00000100
00000000
00000001
00000000
00000000
00000001
00000010
00000000
00000000
00000010
00000100
00000000
00000000
00000100
,
00010000
00000000
00000000
00010000
00001000
00000000
00000000
00000000
00110000
00000000
00000000
00000000
10000000
01000000
00100000
00000000
,
01000000
00100000
00010000
00000000
01000000
00000000
00001000
00000000
00010000
00000000
00000100
00000000
00001000
00000100
00000010
00000000
,
00000100
00000010
00000001
00000000
00001000
00000000
00000100
00000000
00010000
00000000
00001000
00000000
00200000
00000000
00000000
00000000
,
00310000
00000000
01000000
00000000
00100000
10000000
00100000
00000000
10000000
00000000
01000000
00000000
00200000
00000000
00000000
00000000
,
00301000
00000000
00010000
00000000
00000200
00000000
00000000
00000000
00001300
00000010
00001000
00000010
00000100
00000000
00001000
00000010
,
00001000
00000000
00000100
00000000
00000010
00000000
00000001
00000100
00000001
00000000
00000010
00000000
00001000
00000000
00000100
00010000
,
00000100
00010000
00002000
00000000
01003000
00010000
20000000
31000000
,
00100000
00000000
00001000
00000000
00020000
00000000
00030100
00000000
00002000
00000000
00003010
00000000
00000100
00000001
00000100
00000000
,
00000010
00001000
00000010
00000000
00010000
00000100
00010000
00000000
00001000
01000000
00001000
00000000
01000000
00100000
10000000
00000000
,
01000000
00000000
00100000
00000000
00001000
00000000
00010000
00000000
00000100
00000000
00001000
00000000
00000001
00000010
00000001
00000000
,
00001000
00000000
00000100
00000000
00010000
00000000
00001000
00000000
01000000
00000000
00100000
00000000
10000000
01000000
00100000
00000000
,
01000000
00000000
00001000
00000000
00010000
00000100
00010000
00000000
00000100
00000000
00001000
00000000
00000020
00000000
00000000
00000000
,
00000031
00000000
00001000
00000000
00001200
00000000
00000000
00000000
00010300
00000000
00001000
00000000
01000000
00010000
01000000
00000000
,
00100000
10000000
00100000
00000000
10000000
00000000
00000000
01000000
00000000
00000000
00100000
00000000
00001000
00010000
00001000
00000000
,
00010000
00000000
00000010
00000000
00001000
00000001
00001000
00000000
00000100
00000000
00000010
00000000
00000001
00000000
00000100
00000000
,
00001000
00000000
00000100
00000000
00000001
00000000
00000000
00001000
00000000
00000000
00000100
00000000
00010000
00001000
00010000
00000000
,
00001000
00000000
01000000
00000000
00100000
10000000
01000000
00000000
00100000
00000000
00001000
00000000
00010000
00000000
00000010
00000000
,
00001000
00000000
00000001
00000000
00001000
00000100
00001000
00000000
00000100
00010000
00000100
00000000
00010000
00001000
00010000
00000000
,
00001000
00000000
00100000
00000000
00010000
01000000
00010000
00000000
01000000
00000000
00100000
00000000
10000000
01000000
00100000
00000000
,
01000000
00100000
00010000
00000000
10000000
01000000
00100000
00000000
00001000
00010000
00001000
00000000
00011000
00000000
00011000
00000000
,
00000000
00000000
00000000
00001100
00000000
00000101
00000000
00001100
,
00001100
00000000
00000000
00011000
00000000
00000000
00000000
00000000
,
01100000
00000000
00000000
10010000
00000000
11000000
00000000
00000000
,
01100000
00000000
00000000
00000000
10000000
00000000
01000000
00000000
00100000
00000000
00000000
00000000
00100000
00010000
00100000
00000000
,
00001000
00010000
00001000
00000000
00010000
00000010
00010000
00000000
00000100
00001000
00000100
00000000
00000010
00000001
00000010
00000000
,
00000001
00000100
00001000
00000000
00010000
01000000
20000000
00000000
,
30100000
00010000
00002000
00000000
00003010
00000001
00000200
00000000
,
00000301
00000010
00000200
00000000
00020300
00000000
00031000
00100000
,
00010000
00100000
00001000
00010000
00000100
00001000
00000001
00000010
,
00000100
00001000
00000002
00000000
00002003
00000000
00003100
00010000
,
00001000
00100000
00010000
10000000
01000000
00100000
00010000
00100000
,
00001000
00000000
00010000
00000000
00000100
00000000
00001000
00000000
00000001
00000000
00000100
00000000
00000001
00000010
00000001
00000010
,
00000100
00001000
00000100
00001000
00010000
00000100
00010000
00000100
00100000
00001000
00100000
00001000
00000000
00000000
00000000
00000000
,
00022000
00000000
00000000
00000000
,
00000000
00000000
00000000
00000000
,
00000000
00000000
00000000
00000000
,
00000000
00000000
00033000
00000000
;

//---------------dance-double - ----------------
#NOTEDATA:;
#CHARTNAME:;
#CHARTHASH:3764183393;
#STEPSTYPE:dance-double;
#BANNER:;
#DESCRIPTION:;
#CHARTSTYLE:;
#DIFFICULTY:Easy;
#METER:7;
#METERF:7.000000;
#LASTSECONDHINT:116.776543;
#RADARVALUES:0.000000,0.000000,0.000000,0.000000,0.000000,0.000000,0.000000,0.000000,0.000000,0.000000,0.000000,0.000000,0.000000,0.000000,0.000000,0.000000,0.000000,0.000000,0.000000,0.000000,0.000000,0.000000,0.000000,0.000000,0.000000,0.000000,0.000000,0.000000;
#CREDIT:;
#NOTES:
00000000
00000000
00000000
00000000
,
00000000
00000000
00000000
00000000
,
00000000
00000000
00000000
00000000
,
00000000
00000000
00000000
00000000
,
00000000
00000000
00000000
00000000
,
20000000
30000000
00200000
00300000
,
00020000
00030000
00002000
00003000
,
00000200
00000300
00000002
00000003
,
00001000
00000001
00001000
00000001
,
00000010
00000010
00000110
00000110
,
00000000
00000000
00000000
00000000
,
00000002
00000003
00002000
00003000
,
00000100
00010000
00001000
00100000
,
00020000
00030000
20000000
30000000
,
01000000
00100000
00001000
00010000
,
00000200
00000300
00000020
00000030
,
00000001
00001000
00000010
00000100
,
00000002
00000003
00000001
00000100
,
00002000
00003000
00000100
00010000
,
00002000
00003000
00020000
00030000
,
00010000
10000000
00100000
01000000
,
00020000
00030000
20000000
30000000
,
00010000
00100000
00001000
00010000
,
00000020
00000030
00020000
00030100
,
00001000
00000001
00001000
00000100
,
00010000
00001000
00100000
00010000
,
10000000
01000000
00100000
00010000
,
20020000
00000000
30030000
00000000
,
02000000
00000000
03020000
00000000
,
00032000
00000000
00003000
00000000
,
00000010
00000100
00002002
00003003
,
00000001
00000100
00001000
00000000
,
00010000
00001000
00100000
00000000
,
00010000
01000000
10000000
00000000
,
00010000
10000000
01100000
00000000
,
20020000
00000000
30030000
00000000
,
00200000
00000000
00300000
00000000
,
00002000
00000000
00023000
00000000
,
00030100
00001000
00000010
00000001
,
00000200
00000000
00000300
00000000
,
00010000
00001000
00100000
00010000
,
02000000
00000000
23000000
00000000
,
30100000
01000000
10000000
00010000
,
20020000
30030000
01000000
00100000
,
10000000
10000000
00010000
00010000
,
10000000
01000000
00010000
01000000
,
10000000
00000000
00010000
00000000
,
00000100
00001000
00000001
00000010
,
00000000
00000000
00000000
00000001
,
00000100
00000001
00000100
00001000
,
00000100
00001000
00000000
00010000
,
00000100
00010000
00001000
00010000
,
00010000
00010000
00000000
00100000
,
00010000
01000000
00000000
00100000
,
10000000
01000000
00100000
00010000
,
10000000
00010000
00000000
00002000
,
00003000
00020000
00030000
00000100
,
00000010
00001000
00000001
00001000
,
00000100
00020000
00030000
00001000
,
00100000
00020000
00030000
00010000
,
00000100
00002000
00003000
00000001
,
00001000
00000001
00000000
00000100
,
00001000
00000100
00000000
00010000
,
00001000
00100000
00000000
00200000
,
00300000
02000000
03000000
00010000
,
10000000
00010000
00000000
02000000
,
03000000
00020000
00030000
00000100
,
00001000
00000010
00000000
00000002
,
00000003
00002000
00003000
00000100
,
00010000
00001000
00100000
00020000
,
00000000
00030000
00000000
20000000
,
30000000
20020000
30030000
10000000
,
01000000
00100000
00010000
00010000
,
00100000
01000000
00000000
00010000
,
00001000
00010000
00000000
00000100
,
00001000
00000001
00000000
00001000
,
00000100
00010000
00000100
00010000
,
00001000
00100000
00010000
01000000
,
00000000
00100000
00000000
10000000
,
00000000
00010000
00000000
10000000
,
01000000
00010000
00000000
00001000
,
00000100
00000010
00000000
00000001
,
00000100
00001000
00000000
00010000
,
00100000
01000000
00000000
10000000
,
01000000
00010000
00001000
00000000
,
00022000
00000000
00000000
00000000
,
00000000
00000000
00000000
00000000
,
00000000
00000000
00000000
00000000
,
00000000
00000000
00033000
00000000
;

//---------------dance-double - ----------------
#NOTEDATA:;
#CHARTNAME:;
#CHARTHASH:2795259424;
#STEPSTYPE:dance-double;
#BANNER:;
#DESCRIPTION:;
#CHARTSTYLE:;
#DIFFICULTY:Medium;
#METER:12;
#METERF:12.000000;
#LASTSECONDHINT:116.776543;
#RADARVALUES:0.000000,0.000000,0.000000,0.000000,0.000000,0.000000,0.000000,0.000000,0.000000,0.000000,0.000000,0.000000,0.000000,0.000000,0.000000,0.000000,0.000000,0.000000,0.000000,0.000000,0.000000,0.000000,0.000000,0.000000,0.000000,0.000000,0.000000,0.000000;
#CREDIT:;
#NOTES:
00000000
00000000
00000000
00000000
,
00000000
00000000
00000000
00000000
,
00000000
00000000
00000000
00000000
,
00000000
00000000
00000000
00000000
,
00000000
00000000
00000000
00000000
,
20000000
32000000
03020000
02030000
,
23000000
00000000
30100000
01000000
00010000
00000000
01000000
00000000
,
00001000
00000000
00010000
00000100
00010000
00000000
00000100
00000000
,
00002000
00003020
00000230
00000302
,
00001003
00000100
00001000
00000100
00000010
00000001
00000010
00000001
,
00000200
00000000
00000000
00000310
,
00000002
00000103
00002000
00013000
,
01000000
00000000
00000000
00000000
10000000
00000000
00000000
00000000
00100000
00000000
00000000
10000000
00000000
00000000
00100000
00000000
,
20000000
31000000
00200000
00301000
,
00010000
00000000
00000000
00000000
00000100
00000000
00000000
00000000
00001000
00000000
00000000
00000010
00000000
00000000
00001000
00000000
,
00000002
00000013
00000200
00001300
,
00000010
00000000
00000000
00000000
00001000
00000000
00000000
00000000
00000001
00000000
00000000
00000010
00000000
00000000
00000100
00000000
,
00001000
00000010
00000001
00000100
,
00001000
00000000
01000000
00000000
00010000
00100000
01000000
10000000
,
00100000
10100000
01000000
01010000
,
10000000
00000000
01000000
00000000
00100000
00000000
00000000
00000000
00001000
00000000
00000000
00010000
00000000
00000000
00001000
00000000
,
00010000
00001100
00000010
00000101
,
00000010
00000000
00000000
00000000
00001000
00000000
00000100
00000000
00000010
00000000
00000000
00000001
00000000
00000000
00000100
00000000
,
00000010
00001100
00010000
00011000
,
00100000
00000000
00000000
00000000
00010000
00000000
01000000
00000000
10000000
00000000
00000000
00100000
00000000
00000000
01000000
00000000
,
00010000
10010000
01100000
10010000
,
10000000
01000000
00100000
00010000
10000000
01000000
00100000
00010000
,
20000000
00000000
32000000
00000000
,
03020000
00000000
00032000
00000000
,
00003020
00000000
00000032
00000000
,
00000103
00000010
00002002
00003003
,
00000001
00000101
00001000
00001100
,
00010000
00000000
00011000
00000000
00100000
00000000
00010000
01000000
,
00100000
00000000
00100000
00000000
00100000
00000000
01000000
00000000
01000000
00000000
01000000
00000000
,
00010000
10000000
01100000
00010000
,
20020000
30030000
01000000
00010000
,
00002000
00003000
00010000
00000100
,
00002000
00003000
00000001
00000010
,
00000001
00000000
00000010
00000000
00000001
00000000
00001000
00000000
00000100
00000000
00001000
00000000
,
00000010
00001000
00000100
00010000
,
00001000
00000000
00010000
00000000
00001000
00000000
00100000
00000000
00010000
00000000
01000000
00000000
,
00100000
10000000
11000000
10000000
,
00100000
00000000
01000000
00000000
00010000
00000000
10000000
00000000
01000000
00000000
00100000
00000000
,
00020000
01030000
10000000
00100000
,
10000000
00100000
10000000
00000000
00010000
01000000
00010000
00000000
,
00100000
00001000
00100000
00000000
00001000
00010000
00001000
00000000
,
00010000
00000100
00001000
00000000
00000100
00001000
00000010
00000000
,
00000100
00000010
00000100
00000010
00001000
00000001
00001000
00000001
,
00000000
00000000
00000000
00000002
,
00000203
00002300
00023000
02030000
,
03100000
10000000
02000000
00000000
03100000
00010000
02000000
00000000
,
03100000
10000000
02000000
00000000
03020000
00000000
00032000
00000000
,
00003200
00000302
00001003
00000002
,
00000023
00000000
00000031
00000100
00001000
00000000
00020000
00000000
,
02030000
00000000
03100000
10000000
01000000
00100000
00010000
00000000
,
10000000
01000000
00010000
00000000
00100000
00000000
00002000
00000000
,
00013000
00000100
00002000
00000000
00003001
00000000
00000011
00000000
,
00000110
00001100
00011000
00120000
,
01030000
00100000
20000000
00000000
31000000
00100000
00020000
00000000
,
00130000
00001000
00020000
00000000
00030200
00000000
00000302
00000000
,
00000023
00000000
00002030
00000000
00003100
00000000
00000001
00000100
,
00001000
00000100
00000001
00000000
00001000
00000000
00000100
00010000
,
00001000
00010000
00000100
00000000
00010000
00000000
00001000
00100000
,
00010000
01000000
00100000
00000000
10000000
01000000
00200000
00000000
,
00000000
00301000
00002000
00000000
00003000
00000000
00010000
00000100
,
00010000
00000000
00000100
00000000
00001000
00000000
00000000
00001000
00000000
00000000
00001000
00000000
00000020
00000000
00000000
00000000
,
00000000
00000100
00000230
00000000
00000300
00000000
00000001
00000100
,
00001000
00000000
00000100
00000000
00000001
00000000
00000000
00000001
00000000
00000000
00001000
00000000
00000100
00000000
00000000
00000000
,
00010000
00001000
00200000
00000000
00310000
00000000
10000000
00000000
,
01000000
00100000
00020000
00000000
20030000
00000000
31000000
00100000
,
01000000
00100000
10000000
01000000
10000000
01000000
00100000
00010000
,
00100000
00010000
00100000
00000000
00011000
00000000
00010000
00001000
,
00000000
00000000
00000000
00010100
00000000
00010100
00000000
00001000
,
00001000
00000000
00000000
00001001
00000000
00000000
00000000
00000000
,
00001001
00000000
00000000
00000110
00000000
00000110
00000000
00000000
,
00001001
00000000
00000001
00000100
00000010
00000000
00002000
00000000
,
00003200
00020300
00030020
00002030
,
00003100
00010000
00001000
00000000
00100000
00010000
01000000
00000000
,
00100000
10000000
01000000
00000000
01000000
00100000
00010000
00000000
,
00010000
00000100
00002000
00000000
00003001
00000000
00000001
00000010
,
00000100
00000000
00001000
00000100
00010000
00000000
00001000
00000000
,
01000000
00010000
00100000
01000000
10000000
00000000
00100000
10000000
,
01000000
00000000
00100000
00001000
00010000
00000000
00000100
00001000
,
00000010
00001000
00000100
00000001
00000100
00000000
00001000
00000100
,
00000010
00000001
00000100
00000010
00001000
00000100
00000000
00000000
,
00022000
00000000
00000000
00000000
,
00000000
00000000
00000000
00000000
,
00000000
00000000
00000000
00000000
,
00000000
00000000
00033000
00000000
;

//---------------dance-single - ----------------
#NOTEDATA:;
#CHARTNAME:;
#CHARTHASH:3342274718;
#STEPSTYPE:dance-single;
#BANNER:;
#DESCRIPTION:;
#CHARTSTYLE:;
#DIFFICULTY:Easy;
#METER:7;
#METERF:7.000000;
#LASTSECONDHINT:116.776543;
#RADARVALUES:0.000000,0.000000,0.000000,0.000000,0.000000,0.000000,0.000000,0.000000,0.000000,0.000000,0.000000,0.000000,0.000000,0.000000,0.000000,0.000000,0.000000,0.000000,0.000000,0.000000,0.000000,0.000000,0.000000,0.000000,0.000000,0.000000,0.000000,0.000000;
#CREDIT:;
#NOTES:
0000
0000
0000
0000
,
0000
0000
0000
0000
,
0000
0000
0000
0000
,
0000
0000
0000
0000
,
0000
0000
0000
0000
,
2000
3000
0020
0030
,
0002
0003
0020
0030
,
2000
3000
0200
0300
,
0001
1000
0001
1000
,
0100
0100
0110
0110
,
0000
0000
0000
0000
,
2000
3000
0200
0300
,
0010
0001
0010
0100
,
2000
3000
0002
0003
,
0100
0010
1000
0001
,
0200
0300
0020
0030
,
0001
1000
0010
0100
,
0002
0003
0010
0100
,
2000
3000
0100
0010
,
0002
0003
2000
3000
,
0001
1000
0010
0100
,
0002
0003
2000
3000
,
0001
0010
0100
1000
,
0020
0030
0200
0300
,
1000
0001
1000
0100
,
0010
0001
0010
0001
,
1000
0100
0010
0001
,
2002
0000
3003
0000
,
0200
0000
0302
0000
,
0023
0000
2030
0000
,
3001
0010
2002
3003
,
0001
0010
0100
1000
,
0100
0010
0001
0010
,
0100
1000
0001
1000
,
0001
1000
0110
0000
,
2002
0000
3003
0000
,
0020
0000
0030
0000
,
2000
0000
3002
0000
,
1003
0100
0010
0001
,
0200
0000
0310
0100
,
0001
0010
0100
1000
,
0002
0000
2003
0000
,
3010
0100
1000
0001
,
2002
3003
0100
0010
,
1000
1000
0001
0001
,
1000
0100
0001
0100
,
1000
0010
0001
0010
,
1000
0100
0010
0001
,
0000
0000
0000
1000
,
0100
0010
0001
1000
,
1000
1001
0010
0001
,
0100
1000
0100
0001
,
0010
2002
3003
0010
,
0001
0200
0300
0010
,
1000
0100
0010
0001
,
1000
0002
0003
2000
,
3000
0002
0003
1000
,
0100
0010
0010
1001
,
0100
1001
1000
0001
,
0010
0100
1000
0001
,
1000
2002
3003
1000
,
0100
2200
3300
0010
,
0001
0022
0033
0100
,
0010
1000
0001
0022
,
0033
2200
3300
0001
,
1000
0001
0100
0220
,
0330
2002
3003
1000
,
0100
0010
0001
2020
,
3030
0202
0303
1000
,
0100
0010
0001
2002
,
0000
0000
3003
0220
,
0330
2002
3003
1000
,
0100
0010
0001
0001
,
0010
0100
1000
0001
,
0100
0010
1000
0100
,
0001
2002
3003
1000
,
0100
0010
0001
0001
,
0100
1000
0100
0002
,
0003
2000
3000
0200
,
0300
0020
0030
1000
,
0100
0001
0010
1000
,
0010
0001
0010
0100
,
1000
1000
0100
0010
,
0001
0010
1000
0100
,
0001
1000
1001
0000
,
2002
0000
0000
0000
,
0000
0000
0000
0000
,
0000
0000
0000
0000
,
0000
0000
3003
0000
;

//---------------dance-single - ----------------
#NOTEDATA:;
#CHARTNAME:;
#CHARTHASH:2373029030;
#STEPSTYPE:dance-single;
#BANNER:;
#DESCRIPTION:;
#CHARTSTYLE:;
#DIFFICULTY:Medium;
#METER:12;
#METERF:12.000000;
#LASTSECONDHINT:116.776543;
#RADARVALUES:0.000000,0.000000,0.000000,0.000000,0.000000,0.000000,0.000000,0.000000,0.000000,0.000000,0.000000,0.000000,0.000000,0.000000,0.000000,0.000000,0.000000,0.000000,0.000000,0.000000,0.000000,0.000000,0.000000,0.000000,0.000000,0.000000,0.000000,0.000000;
#CREDIT:;
#NOTES:
0000
0000
0000
0000
,
0000
0000
0000
0000
,
0000
0000
0000
0000
,
0000
0000
0000
0000
,
0000
0000
0000
0000
,
2000
3200
0302
0203
,
2300
0000
3010
0100
0002
0000
0203
0000
,
0320
0000
1030
0010
0200
0000
0301
0000
,
1000
0001
1000
0001
0100
0010
0100
0010
,
1000
0100
0010
0001
2000
0000
0002
0000
,
3003
0000
0000
0000
,
0120
0130
2001
3001
,
0100
0000
0010
0000
1000
0000
0010
0000
0100
0000
0000
0010
0000
0000
1000
0000
,
2001
3010
1002
0103
,
0010
0000
0000
0000
0001
0000
0100
0000
0010
0000
0000
0100
0000
0000
0001
0000
,
1002
0103
2001
3100
,
1002
0000
0000
0000
0013
0000
0001
0000
0100
0000
0000
0010
0000
0000
1000
0000
,
1002
0203
0320
2030
,
3001
0100
0001
0100
0010
1000
0010
1000
,
0001
1010
0100
0101
,
1000
0000
0100
0000
0010
0000
0001
0000
1000
0000
0000
0001
0000
0000
1000
0000
,
0001
0011
0100
1100
,
0001
0000
0010
0000
0100
0000
1000
0000
0010
0000
0000
0100
0000
0000
0010
0000
,
0010
1010
0001
0101
,
0010
0000
0000
0000
0001
0000
0100
0000
1000
0000
0000
0100
0000
0000
0001
0000
,
1000
1001
0110
1001
,
1000
0100
0010
0001
1000
0100
0010
0001
,
2000
0000
3200
0000
,
0302
0000
0023
0230
,
2300
0000
3002
0000
,
1003
0100
0010
0001
2002
0000
3003
0000
,
0020
0032
0203
2300
,
3200
0000
0302
0000
0023
0000
0031
0100
,
0010
0000
0010
0000
0010
0000
0100
0000
0100
0000
0100
0000
,
0001
1000
0110
0001
,
2002
0000
3003
0000
0100
0010
0100
0000
,
2002
0000
3003
0000
0010
0100
0010
0000
,
2002
0000
3003
0000
0100
0010
0100
0010
,
1000
0000
0100
0000
1000
0000
0001
0000
0100
0000
0001
0000
,
1000
0100
0010
0001
,
1000
0000
0001
0000
1000
0000
0010
0000
0100
0000
0010
0000
,
1000
1001
0010
0110
,
0010
0000
0100
0000
0001
0000
1000
0000
0100
0000
0010
0000
,
0002
0103
1000
0110
,
1000
0010
1000
0000
0001
0100
0001
0000
,
0010
0100
0010
0000
0001
1000
0001
0000
,
1000
0100
1000
0100
0010
0001
0010
0000
,
0001
0010
0001
0010
0100
1000
0100
1000
,
0000
0000
0000
0200
,
2300
3020
0032
0203
,
0310
1000
0200
0000
0310
0001
0200
0000
,
0310
1000
0200
0000
0302
0000
0023
0000
,
0230
0000
1300
0001
1001
0000
0200
0000
,
0320
0000
0031
1000
1001
0000
0002
0000
,
0203
0000
0310
1000
0100
0010
0001
0000
,
1000
0100
0010
0000
0011
0000
0110
0000
,
0001
0010
0100
0000
0110
0000
1001
0000
,
1100
0011
1001
0012
,
0103
0010
2000
0000
3100
0010
0002
0000
,
0013
0100
2000
0000
3010
0000
0110
0000
,
1001
0000
0110
0000
1000
0100
0020
0000
,
0032
0000
0103
0010
0100
0000
0002
0000
,
0203
0000
0310
0100
0010
0000
0200
0000
,
0302
0000
0023
0000
0031
1000
0020
0000
,
0000
0100
0130
0000
1001
0000
0010
0000
,
1001
0000
0000
0000
0001
0000
0000
0010
0000
0000
0100
0000
0100
0000
0000
0000
,
1001
0000
0010
0000
1001
0000
1000
0100
,
0010
0000
0001
0000
0100
0000
0000
0010
0000
0000
0100
0000
0001
0000
0000
0000
,
1001
0010
0110
1000
,
0100
0010
0002
0000
2003
0000
3100
0010
,
0100
0010
1000
0100
1000
0100
0010
0001
,
0010
0001
0010
0000
1001
0000
0100
0010
,
0000
0000
0000
1001
0000
1001
0000
0010
,
0100
0000
0000
0110
0000
0000
0000
0000
,
1001
0000
0000
0110
0000
1001
0000
0000
,
0110
0001
0110
2000
,
3200
0302
0203
2300
,
3010
0001
0010
0000
1000
0100
0020
0000
,
0130
1000
0200
0000
0310
0001
0200
0000
,
0310
0001
2002
0000
3003
0000
2000
0000
,
3200
0320
0031
0002
,
0103
0001
0200
0000
0310
0000
1010
0000
,
1100
0110
0011
0101
,
0110
0000
1001
0000
0110
0000
1000
0100
,
0010
0001
1000
0100
0010
0001
0000
0000
,
2002
0000
0000
0000
,
0000
0000
0000
0000
,
0000
0000
0000
0000
,
0000
0000
3003
0000
;

//---------------dance-single - ----------------
#NOTEDATA:;
#CHARTNAME:;
#CHARTHASH:2134969542;
#STEPSTYPE:dance-single;
#BANNER:;
#DESCRIPTION:;
#CHARTSTYLE:;
#DIFFICULTY:Hard;
#METER:16;
#METERF:16.000000;
#LASTSECONDHINT:116.776543;
#RADARVALUES:0.000000,0.000000,0.000000,0.000000,0.000000,0.000000,0.000000,0.000000,0.000000,0.000000,0.000000,0.000000,0.000000,0.000000,0.000000,0.000000,0.000000,0.000000,0.000000,0.000000,0.000000,0.000000,0.000000,0.000000,0.000000,0.000000,0.000000,0.000000;
#CREDIT:;
#NOTES:
0000
0000
0000
0000
,
0000
0000
0000
0000
,
0000
0000
0000
0000
,
0000
0000
0000
0000
,
0000
0000
0000
0000
,
0102
0000
0000
1003
0010
1000
0200
0000
0000
2300
0000
0000
,
3020
0000
0000
0130
0001
1000
0002
0000
0000
2003
0000
0000
,
3020
0000
0000
0130
0001
0100
0020
0000
0000
2030
0000
0000
,
3001
0100
0001
0100
0010
1000
0010
1000
,
0001
0010
0100
1000
0001
0100
0010
0100
,
0001
0010
0001
0010
0100
1000
0100
1000
0001
0010
0100
1000
0001
0000
0000
0000
,
1000
0100
1000
0100
0001
0100
0001
0100
,
1000
0000
0100
0000
0010
0000
0001
0000
0100
0000
0000
0100
0000
0000
0001
0000
,
1000
0010
1000
0010
0001
0010
0001
0010
,
1000
0000
0100
0000
0010
0000
0001
0000
1000
0000
0000
0010
0000
0000
0100
0000
,
0001
0010
0001
0010
0100
1000
0100
1000
,
0001
0000
0010
0000
0100
0000
1000
0000
0010
0000
0000
0100
0000
0000
0001
0000
,
1000
0000
0100
0000
1000
0000
0100
0000
0010
0000
0001
0000
0100
0000
0010
1000
,
0010
0000
1000
0000
0100
0000
0010
0000
0001
0100
0010
0100
0001
1000
0010
1000
,
0001
0100
0001
1000
0010
0100
0010
1000
,
0001
0000
1000
0000
0100
0000
0010
0001
0010
0000
0000
0100
0000
0000
1000
0000
,
0001
1000
0010
1000
0001
1000
0100
0010
,
0001
0000
0010
0000
0100
0000
1000
0010
1000
0000
0000
0100
0000
0000
0010
0000
,
0001
0100
1000
0100
0001
0010
1000
0010
,
0001
0000
0100
0000
0010
0000
1000
0010
1000
0000
0000
0001
0000
0000
0100
0000
,
0010
1000
0010
0100
0001
0010
0100
1000
,
0001
0010
0001
0010
0100
1000
0100
0010
0001
1000
0001
1000
0010
0100
0010
0100
,
0020
0000
2030
0000
,
3002
0000
0000
0000
0203
0000
0310
0110
,
0220
0330
2002
3003
,
1001
0000
0000
0000
0110
0000
0000
0000
1001
0000
0000
0110
0000
0000
1000
0000
,
0002
0010
0023
0000
0230
1000
1300
0000
,
2000
0000
0000
0010
0000
0000
3020
0000
0000
0100
0000
0000
0230
0000
0000
0000
0000
0000
0301
0000
0100
0000
0010
0000
,
1000
0000
1001
0000
0001
0000
0100
0000
0110
0000
0010
0000
,
1000
0000
0000
1000
0100
0000
0000
0100
0010
0000
0000
0010
0001
0000
0000
0000
,
1001
0000
0000
0000
0000
0000
1000
0000
0100
0000
0010
0000
0001
0000
0000
1000
0000
0000
0001
0000
0000
1000
0000
0000
,
1100
0000
0000
0000
0000
0000
0001
0000
0010
0000
0100
0000
1000
0000
0000
0001
0000
0000
1000
0000
0000
0001
0000
0000
,
0101
0000
0000
0000
0000
0000
0010
0000
0100
0000
0001
0000
1000
0000
0000
0010
0000
0000
1000
0000
0100
0000
0010
0000
,
0001
0000
0001
0100
0000
0100
0010
0000
1000
0000
1000
0010
0000
0010
0100
0000
,
0001
0000
0010
0000
0100
0000
1000
0000
0010
0000
0100
0000
0001
1000
0010
1000
,
0001
0000
0001
0010
0000
0010
0100
0000
1000
0000
1000
0010
0000
0010
0100
0000
,
0001
0100
1000
0100
0001
0010
0100
1000
,
0001
0000
0010
0001
0000
0001
0100
0000
0010
0000
1000
0100
0000
0100
0010
0000
,
0001
0000
1000
0000
0010
0000
1000
0000
0100
0010
0001
0000
1000
0100
0010
0000
,
0001
0000
0100
0000
0001
0000
0100
0000
1000
0100
1000
0000
0100
1000
0100
0000
,
0001
0000
0010
0000
0100
0000
1000
0000
0001
0010
0100
0000
1000
0100
0010
0000
,
0001
0100
0001
0000
0010
1000
0010
0000
0001
0010
0100
0000
1000
0001
0010
0000
,
0001
0100
0010
1000
0100
0010
0001
0100
0010
0100
0001
1000
0100
0010
0001
1000
,
0001
0000
0100
0000
0002
0000
0000
0023
0000
0000
0130
0000
0110
0000
1000
0000
,
1010
0000
0000
0000
0110
0000
0001
0000
0011
0000
0000
0000
0001
1000
0001
0000
,
1000
0000
0100
0000
0020
0000
0000
0000
0031
0000
0100
0000
0010
1000
0010
0000
,
0100
0000
0001
0000
1000
0100
1000
0000
0010
0100
0010
0000
1000
0000
0000
2000
,
0100
0000
0000
3200
0010
0000
0000
0320
0001
0000
0000
0030
0011
0000
0000
0000
,
0001
0100
1000
0100
0001
0000
0000
0000
1001
0000
0000
0000
1100
0000
0000
0000
,
1000
0100
0001
0100
1000
0000
0000
0000
1001
0000
0000
0000
0011
0000
0000
0000
,
0001
0000
0100
0000
0101
0000
0000
0000
1000
0000
0000
0000
0001
0010
0100
0000
,
1000
0000
0001
0000
1000
0100
0010
0000
0001
0100
0001
0100
0010
0000
0010
1000
,
0200
0000
0000
0000
0310
0000
0010
0001
2000
0000
0000
0000
3010
0000
0010
1000
,
0100
1000
1002
0000
0103
0010
0120
0000
,
1030
0000
0001
0000
1002
0000
0000
0000
0203
0000
0000
0000
0310
1000
0010
0000
,
0100
0001
0100
0000
0001
0010
0100
0000
1000
0100
0010
0000
0002
0000
0100
0000
,
2003
0100
3001
1000
1001
0000
2000
0100
,
3002
0000
0100
0000
1003
0000
0010
0000
1001
0000
0000
0000
0001
0010
0001
0000
,
1000
0100
1000
0000
0001
0010
0100
0000
1000
0100
0010
0001
1000
0000
0010
1000
,
0010
0000
0100
0000
0001
0000
0100
0001
0100
0000
0010
0000
1000
0100
0010
0000
,
0010
0001
0100
0000
0001
0000
0000
1001
0000
0000
1000
0000
0001
0000
0100
0001
,
0100
0000
0010
0000
1000
0000
0010
1000
0100
0000
0010
0000
0001
0000
1000
0001
,
1000
0000
0010
0000
0100
0000
0000
0001
0000
0000
1000
0000
0001
0000
0010
0100
,
0010
0000
1000
0000
0010
0000
0100
0001
0100
0000
0010
0000
1000
0000
0100
0010
,
0100
0000
0001
0100
0002
0000
0003
0001
0200
0000
0300
0100
0002
0000
0010
0000
,
0013
0000
0001
0000
2000
0000
0100
0000
3100
0000
1000
0000
0001
0010
0100
0000
,
1000
0100
1000
0000
0100
0010
0001
0000
1000
0001
1000
0001
0100
0000
0110
0000
,
0000
0000
0000
1001
0000
1001
0000
1100
,
1100
0000
0000
0101
0000
0000
1000
0000
,
1001
0000
0000
0110
0000
1001
0000
0000
,
1001
0000
0000
0000
1000
0000
0100
0000
0010
0001
0010
0001
0100
0000
0000
0100
,
0010
0000
0000
0010
1000
0000
0000
1000
0001
0000
0000
0001
0010
0000
0000
0010
,
0100
1000
0002
0000
1003
0100
0020
0000
,
0130
1000
0002
0000
1003
0100
0020
0000
,
0031
0000
0100
0000
0020
0000
0000
0000
0030
0000
0000
0000
1000
0000
0000
1000
,
0010
0000
0000
0010
0100
0000
0000
0100
0010
0000
0000
0010
1000
0000
1000
0100
,
0010
0000
0001
0000
0100
0000
0010
0000
1000
0000
0010
0000
0100
0000
0000
0100
,
0001
0000
0000
0001
0010
0000
0000
0010
0200
0000
0000
0000
0301
1000
0001
0000
,
0010
1000
0010
0000
1000
0100
0010
0000
0100
0010
0001
0000
1000
0100
1000
0100
,
0010
0001
0010
0001
1000
0100
0010
0001
0100
0010
1000
0001
0000
0000
0000
0000
,
2002
0000
0000
0000
,
0000
0000
0000
0000
,
0000
0000
0000
0000
,
0000
0000
3003
0000
;

//---------------dance-couple - ----------------
#NOTEDATA:;
#CHARTNAME:;
#CHARTHASH:270477215;
#STEPSTYPE:dance-couple;
#BANNER:;
#DESCRIPTION:;
#CHARTSTYLE:;
#DIFFICULTY:Easy;
#METER:7;
#METERF:7.000000;
#LASTSECONDHINT:116.776543;
#RADARVALUES:0.000000,0.000000,0.000000,0.000000,0.000000,0.000000,0.000000,0.000000,0.000000,0.000000,0.000000,0.000000,0.000000,0.000000,0.000000,0.000000,0.000000,0.000000,0.000000,0.000000,0.000000,0.000000,0.000000,0.000000,0.000000,0.000000,0.000000,0.000000;
#CREDIT:;
#NOTES:
00000000
00000000
00000000
00000000
,
00000000
00000000
00000000
00000000
,
00000000
00000000
00000000
00000000
,
00000000
00000000
00000000
00000000
,
00000000
00000000
00000000
00000000
,
20000000
30000000
00200000
00300000
,
00020000
00030000
00200000
00300000
,
20000000
30000000
02000000
03000000
,
00010000
10000000
00010000
10000000
,
01000000
01000000
01100000
01100000
,
00000000
00000000
00000000
00000000
,
20000000
30000000
02000000
03000000
,
00100000
00010000
00100000
01000000
,
20000000
30000000
00020000
00030000
,
01000000
00100000
10000000
00010000
,
02000000
03000000
00200000
00300000
,
00010000
10000000
00100000
01000000
,
00020000
00030000
00100000
01000000
,
20000000
30000000
01000000
00100000
,
00020000
00030000
20000000
30000000
,
00010000
10000000
00100000
01000000
,
00020000
00030000
20000000
30000000
,
00010000
00100000
01000000
10000000
,
00200000
00300000
02000000
03000000
,
10000000
00010000
10000000
01000000
,
00100000
00010000
00100000
00010000
,
10000000
01000000
00100000
00010000
,
20020000
00000000
30030000
00000000
,
02000000
00000000
03020000
00000000
,
00230000
00000000
20300000
00000000
,
30010000
00100000
20020000
30030000
,
00010000
00100000
01000000
10000000
,
01000000
00100000
00010000
00100000
,
01000000
10000000
00010000
10000000
,
00010000
10000000
01100000
00000000
,
20020000
00000000
30030000
00000000
,
00200000
00000000
00300000
00000000
,
20000000
00000000
30020000
00000000
,
10030000
01000000
00100000
00010000
,
02000000
00000000
03100000
01000000
,
00010000
00100000
01000000
10000000
,
00020000
00000000
20030000
00000000
,
30100000
01000000
10000000
00010000
,
20020000
30030000
01000000
00100000
,
10000000
10000000
00010000
00010000
,
10000000
01000000
00010000
01000000
,
10000000
00100000
00010000
00100000
,
10000000
01000000
00100000
00010000
,
00000000
00000000
00000000
10000000
,
01000000
00100000
00010000
10000000
,
10000000
10010000
00100000
00010000
,
01000000
10000000
01000000
00010000
,
00100000
20020000
30030000
00100000
,
00010000
02000000
03000000
00100000
,
10000000
01000000
00100000
00010000
,
10000000
00020000
00030000
20000000
,
30000000
00020000
00030000
10000000
,
01000000
00100000
00100000
10010000
,
01000000
10010000
10000000
00010000
,
00100000
01000000
10000000
00010000
,
10000000
20020000
30030000
10000000
,
01000000
22000000
33000000
00100000
,
00010000
00220000
00330000
01000000
,
00100000
10000000
00010000
00220000
,
00330000
22000000
33000000
00010000
,
10000000
00010000
01000000
02200000
,
03300000
20020000
30030000
10000000
,
01000000
00100000
00010000
20200000
,
30300000
02020000
03030000
10000000
,
01000000
00100000
00010000
20020000
,
00000000
00000000
30030000
02200000
,
03300000
20020000
30030000
10000000
,
01000000
00100000
00010000
00010000
,
00100000
01000000
10000000
00010000
,
01000000
00100000
10000000
01000000
,
00010000
20020000
30030000
10000000
,
01000000
00100000
00010000
00010000
,
01000000
10000000
01000000
00020000
,
00030000
20000000
30000000
02000000
,
03000000
00200000
00300000
10000000
,
01000000
00010000
00100000
10000000
,
00100000
00010000
00100000
01000000
,
10000000
10000000
01000000
00100000
,
00010000
00100000
10000000
01000000
,
00010000
10000000
10010000
00000000
,
20020000
00000000
00000000
00000000
,
00000000
00000000
00000000
00000000
,
00000000
00000000
00000000
00000000
,
00000000
00000000
30030000
00000000
;

//---------------dance-single - ----------------
#NOTEDATA:;
#CHARTNAME:;
#CHARTHASH:1283412237;
#STEPSTYPE:dance-single;
#BANNER:;
#DESCRIPTION:;
#CHARTSTYLE:;
#DIFFICULTY:Easy;
#METER:7;
#METERF:7.000000;
#LASTSECONDHINT:116.776543;
#RADARVALUES:0.000000,0.000000,0.000000,0.000000,0.000000,0.000000,0.000000,0.000000,0.000000,0.000000,0.000000,0.000000,0.000000,0.000000,0.000000,0.000000,0.000000,0.000000,0.000000,0.000000,0.000000,0.000000,0.000000,0.000000,0.000000,0.000000,0.000000,0.000000;
#CREDIT:;
#NOTES:
0000
0000
0000
0000
,
0000
0000
0000
0000
,
0000
0000
0000
0000
,
0000
0000
0000
0000
,
0000
0000
0000
0000
,
2000
3000
0020
0030
,
0002
0003
0020
0030
,
2000
3000
0200
0300
,
0001
1000
0001
1000
,
0100
0100
0110
0110
,
0000
0000
0000
0000
,
2000
3000
0200
0300
,
0010
0001
0010
0100
,
2000
3000
0002
0003
,
0100
0010
1000
0001
,
0200
0300
0020
0030
,
0001
1000
0010
0100
,
0002
0003
0010
0100
,
2000
3000
0100
0010
,
0002
0003
2000
3000
,
0001
1000
0010
0100
,
0002
0003
2000
3000
,
0001
0010
0100
1000
,
0020
0030
0200
0300
,
1000
0001
1000
0100
,
0010
0001
0010
0001
,
1000
0100
0010
0001
,
2002
0000
3003
0000
,
0200
0000
0302
0000
,
0023
0000
2030
0000
,
3001
0010
2002
3003
,
0001
0010
0100
1000
,
0100
0010
0001
0010
,
0100
1000
0001
1000
,
0001
1000
0110
0000
,
2002
0000
3003
0000
,
0020
0000
0030
0000
,
2000
0000
3002
0000
,
1003
0100
0010
0001
,
0200
0000
0310
0100
,
0001
0010
0100
1000
,
0002
0000
2003
0000
,
3010
0100
1000
0001
,
2002
3003
0100
0010
,
1000
1000
0001
0001
,
1000
0100
0001
0100
,
1000
0010
0001
0010
,
1000
0100
0010
0001
,
0000
0000
0000
1000
,
0100
0010
0001
1000
,
1000
1001
0010
0001
,
0100
1000
0100
0001
,
0010
2002
3003
0010
,
0001
0200
0300
0010
,
1000
0100
0010
0001
,
1000
0002
0003
2000
,
3000
0002
0003
1000
,
0100
0010
0010
1001
,
0100
1001
1000
0001
,
0010
0100
1000
0001
,
1000
2002
3003
1000
,
0100
2200
3300
0010
,
0001
0022
0033
0100
,
0010
1000
0001
0022
,
0033
2200
3300
0001
,
1000
0001
0100
0220
,
0330
2002
3003
1000
,
0100
0010
0001
2020
,
3030
0202
0303
1000
,
0100
0010
0001
2002
,
0000
0000
3003
0220
,
0330
2002
3003
1000
,
0100
0010
0001
0001
,
0010
0100
1000
0001
,
0100
0010
1000
0100
,
0001
2002
3003
1000
,
0100
0010
0001
0001
,
0100
1000
0100
0002
,
0003
2000
3000
0200
,
0300
0020
0030
1000
,
0100
0001
0010
1000
,
0010
0001
0010
0100
,
1000
1000
0100
0010
,
0001
0010
1000
0100
,
0001
1000
1001
0000
,
2002
0000
0000
0000
,
0000
0000
0000
0000
,
0000
0000
0000
0000
,
0000
0000
3003
0000
;

//---------------dance-single - ----------------
#NOTEDATA:;
#CHARTNAME:;
#CHARTHASH:337605596;
#STEPSTYPE:dance-single;
#BANNER:;
#DESCRIPTION:;
#CHARTSTYLE:;
#DIFFICULTY:Beginner;
#METER:4;
#METERF:4.000000;
#LASTSECONDHINT:116.776543;
#RADARVALUES:0.195238,0.295000,0.091667,0.225000,0.000000,164.000000,153.000000,11.000000,27.000000,0.000000,0.000000,0.000000,0.000000,0.000000,0.195238,0.295000,0.091667,0.225000,0.000000,164.000000,153.000000,11.000000,27.000000,0.000000,0.000000,0.000000,0.000000,0.000000;
#CREDIT:;
#NOTES:
// measure 0
0000
0000
0000
0000
,  // measure 1
0000
0000
0000
0000
,  // measure 2
0000
0000
0000
0000
,  // measure 3
0000
0000
0000
0000
,  // measure 4
0000
0000
0000
0000
,  // measure 5
1000
0000
1000
0000
,  // measure 6
0001
0000
0001
0000
,  // measure 7
1000
0000
1000
0000
,  // measure 8
0002
0000
0003
0000
,  // measure 9
2000
0000
3000
0000
,  // measure 10
0000
0000
0000
0000
,  // measure 11
1000
0000
1000
0000
,  // measure 12
0000
0000
0100
0000
,  // measure 13
0100
0000
0100
0000
,  // measure 14
0000
0000
0010
0000
,  // measure 15
0010
0000
0010
0000
,  // measure 16
0000
0000
0001
0000
,  // measure 17
0002
0003
0000
0000
,  // measure 18
2000
3000
0000
0000
,  // measure 19
0002
0003
0001
0000
,  // measure 20
0010
0000
0010
0000
,  // measure 21
2000
3000
1000
0000
,  // measure 22
0010
0000
0010
0000
,  // measure 23
0002
0003
0001
0000
,  // measure 24
0100
0000
0100
0000
,  // measure 25
2000
3000
1000
0000
,  // measure 26
0100
0000
0100
0000
,  // measure 27
2002
0000
3003
0000
,  // measure 28
0100
0000
0000
0000
,  // measure 29
0010
0000
0010
0000
,  // measure 30
0010
0010
0010
0000
,  // measure 31
0001
0000
1000
0000
,  // measure 32
0001
0000
1000
0000
,  // measure 33
0010
0000
0100
0000
,  // measure 34
0010
0010
0010
0000
,  // measure 35
2002
0000
3003
0000
,  // measure 36
0020
0000
0030
0000
,  // measure 37
0200
0000
0300
0000
,  // measure 38
0100
0000
0100
0000
,  // measure 39
0200
0000
0300
0000
,  // measure 40
0010
0000
0010
0000
,  // measure 41
0020
0000
0030
0000
,  // measure 42
1000
0000
1000
0000
,  // measure 43
2000
3000
1000
0000
,  // measure 44
0002
0003
0001
0000
,  // measure 45
2000
3000
1000
0000
,  // measure 46
0001
0000
1000
0000
,  // measure 47
0001
1000
0001
1000
,  // measure 48
0000
0000
0000
0010
,  // measure 49
0000
0010
0000
0100
,  // measure 50
0000
0100
0000
1000
,  // measure 51
0001
1000
0000
0001
,  // measure 52
1000
0001
0000
1000
,  // measure 53
0000
0100
0000
0100
,  // measure 54
0000
0010
0000
0010
,  // measure 55
0000
0100
0000
1000
,  // measure 56
0000
0001
0000
1000
,  // measure 57
1000
1000
0000
0001
,  // measure 58
0001
0001
0000
1000
,  // measure 59
0000
0001
0000
1000
,  // measure 60
0000
0001
0000
1000
,  // measure 61
1000
1000
0000
0001
,  // measure 62
0001
0001
0000
1000
,  // measure 63
0000
0001
0000
2002
,  // measure 64
0000
0000
3003
1000
,  // measure 65
0000
0001
0000
2002
,  // measure 66
0000
0000
3003
1000
,  // measure 67
0000
0001
0000
2002
,  // measure 68
0000
0000
3003
1000
,  // measure 69
0000
0001
0000
1001
,  // measure 70
0000
0000
0000
1001
,  // measure 71
0000
1001
0000
1001
,  // measure 72
0000
0000
0000
1001
,  // measure 73
0000
0000
0000
0010
,  // measure 74
0000
0100
0000
1000
,  // measure 75
0000
0001
0000
1000
,  // measure 76
1000
1000
0000
0001
,  // measure 77
0001
0001
0000
1000
,  // measure 78
0000
0001
0000
1000
,  // measure 79
0000
0001
0000
1000
,  // measure 80
1000
1000
0000
0001
,  // measure 81
0001
0001
0000
1000
,  // measure 82
0001
1000
0001
0001
,  // measure 83
1000
0001
1000
0000
,  // measure 84
0000
0000
0000
0000
,  // measure 85
2002
0000
0000
0000
,  // measure 86
0000
0000
0000
0000
,  // measure 87
0000
0000
0000
0000
,  // measure 88
0000
0000
3003
0000
;
