#VERSION:0.83;
#TITLE:Bow shock!!;
#SUBTITLE:;
#ARTIST:Xceon;
#TITLETRANSLIT:;
#SUBTITLETRANSLIT:;
#ARTISTTRANSLIT:;
#GENRE:;
#ORIGIN:;
#CREDIT:;
#BANNER:Bow Shock!!.png;
#BACKGROUND:Bow Shock!!-bg.png;
#PREVIEWVID:;
#JACKET:Bow Shock!!-jacket.png;
#CDIMAGE:;
#DISCIMAGE:;
#LYRICSPATH:;
#CDTITLE:;
#MUSIC:Bow Shock!!.ogg;
#OFFSET:0.280000;
#SAMPLESTART:22.992727;
#SAMPLELENGTH:14.363638;
#SELECTABLE:YES;
#BPMS:0.000=165.000;
#STOPS:;
#DELAYS:;
#WARPS:;
#TIMESIGNATURES:0.000=4=4;
#TICKCOUNTS:0.000=4;
#COMBOS:0.000=1;
#SPEEDS:0.000=1.000=0.000=0;
#SCROLLS:0.000=1.000;
#FAKES:;
#LABELS:0.000=Song Start;
#BGCHANGES:;
#KEYSOUNDS:;
#ATTACKS:
;

//---------------dance-double - ----------------
#NOTEDATA:;
#CHARTNAME:;
#STEPSTYPE:dance-double;
#DESCRIPTION:;
#CHARTSTYLE:;
#DIFFICULTY:Medium;
#METER:11;
#RADARVALUES:0.453701,0.577751,0.173374,0.323107,0.094568,403.000000,381.000000,22.000000,41.000000,0.000000,0.000000,0.000000,0.000000,0.000000,0.453701,0.577751,0.173374,0.323107,0.094568,403.000000,381.000000,22.000000,41.000000,0.000000,0.000000,0.000000,0.000000,0.000000;
#CREDIT:;
#NOTES:
00000000
00000000
00000000
00000000
,
00000000
00000000
00000000
00000000
,
00000000
00000000
00000000
00000000
,
00000000
00000000
00000000
00000000
,
00000000
00000000
00000000
00000000
,
00000000
00000000
00000000
00000000
,
00022000
00000000
00003000
00000000
,
00000020
00000000
00030000
00000000
,
00000200
00000000
00000030
00000000
,
00000002
00000300
00002000
00003003
,
00000001
00000100
00001000
00011000
,
10000000
01000000
00010000
00011000
,
00000010
00001000
00000100
00011000
,
00100000
00010000
01000000
10000000
,
10100000
00010000
01000000
00001000
,
00022000
00000000
00000000
00033000
,
00001000
00000000
00000000
00001000
00000000
00000000
00001000
00000000
00000000
00001000
00000000
00000000
00000100
00000000
00000010
00000000
,
00000001
00000000
00000000
00000001
00000000
00000000
00000001
00000000
00000000
00000001
00000000
00000000
00000100
00000000
00000010
00000000
,
00001000
00000000
00000000
00001000
00000000
00000000
00000100
00000000
00000000
00000100
00000000
00000000
00010000
00000000
00001000
00000000
,
00010000
00000000
00000000
00010000
00000000
00000000
00001000
00000000
00000000
00001000
00000000
00000000
01000000
00000000
00000000
00000000
,
00100000
00000000
00000000
00100000
00000000
00000000
00100000
00000000
00000000
00100000
00000000
00000000
10000000
00000000
01000000
00000000
,
00100000
00000000
00000000
00100000
00000000
00000000
00010000
00000000
00000000
00010000
00000000
00000000
01000000
00000000
00100000
00000000
,
10000000
00000000
00000000
10000000
00000000
00000000
00010000
00000000
00000000
00010000
00000000
00000000
00100000
00000000
00001000
00000000
,
00010000
00000000
00000000
00010000
00000000
00000000
00001000
00000000
00000000
00001000
00000000
00000000
00011000
00000000
00000000
00000000
,
00010000
00000000
00000100
00000000
00001000
00000100
00000010
00000000
,
00000001
00000000
00000100
00000000
00000010
00000100
00001000
00000000
,
00010000
00000000
00001000
00000000
00100000
00010000
01000000
00000000
,
00100000
00000000
10000000
00000000
01000000
00100000
00010000
00000000
,
01000000
00000000
00011000
00000000
00010000
00000100
00001000
00000000
,
00000100
00000000
00011000
00000000
00001000
00100000
00010000
00000000
,
01000000
01000000
01000000
00000000
00100000
00100000
00100000
00000000
,
10000000
01000000
00100000
00000000
00001000
00000000
00010000
00000100
,
00002000
00000000
00000010
00000000
00003010
00000000
00000001
00000100
,
00000020
00000030
00002000
00003000
,
00000200
00000000
00010000
00000000
00010300
00000000
00010000
00001000
,
02000000
00000000
03100000
00000000
00010000
10000000
01000000
00000000
,
20000000
00000000
00100000
00000000
30100000
00000000
10000000
01000000
,
00200000
00301000
00020000
00031000
,
00020000
00000000
00000010
00000000
00030010
00000000
00001000
00000010
,
00000200
00000001
00000001
00000301
,
00001010
00000000
00000000
00000000
00000001
00000100
00001000
00000000
,
00010000
00000000
00000000
00000000
00001000
00000000
00100000
00010000
,
02000000
00000000
00100000
00000000
03100000
00000000
10000000
01000000
,
00200000
00000000
00010000
00000000
00310000
00000000
01000000
00001000
,
00020000
00000000
00001000
00000000
00031000
00000000
00000100
00001000
,
00000020
00000030
00002002
00003003
,
00000010
00000010
00000100
00000100
,
00000001
00001000
00000001
00001000
00000100
00001000
00000100
00001000
,
00000200
00000000
00000300
00000000
,
00010000
00000000
00000000
00100000
00000000
00000000
01000000
00000000
00000000
10000000
00000000
00000000
01000000
00000000
00100000
00000000
,
00020000
00000000
00030000
00000000
,
10000000
00000000
00000000
01000000
00000000
00000000
00010000
00000000
00000000
00001000
00000000
00000000
00010000
00000000
00000100
00000000
,
00001000
00000000
00000110
00000000
00000001
00000100
00001000
00000000
,
00000100
00000000
00011000
00000000
00001000
00100000
00010000
00000000
,
01000000
00000000
10010000
00000000
10000000
01000000
00010000
00000000
,
00100000
00000000
10010000
00000000
10000000
01000000
00010000
00000000
,
00001000
00000000
00000100
00000000
00000001
00000100
00001000
00000000
,
00010000
01000000
00100000
00000000
10000000
01000000
00100000
00000000
,
00002000
00023000
00230000
02300000
,
13000000
00010000
10000000
00010000
10000000
00010000
10000000
00000000
00000000
01100000
00000000
00000000
,
10000000
01000000
00100000
01000000
10000000
01000000
00010000
00000000
,
00001000
00000100
00000010
00000000
00000001
00000100
00001000
00000000
,
00010000
00001000
01000000
00001000
00010000
00000000
00100000
00000000
,
00010000
01000000
10000000
00000000
01100000
00000000
10010000
00000000
,
10000000
00100000
10000000
00100000
00010000
00100000
10000000
00000000
,
10000000
01000000
00010000
00000000
00001000
00000100
00000010
00000000
,
00000001
00000100
00000001
00000100
00001000
00000100
00000001
00000000
,
00000100
00001000
00010000
00011000
,
00002000
00000000
00100000
00000000
00013000
00000000
00100000
00010000
,
02000000
03100000
20000000
31000000
,
00200000
00000000
00001000
00000000
00310000
00000000
00001000
00010000
,
00000200
00000000
00001300
00000000
00000010
00000100
00000001
00001000
,
00000200
00000000
00001000
00000000
00010300
00000000
00000100
00010000
,
00002000
01003000
00020000
01030000
,
00100000
10000000
01000000
00000000
00100000
00001000
00010000
00000000
,
00000100
00001000
00000010
00000000
00000001
00000100
00000010
00000000
,
00002000
00000000
00003100
00000000
00000010
00000001
00000100
00000000
,
00000001
00000100
00001000
00000000
00010000
00000000
00100000
00010000
,
00100000
10000000
01000000
00010000
,
00001000
00000100
00000010
00000100
00000001
00000100
00000010
00001000
,
00000100
00000000
00000100
00010000
00001000
00000000
00011000
00000000
,
00001000
00100000
00010000
00000000
00110000
00000000
01100000
00000000
,
00100000
10000000
01000000
00000000
00100000
00001000
00010000
00000000
,
00000100
00001000
00000010
00000100
00000001
00000100
00001000
00000100
,
00000002
00000000
00000000
00000000
,
00000000
00002000
00000000
00000000
,
00000000
00003003
00000000
00000000
;

//---------------dance-single - ----------------
#NOTEDATA:;
#CHARTNAME:;
#STEPSTYPE:dance-single;
#DESCRIPTION:;
#CHARTSTYLE:;
#DIFFICULTY:Medium;
#METER:11;
#RADARVALUES:0.467210,0.611736,0.228539,0.283704,0.102449,415.000000,386.000000,29.000000,36.000000,0.000000,0.000000,0.000000,0.000000,0.000000,0.467210,0.611736,0.228539,0.283704,0.102449,415.000000,386.000000,29.000000,36.000000,0.000000,0.000000,0.000000,0.000000,0.000000;
#CREDIT:;
#NOTES:
0000
0000
0000
0000
,
0000
0000
0000
0000
,
0000
0000
0000
0000
,
0000
0000
0000
0000
,
0000
0000
0000
0000
,
0000
0000
0000
0000
,
2002
0000
0000
3000
,
0200
0000
0000
0303
,
0022
0000
0000
0030
,
2000
3000
2000
3003
,
1000
0100
0010
1001
,
0001
0010
0100
1001
,
0010
1000
0100
1001
,
0010
0001
0100
1001
,
0110
0001
1000
0001
,
2002
0000
0000
3003
,
0010
0000
0000
0010
0000
0000
0010
0000
0000
0010
0000
0000
1000
0000
0001
0000
,
1000
0000
0000
1000
0000
0000
1000
0000
0000
1000
0000
0000
0100
0000
1000
0000
,
0001
0000
0000
0001
0000
0000
0001
0000
0000
0001
0000
0000
1000
0000
0001
0000
,
0100
0000
0000
0100
0000
0000
0010
0000
0000
0010
0000
0000
0010
0000
0000
0000
,
0100
0000
0000
0100
0000
0000
0100
0000
0000
0100
0000
0000
0001
0000
0100
0000
,
0010
0000
0000
0010
0000
0000
0010
0000
0000
0010
0000
0000
0100
0000
0010
0000
,
1000
0000
0000
1000
0000
0000
1000
0000
0000
1000
0000
0000
0001
0000
0100
0000
,
0010
0000
0000
0010
0000
0000
0010
0000
0000
0010
0000
0000
0010
0000
0000
0000
,
0001
0000
0010
0000
0100
0010
0100
0000
,
1000
0000
0100
0000
0010
0100
0010
0000
,
1000
0000
0001
0000
1000
0001
0100
0000
,
0001
0000
1000
0000
0001
1000
0010
0000
,
0100
0001
0010
1001
,
0100
1000
0010
1001
,
0100
0010
0100
0000
0010
0100
0010
0000
,
0001
0100
0010
0100
0001
0000
1000
0001
,
0200
0000
0010
0000
0310
0000
0001
1000
,
0020
0030
0200
0300
,
0002
0000
1000
0000
1003
0000
0001
1000
,
0200
0000
0310
0000
0001
0000
1000
0100
,
2000
0000
0010
0000
3010
0000
1000
0100
,
0020
0031
0002
0103
,
0200
0000
0010
0000
0310
0000
0001
0100
,
0020
0000
1000
0000
1030
0000
1000
0010
,
0200
0000
0001
0000
0301
0000
0001
1000
,
0200
0310
0020
0130
,
0002
0000
1000
0000
0013
0000
1000
0001
,
0200
0000
0001
0000
0301
0000
0100
0001
,
2000
0000
0010
0000
3010
0000
0010
1000
,
0200
0300
0020
0030
,
0002
0000
0100
0000
0103
0000
0010
1000
,
0100
1000
0100
1000
0100
0000
1001
0000
,
0020
0000
0030
0000
,
0001
0000
0000
0010
0000
0000
0100
0000
0000
1000
0000
0000
0100
0000
0010
0000
,
0002
0000
0003
0000
,
1000
0000
0000
0100
0000
0000
0010
0000
0000
0001
0000
0000
1001
0000
0000
0000
,
0001
0000
1001
0000
0010
1000
0100
1000
,
0010
0000
1001
0000
0010
0001
0100
0001
,
0010
0000
1001
0000
1000
0100
0010
0000
,
1000
0001
1000
0000
0001
0100
0001
0000
,
1000
0100
1000
0000
0001
0010
0001
0000
,
0001
0000
0000
0001
0000
0000
1000
0000
0000
1000
0000
0000
0001
0000
0000
0000
,
2000
3200
0320
0032
,
1003
0001
1000
0001
1000
0001
1000
0000
0000
0110
0000
0000
,
1000
0100
0010
0100
1000
0100
0010
0100
,
1000
0101
1000
0101
,
0001
0010
0100
0010
0001
0010
0100
0010
,
0001
0110
1001
0110
,
1000
0010
1000
0010
0100
0010
1000
0010
,
1000
0100
1000
0100
1000
0000
0110
0000
,
0001
0010
0001
0010
0100
0010
0100
0010
,
0001
0010
0100
0010
0001
0000
1001
0000
,
0010
0000
0010
1000
0000
1000
0100
0000
,
0100
0010
0000
0010
0001
0100
0001
0000
,
0010
0000
0010
0001
0000
0001
0100
0000
,
0100
0010
0000
0010
1000
0001
1000
0000
,
0010
0000
0010
1000
0000
1000
0100
0000
,
0100
0010
0000
0010
0001
0100
0001
0000
,
0010
0100
0010
0000
0001
1000
0001
0000
,
0100
0010
0100
0000
1000
0001
1000
0000
,
0010
0000
0010
1000
0000
1000
0001
0000
,
0001
0100
0010
0000
0110
0000
1001
0000
,
0100
0000
0100
0010
0000
0010
1000
0000
,
1000
0100
1000
0000
0110
0000
1001
0000
,
0010
0000
0010
0001
0000
0001
1000
0000
,
1000
0100
0010
0000
0011
0000
0110
0000
,
0001
0010
0100
0000
1000
0100
0010
0000
,
0001
0100
1000
0000
0001
0010
0100
0000
,
2000
0000
0000
0000
,
0000
0002
0000
0000
,
0000
3003
0000
0000
;

//---------------dance-double - ----------------
#NOTEDATA:;
#CHARTNAME:;
#STEPSTYPE:dance-double;
#DESCRIPTION:;
#CHARTSTYLE:;
#DIFFICULTY:Easy;
#METER:6;
#RADARVALUES:0.299465,0.373839,0.078807,0.370391,0.000000,266.000000,256.000000,10.000000,47.000000,0.000000,0.000000,0.000000,0.000000,0.000000,0.299465,0.373839,0.078807,0.370391,0.000000,266.000000,256.000000,10.000000,47.000000,0.000000,0.000000,0.000000,0.000000,0.000000;
#CREDIT:;
#NOTES:
00000000
00000000
00000000
00000000
,
00000000
00000000
00000000
00000000
,
00000000
00000000
00000000
00000000
,
00000000
00000000
00000000
00000000
,
00000000
00000000
00000000
00000000
,
00000000
00000000
00000000
00000000
,
20020000
00000000
00000000
00000000
,
30030000
00000000
00000000
00000000
,
00200000
00000000
00000000
00000000
,
00302000
00000000
00023000
00000000
,
00030010
00001000
00000100
00000001
,
00000100
00001000
00010000
01000000
,
10000000
01000000
00100000
00001000
,
00020000
00030100
00002000
00013000
,
00020000
00030100
00002000
00013000
,
00010000
00000100
00002002
00003003
,
00001000
00001000
00000100
00000010
,
00000001
00000001
00000100
00001000
,
00010000
00010000
01000000
10000000
,
01000000
01000000
10000000
00100000
,
01000000
01000000
10000000
01000000
,
00010000
00010000
00001000
00000100
,
00000001
00000001
00000100
00001000
,
00010000
01000000
10000000
10010000
,
10000000
01000000
00010000
00001000
,
00000100
00001000
00010000
00001000
,
00100000
00001000
00100000
01000000
,
00100000
10000000
01000000
00010000
,
01000000
00011000
00010000
00001000
,
00000100
00011000
00001000
00010000
,
01000000
01000000
00100000
00100000
,
10000000
01000000
00010000
00100000
,
20000000
00000000
30000000
01000000
,
00020000
00030000
20000000
30000000
,
00020000
00030000
10000000
01000000
,
00200000
00300000
00001000
00010000
,
00000020
00000030
00000001
00000100
,
00002000
00003000
00010000
01000000
,
20000000
30000000
01000000
00100000
,
20020000
30030000
10000000
01000000
,
00200000
00001000
00001000
00301000
,
00010000
00000100
00001000
00000001
,
00000200
00000010
00000010
00000310
,
00002000
00000100
00003100
00010000
,
00002000
00100000
00100000
00103000
,
00020000
00030000
20000000
30000000
,
02200000
00000000
00000000
03300000
,
10000000
01000000
00100000
00000000
,
20020000
00000000
00000000
30030000
,
10000000
01000000
00010000
00001000
,
00000200
00000000
00000000
00000300
,
00000001
00000100
00001000
00010000
,
02000000
00100000
00000000
03100000
,
10000000
01000000
00010000
01000000
,
10000000
00010000
10000000
00010000
,
10000000
00000000
01000000
00000000
,
00010000
00000000
00001000
00000000
,
00000100
00000001
00000100
00001000
,
00000010
00000010
00000100
00000100
,
00002002
00000000
00003003
00000000
,
00000001
00000000
00000100
00001000
,
00010000
00000000
01000000
00010000
,
00001000
00000000
00011000
00000000
,
01000000
00100000
10000000
00010000
,
01000000
01000000
00100000
00100000
,
10000000
01000000
00200000
00300000
,
00001000
00001000
00010000
00010000
,
00000010
00001000
00000100
00000001
,
00000010
00000010
00000001
00000001
,
00000100
00000100
00002000
00003000
,
00010000
00010000
00100000
00100000
,
10000000
10000000
02000000
03000000
,
00010000
00010000
00001000
00001000
,
00000100
00000100
00001000
00001000
,
00010000
00010000
01000000
01000000
,
00100000
10000000
01000000
00100000
,
00020000
00030000
10000000
01000000
,
00200000
00300000
00001000
00010000
,
00000020
00000030
00000100
00000001
,
00002000
00003000
00000100
00010000
,
00002000
00003000
00100000
00100000
,
00020000
00030000
01000000
01000000
,
10000000
01000000
00200000
00300000
,
00001000
00010000
00000100
00000000
,
00020000
00000000
00000000
00000000
,
00000000
00002000
00000000
00000000
,
00000000
00033000
00000000
00000000
;

//---------------dance-single - ----------------
#NOTEDATA:;
#CHARTNAME:;
#STEPSTYPE:dance-single;
#DESCRIPTION:;
#CHARTSTYLE:;
#DIFFICULTY:Easy;
#METER:6;
#RADARVALUES:0.311849,0.373839,0.102449,0.346749,0.000000,277.000000,264.000000,13.000000,44.000000,0.000000,0.000000,0.000000,0.000000,0.000000,0.311849,0.373839,0.102449,0.346749,0.000000,277.000000,264.000000,13.000000,44.000000,0.000000,0.000000,0.000000,0.000000,0.000000;
#CREDIT:;
#NOTES:
0000
0000
0000
0000
,
0000
0000
0000
0000
,
0000
0000
0000
0000
,
0000
0000
0000
0000
,
0000
0000
0000
0000
,
0000
0000
0000
0000
,
2002
0000
0000
0000
,
3003
0000
0000
0000
,
0020
0000
0000
0000
,
0230
0000
0302
0000
,
0013
1000
0100
0001
,
0100
1000
0001
0100
,
1000
0100
0010
0001
,
2000
3100
0020
0031
,
0002
0013
0200
1300
,
0010
0100
2002
3003
,
1000
1000
0100
0010
,
0001
0001
0010
0100
,
1000
1000
0100
0001
,
0010
0010
0100
1000
,
0001
0100
1000
0100
,
0001
0010
1000
0010
,
0001
0100
1000
0010
,
0001
0100
1000
1001
,
1000
0100
0001
0100
,
1000
1000
0001
0001
,
0010
0010
1001
0100
,
1000
0001
1000
1001
,
0100
0001
0100
0010
,
0100
1000
0100
0010
,
0100
0001
0010
1000
,
0001
0001
0010
0100
,
2000
0000
3000
0100
,
0002
0003
2000
3000
,
0002
0003
1000
0100
,
0020
0030
0001
0010
,
0200
0300
1000
0100
,
0002
0003
1000
0100
,
0020
0030
0001
0010
,
2002
3003
1000
0100
,
0020
0100
0100
0130
,
0001
0010
0100
1000
,
0020
0100
0100
0130
,
0002
0010
0013
0100
,
2000
0010
0010
3010
,
0002
0003
2000
3000
,
0220
0000
0000
0330
,
1000
0100
0010
0000
,
2002
0000
0000
3003
,
1000
0100
0001
0100
,
2000
0000
0000
3000
,
0001
0100
1000
0100
,
0002
0100
0000
0013
,
0001
0100
1000
0100
,
0001
1000
0001
1000
,
1001
0000
0110
0000
,
1001
0000
0110
0000
,
0010
0010
0001
0100
,
1000
0100
0010
0001
,
2002
0000
3003
0000
,
0001
0000
0001
1000
,
0100
0100
1000
0001
,
0010
0010
0001
1000
,
0100
1000
0001
0010
,
0100
1000
0100
0001
,
0100
1000
0020
0030
,
0100
0001
0010
0001
,
0100
1000
0020
0030
,
0001
0001
0100
0100
,
1000
1000
0001
1000
,
0001
0001
0010
0010
,
1000
1000
0200
0310
,
0001
0001
0010
0010
,
0100
0100
1000
0001
,
0100
0100
0100
0100
,
0010
0010
0010
0010
,
0002
0003
1000
0100
,
0020
0030
0100
1000
,
0002
0003
1000
0100
,
0020
0030
0001
0100
,
0010
0010
0100
0100
,
0001
1000
0100
0100
,
1000
0001
0010
0100
,
1000
0100
0010
0001
,
2000
0000
0000
0000
,
0000
0002
0000
0000
,
0000
3003
0000
0000
;

//---------------dance-single - ----------------
#NOTEDATA:;
#CHARTNAME:;
#STEPSTYPE:dance-single;
#DESCRIPTION:;
#CHARTSTYLE:;
#DIFFICULTY:Beginner;
#METER:3;
#RADARVALUES:0.157613,0.237897,0.023642,0.063045,0.000000,140.000000,137.000000,3.000000,8.000000,0.000000,0.000000,0.000000,0.000000,0.000000,0.157613,0.237897,0.023642,0.063045,0.000000,140.000000,137.000000,3.000000,8.000000,0.000000,0.000000,0.000000,0.000000,0.000000;
#CREDIT:;
#NOTES:
0000
0000
0000
0000
,
0000
0000
0000
0000
,
0000
0000
0000
0000
,
0000
0000
0000
0000
,
0000
0000
0000
0000
,
0000
0000
0000
0000
,
1001
0000
0000
0000
,
0000
0000
0000
0000
,
0000
0000
0000
0000
,
0000
0000
0000
0000
,
0000
1000
0000
1000
,
0000
0001
0000
0001
,
0000
1000
0000
0001
,
0002
0000
0003
0000
,
2000
0000
3000
0000
,
0020
0000
0030
0000
,
1000
0000
1000
0000
,
0001
0000
0001
0000
,
1000
0000
0100
0000
,
0010
0000
0001
0000
,
1000
0000
1000
0000
,
0001
0000
0001
0000
,
0100
0000
0100
0000
,
0010
0000
0010
0000
,
1000
0000
1000
0000
,
0001
0000
0001
0000
,
0100
0000
0100
0000
,
0010
0000
0010
0000
,
0100
0000
0100
0000
,
0001
0000
0001
0000
,
1000
0000
1000
0000
,
0001
0000
0001
0000
,
0001
0000
0000
0000
,
1000
0000
1000
0000
,
1000
0000
0000
0000
,
0010
0000
0000
0000
,
0100
0000
0000
0000
,
0010
0000
0010
0000
,
0010
0000
0000
0000
,
1001
0000
0000
0000
,
0010
0000
0000
0000
,
0001
0000
0001
0000
,
0010
0000
0000
0000
,
1000
0000
0100
0000
,
1000
0000
0000
0000
,
0001
0000
1000
0000
,
0010
0000
0010
0000
,
0100
0000
0100
0000
,
0100
0000
0000
0000
,
1000
1000
1000
0000
,
1000
0000
0000
0000
,
0001
0001
0001
0000
,
0001
0000
0000
0000
,
0100
0000
0000
0000
,
1000
0000
1000
0000
,
0001
0000
0001
0000
,
1000
0000
1000
0000
,
0002
0000
0003
0000
,
2000
0000
3000
0000
,
0020
0000
0030
0000
,
0001
0000
0001
0000
,
1000
0000
1000
0000
,
0010
0000
0010
0000
,
0100
0000
0100
0000
,
0010
0000
0100
0000
,
0010
0000
0100
0000
,
0001
0000
0010
0000
,
0100
0000
1000
0000
,
0001
0000
0100
0000
,
1000
0000
0001
0000
,
0001
0000
0010
0000
,
1000
0000
0100
0000
,
0001
0000
0010
0000
,
0100
0000
1000
0000
,
0100
0100
0100
0000
,
0010
0010
0010
0000
,
0001
0000
1000
0000
,
0010
0000
0100
0000
,
0001
0000
1000
0000
,
0010
0000
0001
0000
,
0010
0010
0010
0000
,
0100
0100
0100
0000
,
1000
0000
0001
0000
,
0100
0000
0010
0000
,
2002
0000
0000
0000
,
0000
0000
0000
0000
,
0000
3003
0000
0000
;

//---------------dance-double - ----------------
#NOTEDATA:;
#CHARTNAME:;
#STEPSTYPE:dance-double;
#DESCRIPTION:;
#CHARTSTYLE:;
#DIFFICULTY:Hard;
#METER:14;
#RADARVALUES:0.646214,0.747677,0.047284,0.267942,0.433436,574.000000,568.000000,6.000000,34.000000,0.000000,0.000000,0.000000,0.000000,0.000000,0.646214,0.747677,0.047284,0.267942,0.433436,574.000000,568.000000,6.000000,34.000000,0.000000,0.000000,0.000000,0.000000,0.000000;
#CREDIT:;
#NOTES:
00000000
00000000
00000000
00000000
,
00000000
00000000
00000000
00000000
,
00000000
00000000
00000000
00000000
,
00000000
00000000
00000000
00000000
,
00000000
00000000
00000000
00000000
,
00000000
00000000
00000000
00000000
,
20020000
00000000
00000000
00030000
,
02000000
00000000
00000000
30000000
,
00020000
00000000
00000000
03000000
,
00002000
00030000
00000200
00003300
,
00000001
00000000
00000100
00000000
00001000
00000000
00010000
01000000
,
10000000
00000000
01000000
00000000
00010000
00000000
00001000
00000100
,
00000001
00000000
00000100
00000000
00001000
00010000
01000000
10000000
,
00010000
00000000
10000000
00000000
01000000
00010000
10000000
00000000
,
00100000
00000000
00000000
00100000
00000000
00000000
10000000
00000000
00000000
01000000
00000000
00000000
00010000
00000000
00000000
00000000
,
00001000
00000010
00000100
00000002
00002000
00000000
00003003
00000000
,
00000001
00000010
00000000
00000001
00000010
00000000
00000100
00001000
00000000
00000100
00001000
00000000
00000100
00000000
00010000
00000000
,
00001000
00010000
00000000
00001000
00010000
00000000
00000100
00010000
00000000
00000100
00010000
00000000
00001000
00000000
00100000
00000000
,
00010000
01000000
00000000
00010000
01000000
00000000
00100000
10000000
00000000
00100000
10000000
00000000
01000000
00000000
00010000
00000000
,
00100000
00010000
00000000
00100000
00010000
00000000
00001000
00010000
00000000
00001000
00010000
00000000
00000100
00000000
00001000
00000000
,
00000010
00000100
00000000
00000010
00000100
00000000
00000001
00001000
00000000
00000001
00001000
00000000
00000001
00000000
00000100
00000000
,
00000010
00001000
00000000
00000010
00001000
00000000
00000001
00000100
00000000
00000001
00000100
00000000
00000010
00000000
00001000
00000100
,
00001000
00000100
00000000
00001000
00000100
00000000
00000010
00000001
00000000
00000010
00000001
00000000
00000100
00000000
00001000
00000000
,
00010000
01000000
10000000
01000000
00100000
01000000
10000000
00010000
,
10000000
00100000
00000000
10000000
00100000
00000000
01000000
00010000
00000000
01000000
00010000
00000000
10000000
00000000
01000000
00000000
,
00100000
00010000
00000000
00100000
00010000
00000000
00001000
00010000
00000000
00001000
00010000
00000000
00000100
00000000
00001000
00000000
,
00000001
00000100
00000000
00000001
00000100
00000000
00000010
00001000
00000000
00000010
00001000
00000000
00000100
00000000
00010000
00000000
,
00001000
00100000
00000000
00001000
00100000
00000000
00010000
01000000
00000000
00010000
01000000
00000000
00010000
00000000
10000000
00000000
,
01000000
00100000
00000000
01000000
00100000
00000000
10000000
00010000
00000000
10000000
00010000
00000000
10000000
00000000
00100000
00000000
,
01000000
00010000
00000000
01000000
00010000
00000000
00100000
00001000
00000000
00100000
00001000
00000000
00100000
00000000
00010000
01000000
,
00010000
01000000
00000000
00010000
01000000
00000000
00100000
10000000
00000000
00100000
10000000
00000000
00100000
00000000
10000000
00000000
,
01000000
00000000
00010000
00000000
00001000
00000000
00000100
00000000
00000001
00000000
00000100
00000000
00000001
00001000
00000001
00001000
,
00000002
00000000
00000000
00000000
00000010
00000000
00000000
00000000
00000100
00000000
00000000
00000000
00001003
00000000
00000001
00001000
,
00000002
00000103
00002000
00003100
,
00020000
00000000
00000000
00000000
00000100
00000000
00000000
00000000
00031000
00000000
00000000
00000000
00001000
00000000
00100000
00010000
,
00200000
00000000
00000000
00000000
00310000
00000000
00000000
00000000
10000000
00000000
00000000
01000000
00000000
00000000
00100000
00010000
,
00200000
00000000
00000000
00000000
00001000
00000000
00000000
00000000
00010000
00000000
00000000
00000000
00301000
00000000
00010000
00001000
,
00020000
00030100
00002000
00003001
,
00000020
00000000
00000000
00000000
00000001
00000000
00000000
00000000
00000100
00000000
00000000
00000000
00000031
00000000
00001000
00000001
,
00002000
00000000
00000000
00000000
00003010
00000000
00000000
00000000
00001000
00000000
00000000
00000100
00000000
00000000
00010000
00001000
,
00020000
00000000
00000000
00000000
00000100
00000000
00000000
00000000
00031000
00000000
00010000
00000000
00001000
00000000
00100000
00001000
,
00200000
00310000
20000000
31000000
,
00020000
00000000
00000000
00000000
00031000
00000000
00000000
00000000
00000010
00000000
00001000
00000000
00000001
00000000
00001000
00000001
,
00002000
00000000
00000000
00000000
00003010
00000000
00000000
00000000
00000001
00000000
00000000
00000100
00000000
00000000
00001000
00000000
,
00010000
00000000
00001000
00000000
00010000
00000000
00001000
00000000
00100000
00000000
00010000
00000000
10000000
00000000
01000000
00100000
,
00010000
00100000
01000000
10000000
00010000
00100000
00001000
00010000
,
00000200
00001000
00001000
00001300
00000020
00001000
00001000
00001030
,
00000002
00000100
00000100
00000103
00000020
00000100
00000100
00000130
,
00000220
00000000
00000000
00000330
,
00000001
00000100
00000000
00000001
00000100
00000000
00000010
00001000
00000000
00000010
00001000
00000000
00000100
00001000
00000100
00001000
,
00000002
00000000
00000000
00000003
,
00001000
00000100
00000000
00001000
00000100
00000000
00010000
00001000
00000000
00010000
00001000
00000000
00100000
00000000
00010000
00000000
,
10000000
01000000
00000000
10000000
01000000
00000000
00010000
00000000
00000000
00001000
00000000
00000000
00000100
00000000
00000001
00000100
,
00000001
00000100
00000000
00000001
00000100
00000000
00001000
00000000
00000000
00010000
00000000
00000000
00001000
00000000
00100000
00010000
,
00100000
00000000
00000000
00010000
00000000
00000000
01000000
00000000
00000000
10000000
00000000
00000000
01000000
00000000
00010000
00000000
,
10000000
00000000
00100000
10000000
00000000
00100000
10000000
00000000
00010000
00000000
01000000
00010000
00000000
01000000
00010000
00000000
,
00100000
00000000
00001000
00010000
00000000
00001000
00010000
00000000
00000010
00000000
00001000
00000001
00000000
00001000
00000001
00000000
,
00000100
00000010
00000000
00000100
00000010
00000000
00001000
00000001
00000000
00001000
00000001
00000000
00001000
00000000
00000001
00000000
,
00000100
00001000
00010000
01000000
10000000
00100000
01000000
00010000
,
10000000
01000000
00100000
00010000
00100000
01000000
20000000
00000000
00000000
30010000
00000000
00000000
,
10000000
01000000
00010000
00001000
00010000
00000010
00001000
00000001
,
00000100
00001000
00010000
01000000
00100000
01000000
10000000
01000000
,
00010000
00001000
00010000
00000010
00001000
00000001
00001000
00000100
,
00010000
00001000
01000000
00010000
01000000
10000000
01000000
00010000
,
10000000
01000000
00010000
00001000
00000100
00001000
00010000
01000000
,
10000000
00100000
00010000
00001000
00010000
00100000
10000000
01000000
,
00100000
01000000
10000000
00010000
00100000
00001000
00010000
00000010
,
00001000
00000100
00000010
00000001
00000100
00000010
00001000
00000100
,
00000020
00000000
00000031
00000100
00001000
00010000
01000000
00000000
,
10000000
01000000
00010000
00001000
00000100
00000000
00001001
00000000
,
00000010
00000000
00010000
00001000
01000000
00010000
10000000
00000000
,
01000000
00010000
00001000
00010000
00000100
00000000
00001001
00000000
,
00000010
00000000
00001000
00000100
00010000
00001000
01000000
00000000
,
10000000
00010000
00100000
00001000
00010000
00000000
00000100
00000000
,
00001000
00000100
00000010
00000001
00000100
00001000
00010000
01000000
,
10000000
01000000
00100000
00010000
00100000
10000000
00100000
01000000
,
10000000
00000000
00010000
01000000
10000000
01000000
00010000
00000000
,
00001000
00010000
01000000
00010000
00001000
00000000
00011000
00000000
,
00001100
00000000
00000001
00000010
00001000
00000010
00000001
00000000
,
00000010
00001000
00010000
00001000
00000010
00001000
00010000
00000000
,
00001000
00000000
00100000
00010000
01000000
10000000
01000000
00010000
,
00100000
01000000
10000000
01000000
00100000
00010000
01000000
00000000
,
10000000
01000000
00010000
01000000
10000000
01000000
00010000
00001000
,
00000100
00000001
00000100
00001000
00000100
00001000
00010000
01000000
,
10000000
01000000
00100000
00010000
01000000
00200000
00000000
00000000
,
00000000
02000000
00000000
00000000
,
00000000
03300000
00000000
00000000
;

//---------------dance-single - ----------------
#NOTEDATA:;
#CHARTNAME:;
#STEPSTYPE:dance-single;
#DESCRIPTION:;
#CHARTSTYLE:;
#DIFFICULTY:Hard;
#METER:14;
#RADARVALUES:0.657472,0.747677,0.086687,0.267942,0.468899,584.000000,573.000000,11.000000,34.000000,0.000000,0.000000,0.000000,0.000000,0.000000,0.657472,0.747677,0.086687,0.267942,0.468899,584.000000,573.000000,11.000000,34.000000,0.000000,0.000000,0.000000,0.000000,0.000000;
#CREDIT:;
#NOTES:
// measure 0
0000
0000
0000
0000
,  // measure 1
0000
0000
0000
0000
,  // measure 2
0000
0000
0000
0000
,  // measure 3
0000
0000
0000
0000
,  // measure 4
0000
0000
0000
0000
,  // measure 5
0000
0000
0000
0000
,  // measure 6
2002
0000
0000
0003
,  // measure 7
0200
0000
0000
3000
,  // measure 8
0020
0000
0000
0300
,  // measure 9
0032
0000
2000
3003
,  // measure 10
1000
0000
0000
1000
0000
0000
0100
0000
0000
0001
0000
0000
0010
0000
0100
0000
,  // measure 11
1000
0000
0000
1000
0000
0000
0001
0000
0000
0100
0000
0000
1000
0000
0010
0000
,  // measure 12
0100
0000
0000
0100
0000
0000
1000
0000
0000
0001
0000
0000
0100
0000
1000
0000
,  // measure 13
0001
0000
0000
1000
0000
0000
0100
0000
0000
0010
0000
0000
0001
0000
1000
0000
,  // measure 14
0010
0000
0000
0010
0000
0000
1000
0000
0000
0100
0000
0000
0001
0000
0010
0000
,  // measure 15
0100
1000
0100
0020
0002
0000
0033
0000
,  // measure 16
1000
0100
0000
1000
0100
0000
0010
0001
0000
0010
0001
0000
1000
0000
0001
0000
,  // measure 17
0100
0001
0000
0100
0001
0000
1000
0010
0000
1000
0010
0000
1000
0000
0001
0000
,  // measure 18
0100
0010
0000
0100
0010
0000
1000
0010
0000
1000
0010
0000
0100
0000
0001
0000
,  // measure 19
0010
0001
0000
0010
0001
0000
1000
0010
0000
1000
0010
0000
0100
0000
0001
0000
,  // measure 20
1000
0001
0000
1000
0001
0000
1000
0100
0000
1000
0100
0000
0010
0000
0001
0000
,  // measure 21
0100
0010
0000
0100
0010
0000
1000
0001
0000
1000
0001
0000
1000
0000
0010
0100
,  // measure 22
0010
0100
0000
0010
0100
0000
0001
1000
0000
0001
1000
0000
0001
0000
0100
0000
,  // measure 23
0001
0100
0000
0001
0100
0000
0010
1000
0000
0010
1000
0000
0001
0000
0100
0000
,  // measure 24
0010
1000
0000
0010
1000
0000
0100
0001
0000
0100
0001
0000
1000
0000
0100
0000
,  // measure 25
0010
0001
0000
0010
0001
0000
0100
0010
0000
0100
0010
0000
1000
0000
0001
0000
,  // measure 26
1000
0010
0000
1000
0010
0000
0001
0100
0000
0001
0100
0000
0001
0000
1000
0000
,  // measure 27
0010
0100
0000
0010
0100
0000
0001
0100
0000
0001
0100
0000
0001
0000
1000
0000
,  // measure 28
0001
0010
0000
0001
0010
0000
0100
1000
0000
0100
1000
0000
0001
0000
1000
0000
,  // measure 29
0001
0100
0000
0001
0100
0000
0010
1000
0000
0010
1000
0000
0010
0000
0100
0010
,  // measure 30
0100
0010
0000
0100
0001
0000
0100
0001
0000
1000
0010
0000
1000
0000
0010
0000
,  // measure 31
0100
0010
0000
0100
0010
0000
1000
0000
0001
0000
0010
0000
0100
0010
0100
0010
,  // measure 32
0200
0000
0000
0000
0010
0000
0000
0000
0001
0000
0000
0000
0310
0000
0100
0010
,  // measure 33
0200
0301
2000
3100
,  // measure 34
0020
0000
0000
0000
0001
0000
0000
0000
0100
0000
0000
0000
0031
0000
0010
0001
,  // measure 35
0020
0000
0000
0000
0031
0000
0000
0000
1000
0000
0000
0100
0000
0000
0010
0001
,  // measure 36
0020
0000
0000
0000
0001
0000
0000
0000
0001
0000
0000
0000
0031
0000
0100
0010
,  // measure 37
0200
0310
2000
3001
,  // measure 38
0200
0000
0000
0000
1000
0000
0000
0000
0010
0000
0000
0000
1300
0000
0001
1000
,  // measure 39
0002
0000
0000
0000
0103
0000
0000
0000
0010
0000
0000
1000
0000
0000
0001
1000
,  // measure 40
0002
0000
0000
0000
0100
0000
0000
0000
0013
0000
1000
0000
0010
0000
0100
0010
,  // measure 41
0200
0301
2000
3100
,  // measure 42
0020
0000
0000
0000
0031
0000
0000
0000
0100
0000
0010
0000
1000
0000
0001
1000
,  // measure 43
0002
0000
0000
0000
0103
0000
0000
0000
0001
0000
0000
0010
0000
0000
0100
0000
,  // measure 44
1000
0000
0001
0000
1000
0000
0100
0000
0010
0000
0001
0000
1000
0000
0100
0010
,  // measure 45
0001
0010
0100
1000
0001
0010
0100
0010
,  // measure 46
0002
1000
1000
1003
0020
0100
0100
0130
,  // measure 47
0002
0010
0010
0013
0200
1000
1300
0000
,  // measure 48
2002
0000
0000
3003
,  // measure 49
1000
0100
0000
1000
0100
0000
0010
0001
0000
0010
0001
0000
0100
0000
0010
0000
,  // measure 50
2002
0000
0000
3003
,  // measure 51
0001
0010
0000
0001
0010
0000
0100
1000
0000
0100
1000
0000
0010
0000
0100
0000
,  // measure 52
0001
1000
0000
0001
1000
0000
0001
0000
0010
0000
0100
0000
1000
0000
0100
0000
,  // measure 53
0010
0001
0000
0010
0001
0000
1000
0000
0100
0000
0010
0000
0001
0000
1000
0001
,  // measure 54
1000
0000
0000
0001
0000
0000
0100
0000
0000
1000
0000
0000
0100
0000
0001
0000
,  // measure 55
1000
0000
0010
1000
0000
0010
1000
0000
0001
0000
0100
0001
0000
0100
0001
0000
,  // measure 56
0010
0000
0001
1000
0000
0001
1000
0000
0010
0000
1000
0001
0000
1000
0001
0000
,  // measure 57
1000
0100
0000
1000
0100
0000
0010
0001
0000
0010
0001
0000
1000
0000
0100
0000
,  // measure 58
0010
0001
0100
1000
0100
0001
0010
0100
,  // measure 59
1000
0100
0010
0001
0010
0100
2000
0000
0000
3001
0000
0000
,  // measure 60
1000
0100
0010
0001
0001
0010
0100
1000
,  // measure 61
0001
0010
0100
1000
1000
0100
0010
0001
,  // measure 62
1000
0100
0001
0100
1000
0010
0001
0010
,  // measure 63
1000
0100
0010
0001
0001
0010
0100
1000
,  // measure 64
0001
0010
1000
0010
0001
0100
1000
0100
,  // measure 65
0001
0010
0100
1000
1000
0100
0010
0001
,  // measure 66
1000
0010
1000
0001
0010
0001
1000
0100
,  // measure 67
0010
0001
0010
0100
1000
0001
0100
0000
,  // measure 68
0001
0100
1000
0100
0001
0000
1000
0010
,  // measure 69
0001
0010
1000
0000
0110
0000
1001
0000
,  // measure 70
1000
0100
0001
0100
1000
0000
0001
0010
,  // measure 71
1000
0010
0001
0000
0110
0000
1001
0000
,  // measure 72
0001
0010
0100
0010
0001
0000
1000
0100
,  // measure 73
0010
0100
1000
0000
0011
0000
1100
0000
,  // measure 74
0001
0010
0100
1000
0100
0001
0100
1000
,  // measure 75
0100
0010
0001
0010
1000
0010
0001
0100
,  // measure 76
1000
0000
0001
0100
0010
0100
0001
0000
,  // measure 77
1000
0100
0010
0001
0010
0100
1000
0000
,  // measure 78
1001
0000
0010
1000
0100
1000
0010
0000
,  // measure 79
0001
0010
0100
1000
0100
0010
0001
0000
,  // measure 80
0110
0000
0010
0001
0100
1000
0100
0001
,  // measure 81
0010
0100
1000
0100
0010
0001
0100
0000
,  // measure 82
1000
0100
0001
0100
1000
0010
0001
0010
,  // measure 83
1000
0100
0010
0001
0010
0100
1000
0100
,  // measure 84
0001
0100
1000
0100
0010
0002
0000
0000
,  // measure 85
0000
2000
0000
0000
,  // measure 86
0000
3003
0000
0000
;
