#VERSION:0.83;
#TITLE:BENJAMIN;
#SUBTITLE:;
#ARTIST:MARON (IOSYS);
#TITLETRANSLIT:;
#SUBTITLETRANSLIT:;
#ARTISTTRANSLIT:;
#GENRE:;
#ORIGIN:;
#CREDIT:;
#BANNER:BENJAMIN.png;
#BACKGROUND:BENJAMIN-bg.png;
#PREVIEWVID:;
#JACKET:BENJAMIN-jacket.png;
#CDIMAGE:;
#DISCIMAGE:;
#LYRICSPATH:;
#CDTITLE:;
#MUSIC:BENJAMIN.ogg;
#OFFSET:-0.200000;
#SAMPLESTART:74.712830;
#SAMPLELENGTH:12.000000;
#SELECTABLE:YES;
#BPMS:0.000=132.000;
#STOPS:;
#DELAYS:;
#WARPS:;
#TIMESIGNATURES:0.000=4=4;
#TICKCOUNTS:0.000=4;
#COMBOS:0.000=1;
#SPEEDS:0.000=1.000=0.000=0;
#SCROLLS:0.000=1.000;
#FAKES:;
#LABELS:0.000=Song Start;
#BGCHANGES:;
#KEYSOUNDS:;
#ATTACKS:
;

//---------------dance-single - ----------------
#NOTEDATA:;
#CHARTNAME:;
#STEPSTYPE:dance-single;
#DESCRIPTION:;
#CHARTSTYLE:;
#DIFFICULTY:Hard;
#METER:13;
#RADARVALUES:0.572405,0.708351,0.408860,0.127201,0.322545,441.000000,396.000000,45.000000,14.000000,0.000000,0.000000,0.000000,0.000000,0.000000,0.572405,0.708351,0.408860,0.127201,0.322545,441.000000,396.000000,45.000000,14.000000,0.000000,0.000000,0.000000,0.000000,0.000000;
#CREDIT:;
#NOTES:
0000
0000
0000
0000
,
0000
0000
0000
0000
,
0000
0000
0000
0000
,
0000
0000
0000
0000
,
0000
0000
0000
0000
,
0001
1000
0001
1000
0001
0010
0100
1000
,
0010
0100
0010
0100
1000
0100
0010
0001
,
1000
0100
0010
0001
1000
0100
0010
0001
,
0011
0000
0001
0000
1100
0000
1000
0000
0000
0000
0010
0010
0100
0000
0000
0000
,
0001
0000
0100
0010
0000
0100
0010
0000
0110
0000
0010
0000
1010
0000
0010
0000
,
0100
0000
0001
0010
0000
0010
0001
0000
0000
0000
1000
0000
0100
0000
0010
0000
,
0001
0000
0100
0010
0000
0100
0010
0000
0110
0000
0100
0000
0101
0000
0100
0000
,
0010
0000
1000
0100
0000
0100
0010
0000
0001
0000
0100
0001
0100
0000
0010
0000
,
1000
0000
0001
0100
0000
0001
0100
0000
0101
0000
0001
0000
1001
0000
0001
0000
,
0100
0000
0010
1000
0000
1000
0100
0000
0010
0000
0001
0000
0100
0000
0010
0000
,
1000
0000
0010
1000
0000
0010
1000
0000
1010
0000
0010
0000
0110
0000
0010
0000
,
1000
0000
0010
0100
0000
0100
0010
0000
1000
0010
1000
0000
1001
0000
0000
0000
,
0002
0000
0103
0010
1010
1000
1001
1000
,
0010
0000
1000
0010
0000
1000
0010
0000
1000
0000
0100
0000
0010
0000
0001
0000
,
0100
0000
0010
0100
0000
0010
0100
0000
0110
0000
0100
0000
0101
0000
0100
0000
,
0010
0000
1000
0100
0000
1000
0100
0000
0000
0000
1000
0000
0001
0000
0100
0000
,
0110
0000
1010
0100
1001
0000
0011
0100
,
1001
0000
0110
0001
0110
0000
1010
0010
,
1010
1010
0101
0101
1100
1100
0011
0011
,
0200
0000
0000
0000
0000
0000
0010
0310
,
2001
0000
0000
0000
0000
0000
0000
0000
0010
0000
0000
0010
0000
0000
0010
0000
,
3020
0000
0000
0000
0000
0000
0000
0000
0100
0000
0000
0100
0000
0000
0100
0000
,
0230
0000
0000
0000
0000
0000
0000
0000
0001
0000
0000
0001
0000
0000
0001
0000
,
0302
0000
0000
0000
0000
0000
0000
0000
1000
0000
0000
1000
0000
0000
1003
0001
,
2000
0000
0000
0000
0000
0000
3010
1000
0010
0000
0000
0100
0000
0000
0010
0000
,
1020
0000
0000
0000
0000
0000
1030
0100
1000
0000
0000
1000
0000
0000
0010
0000
,
2010
0000
0000
0000
0000
0000
3001
0100
0001
0000
0000
0100
0000
0000
0010
0000
,
2000
0000
0000
0000
0000
0000
0000
0000
0001
0000
0000
0001
0000
0000
3001
0000
,
0100
0000
0000
0100
0010
0000
0000
0010
1000
0000
0000
1000
0100
0000
0000
0100
,
0001
0000
0000
0001
0010
0000
0000
0010
0100
0000
1000
0000
0100
0000
0010
0000
,
0001
0000
0000
0001
1000
0000
0000
1000
0100
0000
0000
0100
0010
0000
0000
0010
,
0001
0000
0000
0001
0100
0000
0000
0100
0010
0000
1000
0000
0100
0000
0010
0000
,
0001
0000
0000
0001
0100
0000
0010
0000
1000
0000
1000
0000
0001
0000
0001
0000
,
1000
0000
0000
0010
0100
0000
0010
0000
1000
0000
1000
0000
0001
0000
0001
0000
,
1000
0001
1000
0001
0100
0010
0100
0010
,
0110
0010
1010
0010
0100
0000
1001
0000
,
0001
0000
0000
0001
0010
0000
0001
0000
1000
0000
0100
0000
0010
0000
0001
0000
,
0100
0000
0000
0001
0100
0000
0001
0000
0010
0000
0100
0010
0100
0000
0010
0000
,
0001
0000
0000
0001
1000
0000
0010
0000
0100
0000
0100
0000
0010
0000
1000
0000
,
0001
0000
0000
0001
0010
0000
0100
0000
1000
0000
0100
1000
0100
0000
0000
0000
,
1000
0000
0000
1000
0010
0000
1000
0000
0100
0000
0010
0000
0100
0000
1000
0000
,
0001
0000
0000
0001
0010
0000
0001
0000
0100
0000
0010
0100
0010
0000
1000
0000
,
0001
0000
0000
0001
0010
0000
0001
0000
1000
0000
0100
0000
0010
0000
0001
0000
,
0200
0310
0002
1003
2002
0000
3003
0000
,
0110
0000
0000
0010
1000
0000
0100
0000
0010
0000
0001
0000
0010
0000
0100
0000
,
1000
0000
0000
1000
0010
0000
1000
0000
0001
0000
0100
0010
0100
0000
0001
0000
,
1000
0000
0000
0001
0010
0000
0001
0000
1000
0000
1000
0000
0001
0000
0001
0000
,
0100
0000
0000
0010
0100
0000
0001
0000
1000
0000
0100
1000
0100
0000
1000
0000
,
0010
0000
0000
0010
0100
0000
0001
0000
1000
0000
0100
0000
0010
0000
0001
0000
,
0100
0000
0000
0100
0010
0000
1000
0000
0100
0000
0010
0000
0001
0000
0100
0000
,
0010
0000
1010
0101
1000
0000
0101
1010
,
0001
0001
0100
0010
1000
1000
0010
0100
,
0001
0100
1000
0000
1000
0100
0001
0000
1000
0000
0110
0000
1001
0000
0000
0000
;

//---------------dance-double - ----------------
#NOTEDATA:;
#CHARTNAME:;
#STEPSTYPE:dance-double;
#DESCRIPTION:;
#CHARTSTYLE:;
#DIFFICULTY:Hard;
#METER:12;
#RADARVALUES:0.520486,0.734586,0.381603,0.118115,0.218059,401.000000,359.000000,42.000000,13.000000,0.000000,0.000000,0.000000,0.000000,0.000000,0.520486,0.734586,0.381603,0.118115,0.218059,401.000000,359.000000,42.000000,13.000000,0.000000,0.000000,0.000000,0.000000,0.000000;
#CREDIT:;
#NOTES:
00000000
00000000
00000000
00000000
,
00000000
00000000
00000000
00000000
,
00000000
00000000
00000000
00000000
,
00000000
00000000
00000000
00000000
,
00000000
00000000
00000000
00000000
,
10000000
01000000
10000000
01000000
10000000
01000000
00010000
00000000
,
00001000
00000100
00001000
00000100
00000001
00000100
00001000
00000000
,
00010000
00010000
00001000
00001000
00010000
00001000
00010000
00001000
,
00100000
00000000
00100000
00000000
00100000
00000000
00100000
00000000
00000000
00000000
10000000
00010000
10000000
00000000
00000000
00000000
,
01000000
00000000
00000000
10000000
00000000
00000000
00100000
00000000
10000000
00000000
11000000
00000000
10000000
00000000
11000000
00000000
,
10000000
00000000
00000000
00100000
00000000
00000000
00010000
00000000
00000000
00000000
00001000
00000000
00000100
00000000
00000010
00000000
,
00000001
00000000
00000000
00000100
00000000
00000000
00000100
00000000
00000001
00000000
00000101
00000000
00000001
00000000
00000101
00000000
,
00000001
00000000
00000000
00000100
00000000
00000000
00001000
00000000
00000000
00000000
00010000
00000000
00100000
00000000
01000000
00000000
,
10000000
00000000
00000000
00100000
00000000
00000000
00100000
00000000
01000000
00000000
01100000
00000000
01000000
00000000
01100000
00000000
,
01000000
00000000
00000000
00010000
00000000
00000000
10000000
00000000
00000000
00000000
01000000
00000000
00010000
00000000
01000000
00000000
,
00100000
00000000
00000000
00001000
00000000
00000000
00001000
00000000
00010000
00000000
00011000
00000000
00010000
00000000
00011000
00000000
,
00020000
00000000
00030020
00000000
00000230
00000000
00000301
00000100
,
00001000
00000000
00000000
00010000
00000000
00000000
00010000
00000000
00001000
00000000
00011000
00000000
00001000
00000000
00011000
00000000
,
00001000
00000000
00000000
00100000
00000000
00000000
00100000
00000000
00000000
00000000
00010000
00000000
01000000
00000000
10000000
00000000
,
01000000
00000000
00000000
00100000
00000000
00000000
00100000
00000000
01000000
00000000
01010000
00000000
01000000
00000000
01010000
00000000
,
01000000
00000000
00000000
00001000
00000000
00000000
00001000
00000000
00000000
00000000
00010000
00000000
00001000
00000000
00000100
00000000
,
00000010
00000000
00000011
00000011
00000010
00000000
00001100
00001100
,
00001000
00000000
00011000
00011000
00010000
00000000
01010000
01010000
,
11000000
11000000
01010000
01010000
01100000
01100000
10010000
10010000
,
02000000
00000000
00000000
00000000
00000000
00000000
00100000
03100000
,
20000000
00000000
00000000
00000000
00000000
00000000
00000000
30000000
10000000
00000000
00000000
01000000
00000000
00000000
00010000
00000000
,
00002000
00000000
00000000
00000000
00000000
00000000
00000000
00003000
00001000
00000000
00000000
00010000
00000000
00000000
00100000
00000000
,
02000000
00000000
00000000
00000000
00000000
00000000
00000000
03000000
01000000
00000000
00000000
00010000
00000000
00000000
00001000
00000000
,
00000200
00000000
00000000
00000000
00000000
00000000
00000000
00000000
00001300
00000000
00000000
00000100
00000000
00000000
00000010
00000000
,
00000001
00000000
00000000
00000000
00000000
00000000
00000001
00000100
00000001
00000000
00000000
00000100
00000000
00000000
00001000
00000000
,
00010000
00000000
00000000
00000000
00000000
00000000
00001000
00010000
00001000
00000000
00000000
00100000
00000000
00000000
00010000
00000000
,
01000000
00000000
00000000
00000000
00000000
00000000
00100000
10000000
00100000
00000000
00000000
01000000
00000000
00000000
00010000
00000000
,
00200000
00000000
00000000
00000000
00000000
00000000
00000000
00000000
00001000
00000000
00000000
00001000
00000000
00000000
00301000
00000000
,
00100000
00000000
00000000
00100000
00010000
00000000
00000000
00010000
01000000
00000000
00100000
00000000
10000000
00000000
01000000
00000000
,
00100000
00000000
00000000
00100000
00010000
00000000
00000000
00010000
00001000
00000000
00010000
00000000
00000100
00000000
00001000
00000000
,
00000001
00000000
00000000
00000001
00000010
00000000
00000000
00000010
00001000
00000000
00000100
00000000
00010000
00000000
00001000
00000000
,
00100000
00000000
00000000
00100000
00010000
00000000
00000000
00010000
01000000
00000000
00100000
00000000
10000000
00000000
01000000
00000000
,
00100000
00000000
00000000
00100000
00001000
00000000
00000000
00001000
00010000
00000000
00000100
00000000
00001000
00000000
00000001
00000000
,
00000010
00000000
00000000
00000010
00001000
00000000
00000000
00001000
00000100
00000000
00010000
00000000
00001000
00000000
01000000
00000000
,
00100000
00100000
00100000
00100000
01000000
01000000
01000000
00100000
,
10000000
01000000
00010000
00001000
00000100
00000000
00001001
00000000
,
00000010
00000000
00000000
00000010
00000001
00000000
00000100
00000000
00001000
00000000
00001000
00000000
00000100
00000000
00000001
00000000
,
00001000
00000000
00000000
00001000
00000100
00000000
00010000
00000000
00001000
00000000
01000000
00000000
00100000
00000000
10000000
00000000
,
01000000
00000000
00000000
01000000
00010000
00000000
10000000
00000000
01000000
00000000
00010000
00000000
00001000
00000000
00000100
00000000
,
00000010
00000000
00000000
00000010
00000001
00000000
00000100
00000000
00000010
00000000
00001000
00000100
00001000
00000000
00000100
00000000
,
00010000
00000000
00000000
00010000
00001000
00000000
00010000
00000000
00001000
00000000
00100000
00000000
00010000
00000000
01000000
00000000
,
00100000
00000000
00000000
00100000
10000000
00000000
01000000
00000000
00100000
00000000
01000000
00000000
10000000
00000000
01000000
00000000
,
00010000
00000000
00001000
00000100
00000010
00000010
00000001
00000100
,
00000020
00000130
00000002
00001003
00002002
00000000
00003003
00000000
,
00000010
00000000
00001001
00000100
00001100
00001100
00000101
00000101
,
00000100
00000000
00000000
00000010
00000100
00000000
00000010
00000000
00000001
00000000
00000010
00000000
00000100
00000000
00001000
00000000
,
00010000
00000000
00000000
00001000
00010000
00000000
00001000
00000000
00100000
00000000
00110000
00000000
00110000
00000000
00010000
00000000
,
01000000
00000000
00000000
01000000
00100000
00000000
10000000
00000000
01000000
00000000
00100000
00010000
00100000
00000000
01000000
00000000
,
10000000
00000000
10000000
00100000
10000000
00000000
00100000
00000000
01000000
00000000
00010000
00000000
01000000
00000000
00010000
00000000
,
10000000
00000000
01000000
00000000
00010000
00000000
00001000
00000000
00000100
00001000
00000100
00000000
00000010
00000000
00000001
00000000
,
00000100
00000000
00001010
00000101
00001000
00000000
00000101
00001010
,
00000001
00000010
00000100
00000000
00010000
00100000
01000000
00000000
,
10000000
01000000
00010000
00001000
00000100
00000010
00001001
00000000
;

//---------------dance-double - ----------------
#NOTEDATA:;
#CHARTNAME:;
#STEPSTYPE:dance-double;
#DESCRIPTION:;
#CHARTSTYLE:;
#DIFFICULTY:Medium;
#METER:9;
#RADARVALUES:0.371219,0.445999,0.199887,0.218059,0.000000,286.000000,264.000000,22.000000,24.000000,0.000000,0.000000,0.000000,0.000000,0.000000,0.371219,0.445999,0.199887,0.218059,0.000000,286.000000,264.000000,22.000000,24.000000,0.000000,0.000000,0.000000,0.000000,0.000000;
#CREDIT:;
#NOTES:
// measure 0
00000000
00000000
00000000
00000000
,  // measure 1
00000000
00000000
00000000
00000000
,  // measure 2
00000000
00000000
00000000
00000000
,  // measure 3
00000000
00000000
00000000
00000000
,  // measure 4
00000000
00000000
00000000
00000000
,  // measure 5
10000000
00000000
01000000
00000000
00100000
00010000
01000000
00000000
,  // measure 6
10000000
00000000
01000000
00000000
00010000
00100000
00001000
00000000
,  // measure 7
00010000
00001000
00010000
00001000
00010000
00001000
00010000
00000000
,  // measure 8
00000100
00000100
00000100
00000100
00000000
00000000
00001001
00000000
,  // measure 9
00000010
00000000
00000101
00000000
00001000
00001000
00001000
00001000
,  // measure 10
00000001
00000000
00001000
00000000
00000100
00010000
00001000
00010000
,  // measure 11
00000100
00000000
00010000
00000000
00001000
00001000
00001000
00001000
,  // measure 12
00100000
00000000
00010000
00000000
01000000
00100000
10000000
00010000
,  // measure 13
01000000
00000000
01100000
00000000
10000000
10000000
10000000
10000000
,  // measure 14
00010000
00000000
00100000
00000000
00001000
00010000
00000100
00001000
,  // measure 15
00000010
00000000
00001001
00000000
00000010
00000010
00000010
00000010
,  // measure 16
00000200
00000302
00002003
00003001
,  // measure 17
00000110
00000000
00001001
00000000
00000001
00000100
00001000
00000000
,  // measure 18
00010000
00000000
01000000
00000000
10000000
01000000
00010000
00000000
,  // measure 19
00001000
00000000
00000110
00000000
00000001
00000010
00001000
00000000
,  // measure 20
00010000
00000000
01100000
00000000
10000000
01000000
00100000
00010000
,  // measure 21
01000000
00000000
10000000
10000000
10010000
00000000
00010000
00010000
,  // measure 22
00011000
00000000
00001000
00001000
00001001
00000000
00000001
00000001
,  // measure 23
00000010
00000010
00001000
00001000
00000100
00000100
00000001
00000001
,  // measure 24
00002000
00000000
00000000
00000000
00000000
00000000
00000010
00000010
,  // measure 25
00003020
00000000
00000000
00000000
,  // measure 26
00020030
00000000
00032000
00000000
,  // measure 27
02003000
00000000
00000000
00000000
,  // measure 28
23000000
00000000
32000000
00000000
,  // measure 29
03020000
00000000
00000100
00000100
,  // measure 30
00030200
00000000
00001000
00001000
,  // measure 31
00002300
00000000
00000001
00003001
,  // measure 32
00002002
00000000
00000000
00003003
,  // measure 33
00000200
00000000
00000301
00000000
00000100
00000001
00001000
00000000
,  // measure 34
00000200
00000000
00010300
00000000
00001000
01000000
00010000
00000000
,  // measure 35
00200000
00000000
01300000
00000000
10000000
01000000
00100000
00000000
,  // measure 36
00020000
00000000
01030000
00000000
00001000
00010000
00000100
00000000
,  // measure 37
00002000
00000000
00003001
00000000
00000001
00000100
00001000
00000000
,  // measure 38
00020000
00000000
10030000
00000000
10000000
01000000
00010000
00000000
,  // measure 39
00100000
00010000
00100000
00010000
10000000
01000000
10000000
01000000
,  // measure 40
00100000
00100000
00100000
00100000
01000000
00000000
10010000
00000000
,  // measure 41
10000000
00000000
01010000
00000000
10000000
01000000
00010000
00000000
,  // measure 42
00001000
00000000
00001100
00000000
00000001
00000100
00001000
00000000
,  // measure 43
00010000
00000000
00110000
00000000
10000000
01000000
00100000
00000000
,  // measure 44
00001000
00000000
00011000
00000000
00100000
01000000
10000000
00000000
,  // measure 45
00100000
00000000
10010000
00000000
10000000
00100000
00010000
00000000
,  // measure 46
00001000
00000000
00000110
00000000
00000001
00000100
00001000
00000000
,  // measure 47
00100000
00000000
00110000
00000000
10000000
01000000
00100000
00000000
,  // measure 48
00020000
02030000
00200000
03300000
,  // measure 49
10000000
00000000
10010000
00000000
10000000
01000000
00010000
01000000
,  // measure 50
10000000
00000000
00010000
00000000
00100000
00001000
00010000
00001000
,  // measure 51
00100000
00000000
00010000
00000000
00000010
00001000
00000100
00001000
,  // measure 52
00000010
00000000
00000001
00000000
00001000
00000100
00000001
00000100
,  // measure 53
00001000
00000000
00000100
00000000
00010000
00010000
00010000
00010000
,  // measure 54
00001000
00000000
01000000
00000000
00100000
00100000
00100000
00100000
,  // measure 55
10000000
00000000
00010000
00010000
10000000
00000000
00100000
00100000
,  // measure 56
10000000
01000000
10000000
00000000
00010000
01000000
00010000
00000000
,  // measure 57
10000000
01000000
00100000
00010000
01000000
00000000
10010000
00000000
;

//---------------dance-single - ----------------
#NOTEDATA:;
#CHARTNAME:;
#STEPSTYPE:dance-single;
#DESCRIPTION:;
#CHARTSTYLE:;
#DIFFICULTY:Medium;
#METER:8;
#RADARVALUES:0.380305,0.445999,0.218059,0.218059,0.000000,293.000000,269.000000,24.000000,24.000000,0.000000,0.000000,0.000000,0.000000,0.000000,0.380305,0.445999,0.218059,0.218059,0.000000,293.000000,269.000000,24.000000,24.000000,0.000000,0.000000,0.000000,0.000000,0.000000;
#CREDIT:;
#NOTES:
0000
0000
0000
0000
,
0000
0000
0000
0000
,
0000
0000
0000
0000
,
0000
0000
0000
0000
,
0000
0000
0000
0000
,
1000
0000
0100
0000
0010
0001
0100
0000
,
1000
0000
0100
0000
0001
0010
1000
0000
,
0001
0100
0001
0100
0010
1000
0010
1000
,
0100
0100
0100
0100
0000
0000
1001
0000
,
0010
0000
0101
0000
1000
1000
1000
1000
,
0001
0000
1000
0000
0001
0010
1000
0010
,
0001
0000
0100
0000
0010
0010
0010
0010
,
0100
0000
0001
0000
0100
0010
1000
0001
,
0100
0000
0110
0000
1000
1000
1000
1000
,
0001
0000
0010
0000
0001
0010
0100
1000
,
0010
0000
1001
0000
0100
0100
0100
0100
,
0020
2030
3002
1003
,
0110
0000
1001
0000
1000
0100
0001
0000
,
0010
0000
0001
0000
1000
0100
0001
0000
,
1000
0000
0110
0000
0001
0010
1000
0000
,
0001
0000
0110
0000
1000
0100
0010
0001
,
0100
0000
1000
1000
1001
0000
0001
0001
,
1001
0000
0100
0100
0110
0000
0010
0010
,
1000
1000
0100
0100
0001
0001
0010
0010
,
0200
0000
0000
0000
0000
0000
0010
0010
,
0320
0000
0000
0000
,
0032
0000
0203
0000
,
2300
0000
0000
0000
,
3200
0000
0320
0000
,
0032
0000
0100
0100
,
0203
0000
0010
0010
,
0320
0000
1000
1030
,
2002
0000
0000
3003
,
0002
0000
0103
0000
0001
0100
1000
0000
,
0020
0000
1030
0000
1000
0100
0001
0000
,
0002
0000
0103
0000
1000
0100
0010
0000
,
0002
0000
0103
0000
0010
0001
0100
0000
,
0020
0000
0130
0000
1000
0100
0001
0000
,
0200
0000
0310
0000
0001
0100
1000
0000
,
0010
0001
0010
0001
1000
0100
1000
0100
,
0010
0010
0010
0010
0100
0000
1001
0000
,
1000
0000
0101
0000
1000
0100
0001
0000
,
0001
0000
0101
0000
0001
0100
1000
0000
,
1000
0000
1010
0000
1000
0010
0100
0001
,
1000
0000
0110
0000
0001
0100
0010
1000
,
0010
0000
1001
0000
1000
0010
0001
0010
,
1000
0000
0110
0000
0001
0100
1000
0100
,
0001
0000
0011
0000
1000
0100
0010
0000
,
0002
0203
0020
0330
,
1000
0000
1001
0000
1000
0100
0001
0100
,
1000
0000
0001
0000
0010
0100
0001
0100
,
0010
0000
1001
0000
0010
1000
0100
1000
,
0010
0000
1001
0000
0001
0100
1000
0100
,
0001
0000
0010
0000
0001
0001
0001
0001
,
1000
0000
0100
0000
0010
0010
0010
0010
,
1000
0000
0001
0001
1000
0000
0010
0010
,
1000
0100
1000
0000
0001
0100
0001
0000
,
1000
0100
0010
0001
0100
0000
1001
0000
;

//---------------dance-single - ----------------
#NOTEDATA:;
#CHARTNAME:;
#STEPSTYPE:dance-single;
#DESCRIPTION:;
#CHARTSTYLE:;
#DIFFICULTY:Beginner;
#METER:3;
#RADARVALUES:0.150565,0.183647,0.009086,0.036343,0.000000,116.000000,115.000000,1.000000,4.000000,0.000000,0.000000,0.000000,0.000000,0.000000,0.150565,0.183647,0.009086,0.036343,0.000000,116.000000,115.000000,1.000000,4.000000,0.000000,0.000000,0.000000,0.000000,0.000000;
#CREDIT:;
#NOTES:
0000
0000
0000
0000
,
0000
0000
0000
0000
,
0000
0000
0000
0000
,
0000
0000
0000
0000
,
0000
0000
0000
0000
,
0020
0000
0030
0000
,
0200
0000
0300
0000
,
0010
0000
0010
0000
,
0010
0010
0000
0000
,
1000
0000
1000
1000
,
1000
0000
0001
0000
,
1000
0000
0001
0001
,
0001
0000
1000
0000
,
0010
0000
0100
0100
,
0100
0000
0010
0000
,
0100
0000
0010
0010
,
0010
0000
0100
0000
,
0010
0000
1000
1000
,
1000
0000
1000
0000
,
0001
0000
0001
0001
,
0001
0000
0001
0000
,
1000
0000
0001
0000
,
1000
0000
0001
0000
,
1000
1000
1000
1000
,
0000
0000
0000
0010
,
0010
0000
0000
0000
,
1000
0000
0000
0000
,
0100
0000
0000
0000
,
0001
0000
0000
0000
,
0010
0000
0000
0000
,
0001
0000
0000
0000
,
0100
0000
0000
0000
,
2002
0000
3003
0000
,
0010
0000
0010
0010
,
0010
0000
0000
0000
,
0100
0000
0100
0100
,
0100
0000
0000
0000
,
0001
0000
0001
0001
,
0001
0000
0001
0000
,
1000
0000
1000
0000
,
1000
1000
1000
0000
,
0010
0000
1000
1000
,
1000
0000
1000
0000
,
0001
0000
0001
0001
,
0001
0000
0001
0000
,
0100
0000
0100
0100
,
0100
0000
0100
0000
,
0010
0000
0010
0000
,
0010
0010
0010
0000
,
1000
0000
1000
1000
,
1000
0000
0001
0000
,
1000
0000
0010
0010
,
0010
0000
0100
0000
,
0010
0000
0010
0010
,
0010
0000
0100
0100
,
0100
0000
0010
0000
,
0100
0000
0010
0000
,
1000
1000
1000
1000
;

//---------------dance-single - ----------------
#NOTEDATA:;
#CHARTNAME:;
#STEPSTYPE:dance-single;
#DESCRIPTION:;
#CHARTSTYLE:;
#DIFFICULTY:Easy;
#METER:5;
#RADARVALUES:0.266084,0.314823,0.154458,0.172630,0.000000,205.000000,188.000000,17.000000,19.000000,0.000000,0.000000,0.000000,0.000000,0.000000,0.266084,0.314823,0.154458,0.172630,0.000000,205.000000,188.000000,17.000000,19.000000,0.000000,0.000000,0.000000,0.000000,0.000000;
#CREDIT:;
#NOTES:
0000
0000
0000
0000
,
0000
0000
0000
0000
,
0000
0000
0000
0000
,
0000
0000
0000
0000
,
0000
0000
0000
0000
,
1000
0100
0010
0001
,
1000
0010
0100
0001
,
1000
0010
0001
0010
,
1001
1001
0000
1001
,
1000
0000
0001
0000
1000
1000
1000
0000
,
0001
1000
0010
0100
,
0001
0000
1000
0000
0001
0001
0001
0000
,
0100
0010
0100
1001
,
1000
0000
0001
0000
1000
1000
1000
0000
,
0010
0100
0001
1000
,
0001
0000
1000
0000
0001
0001
0001
0000
,
0002
2003
3002
0003
,
0010
1001
1000
1000
,
0010
0001
0100
1000
,
0010
1000
1001
1001
,
0100
0001
0010
1000
,
0110
0000
1001
0000
,
0110
0000
1001
0000
,
1000
0100
0001
0010
,
2000
0000
0000
3001
,
2002
0000
0000
3003
,
0002
0000
0203
0000
,
2300
0000
3020
0000
,
0032
0000
0203
0000
,
0320
0000
0100
0130
,
0200
0000
0010
0010
,
0320
0000
1000
1030
,
2002
0000
0000
3003
,
0001
0100
0001
1000
,
0010
1000
0001
1000
,
0001
0100
1000
0010
,
0001
0010
1000
0100
,
0010
0100
1000
0001
,
0100
0010
0001
1000
,
0010
0010
1000
1000
,
0100
0100
0100
0000
,
1000
0100
0001
0100
,
1000
1000
0001
0001
,
1000
0010
0001
0010
,
1000
1000
0001
0001
,
0010
0100
0010
0100
,
1000
0001
1000
0001
,
0010
0100
1000
0001
,
0010
0100
1000
1001
,
0001
0001
0100
1000
,
0010
0010
1000
0100
,
0001
0100
1000
1000
,
0010
0001
0100
0100
,
1001
0000
0001
0001
,
1001
0000
1000
1000
,
0010
0001
0100
1000
,
2000
3000
0002
0003
,
0100
0010
0100
1001
;

//---------------dance-double - ----------------
#NOTEDATA:;
#CHARTNAME:;
#STEPSTYPE:dance-double;
#DESCRIPTION:;
#CHARTSTYLE:;
#DIFFICULTY:Easy;
#METER:5;
#RADARVALUES:0.241422,0.341058,0.145373,0.218059,0.000000,186.000000,170.000000,16.000000,24.000000,0.000000,0.000000,0.000000,0.000000,0.000000,0.241422,0.341058,0.145373,0.218059,0.000000,186.000000,170.000000,16.000000,24.000000,0.000000,0.000000,0.000000,0.000000,0.000000;
#CREDIT:;
#NOTES:
00000000
00000000
00000000
00000000
,
00000000
00000000
00000000
00000000
,
00000000
00000000
00000000
00000000
,
00000000
00000000
00000000
00000000
,
00000000
00000000
00000000
00000000
,
20000000
30000000
01000000
00010000
,
00002000
00003000
00010000
01000000
,
00010000
01000000
10000000
01000000
,
10010000
10010000
00000000
10010000
,
01000000
00000000
10000000
10000000
,
01000000
00000000
00010000
00001000
,
00010000
00000000
00001000
00000010
,
00000001
00000000
00000100
00001000
,
00010000
00000000
01000000
01000000
,
01000000
00000000
00010000
00001000
,
00000100
00000000
00001000
00001000
,
00000002
00000023
00000230
00000300
,
00001000
00000000
00000100
00001000
,
00010000
00000000
00010000
00100000
,
01000000
00000000
10000000
01000000
,
00010000
00000000
00001000
00000010
,
00001001
00000000
00001100
00000000
,
00011000
00000000
00110000
00000000
,
10010000
10010000
10010000
10010000
,
20000000
00000000
00000000
30010000
,
20020000
00000000
30030000
00000000
,
02000000
00000000
03002000
00000000
,
00023000
00000000
00030020
00000000
,
00000230
00000000
00000302
00000000
,
00002003
00000000
00003200
00000000
,
00020300
00000000
00032000
00000000
,
02003000
00000000
03020000
00000000
,
20000000
00000000
00000000
30030000
,
00100000
00010000
01000000
10000000
,
00100000
00010000
00001000
00000100
,
00000001
00000010
00001000
00010000
,
00100000
00010000
01000000
10000000
,
00100000
00001000
00010000
00001000
,
00000010
00001000
00000100
00001000
,
00100000
00100000
01000000
01000000
,
10000000
01000000
00100000
00000000
,
00010000
00010000
10000000
10000000
,
00010000
00100000
10000000
01000000
,
00010000
00010000
00100000
00100000
,
00001000
00010000
00001000
00010000
,
00000100
00001000
00000010
00000010
,
00001000
00000100
00000001
00001000
,
00000100
00000100
00010000
00010000
,
00002000
00203000
00020000
00330000
,
00010000
01000000
10000000
01000000
,
00010000
00001000
00000100
00000001
,
00000100
00001000
00010000
00100000
,
10000000
00100000
00010000
00001000
,
00000010
00000001
00000100
00001000
,
00010000
00000000
00100000
00010000
,
00001000
00000100
00001000
00000100
,
00010000
00010000
00001000
00001000
,
00011000
00011000
00011000
00011000
;
