#TITLE:Adrenaline Blaster;
#SUBTITLE:;
#ARTIST:QWertism;
#TITLETRANSLIT:;
#SUBTITLETRANSLIT:;
#ARTISTTRANSLIT:;
#GENRE:;
#CREDIT:;
#BANNER:Adrenaline Blaster.png;
#BACKGROUND:Adrenaline Blaster-bg.png;
#LYRICSPATH:;
#CDTITLE:;
#MUSIC:Adrenaline Blaster.ogg;
#OFFSET:1.515000;
#SAMPLESTART:78.485001;
#SAMPLELENGTH:12.800003;
#LASTBEATHINT:1.287500;
#SELECTABLE:YES;
#BPMS:0.000000=150.000000
;
#STOPS:
;
#BGCHANGES:3.500=Adrenaline Blaster.avi=1.000=0=0=0=StretchNoLoop====,
99999=-nosongbg-=1.000=0=0=0 // don't automatically add -songbackground-
;
#KEYSOUNDS:;
#ATTACKS:;

//---------------dance-single - ----------------
#NOTES:
     dance-single:
     :
     Beginner:
     3:
     0.202032,0.312762,0.066946,0.100418,0.000000,169.000000,161.000000,8.000000,12.000000,0.000000,0.000000,0.202032,0.312762,0.066946,0.100418,0.000000,169.000000,161.000000,8.000000,12.000000,0.000000,0.000000:
0000
0000
0000
0000
,
0000
0000
0000
0000
,
0000
0000
0000
0000
,
0000
0000
0000
0000
,
0000
0000
0000
0000
,
0000
0000
0000
0000
,
1000
0000
1000
0000
,
0001
0000
0001
0000
,
0100
0000
0100
0000
,
0010
0010
0010
0000
,
1000
0000
0001
0000
,
0100
0000
0010
0000
,
1001
0000
1001
0000
,
0010
0010
0010
0000
,
0100
0000
0100
0000
,
0200
0000
0300
0000
,
0010
0000
0010
0000
,
0020
0000
0030
0000
,
1000
0000
1000
1000
,
1000
0000
0001
0000
,
0100
0000
0010
0000
,
0100
0100
0100
0000
,
0001
0000
1000
0000
,
0010
0010
0010
0000
,
1000
0000
0001
0000
,
0010
0010
0010
0000
,
0001
0000
1000
0000
,
0100
0100
0100
0000
,
1000
1000
1000
1000
,
2000
0000
3000
0000
,
0001
0000
0100
0000
,
1000
0000
0010
0000
,
0001
0000
1000
0000
,
0100
0100
0100
0000
,
0001
0000
0010
0000
,
1000
0000
0100
0000
,
1000
0000
0001
0000
,
0010
0010
0010
0000
,
2000
0000
3000
0000
,
0002
0000
0003
0000
,
0200
0000
0300
0000
,
0010
0010
0010
0000
,
0001
0001
0001
0000
,
0100
0100
0100
0000
,
1000
0000
0001
0000
,
0010
0010
0010
0000
,
1000
1000
1000
0000
,
0100
0100
0100
0000
,
0010
0010
0010
0010
,
0010
0010
0010
0000
,
0001
0000
1000
0000
,
0100
0100
0100
0000
,
1000
0000
0001
0000
,
0010
0010
0010
0000
,
1000
1000
1000
0000
,
0001
0001
0001
0000
,
1000
0000
0001
0000
,
0100
0100
0100
0000
,
0000
0001
0001
0001
,
0000
1000
1000
1000
,
0000
0001
0000
1000
,
0000
0010
0010
0010
,
0000
1001
0000
1001
,
0000
0110
0000
0110
,
0000
1001
0000
1000
,
1000
1000
1000
0000
,
0002
0003
0001
0000
,
2000
3000
1000
0000
,
0020
0030
0010
0000
,
0200
0300
0100
0000
,
0001
0000
0001
0000
,
1000
0000
1000
0000
,
0010
0000
0010
0000
,
0100
0100
0100
0000
,
2002
0000
0000
3003
;

//---------------dance-double - ----------------
#NOTES:
     dance-double:
     :
     Easy:
     7:
     0.370592,0.437866,0.418410,0.200837,0.000000,310.000000,260.000000,50.000000,24.000000,0.000000,0.000000,0.370592,0.437866,0.418410,0.200837,0.000000,310.000000,260.000000,50.000000,24.000000,0.000000,0.000000:
00000000
00000000
00000000
00000000
,
00000000
00000000
00000000
00000000
,
00000000
00000000
00000000
00000000
,
00000000
00000000
00000000
00000000
,
00000000
00000000
00000000
00000000
,
00000000
00000000
00000000
00000000
,
00100000
00100000
00010000
01000000
,
10000000
10000000
01000000
00010000
,
00001000
00001000
00000010
00000001
,
00001000
00000100
00010000
00001000
,
00011000
00000000
01010000
00000000
,
00011000
00000000
00001100
00000000
,
00001000
01000000
00100000
10000000
,
20020000
00000000
30030000
01100000
,
01000000
10000000
01000000
10000000
,
01000000
00010000
00001000
00000001
,
00000100
00000001
00000100
00000001
,
00000100
00001000
00010000
10000000
,
01000000
10000000
00100000
10010000
,
01000000
00010000
00100000
00011000
,
00000100
00001000
00000010
00001001
,
00000220
00000330
00010000
00011000
,
00001000
00010000
01000000
10000000
,
00100000
00010000
00001000
00011000
,
00000010
00001000
00000100
00000001
,
00000010
00001000
00011000
00011000
,
00010000
01000000
10000000
10010000
,
10000000
01000000
00010000
00011000
,
00001000
00000100
00000010
00000001
,
00001001
00000110
00001001
00000000
,
00000010
00001010
00000100
00000100
,
00010000
00011000
01000000
01000000
,
00100000
10010000
01000000
01000000
,
00010000
00001000
00000010
00001001
,
00000100
00000100
00010000
00011000
,
01000000
01000000
00001000
00011000
,
00000100
00001000
00000010
00000001
,
00000100
00001000
00010000
01000000
,
20020000
30030000
02000000
03000000
,
00020000
00030000
00002000
00003000
,
00000002
00000003
00000200
00000300
,
00002000
00003000
00010000
01000000
,
10000000
10000000
00100000
00010000
,
00001000
00001000
00000100
00000001
,
00000010
00000010
00001000
00010000
,
01000000
01000000
00010000
00001000
,
00011000
00000100
00000010
00001001
,
00000010
00000100
00001000
00011000
,
00100000
01000000
10000000
01100000
,
10000000
00100000
00010000
00011000
,
00010000
00000000
00000100
00000000
00001000
00000100
00001000
00000000
,
00000001
00000100
00001000
00010000
,
01000000
00000000
00100000
00000000
10000000
00010000
10000000
00000000
,
01000000
00010000
00001000
00000100
,
00000010
00000000
00001000
00000000
00000100
00010000
00000100
00000000
,
00010000
01000000
00100000
10010000
,
10000000
01000000
00010000
00001000
,
00010000
00000100
00010000
00000100
00010000
00000000
00011000
00000000
,
00100000
10010000
01000000
00010000
,
00001000
00000100
00001010
00000101
,
00000001
00000010
00001000
00001100
,
00010000
00001000
01000000
10010000
,
10000000
01000000
00010000
00011000
,
00000001
00000100
00001000
00011000
,
00100000
10010000
00100000
00011000
,
00000100
00011000
00000100
00001001
,
00000220
00000330
00000001
00000100
,
00022000
00033000
10000000
01000000
,
00022000
00033000
00000010
00001000
,
00022000
00033000
00100000
00010000
,
10000000
00000000
01000000
00000000
00010000
00001000
00010000
00000000
,
00001000
00000000
00000100
00000000
00000001
00001000
00000001
00000000
,
00000100
00001000
00010000
00100000
,
20020000
30030000
01000000
00001000
,
00022000
00000000
00000000
00033000
;

//---------------dance-single - ----------------
#NOTES:
     dance-single:
     :
     Easy:
     7:
     0.401674,0.500418,0.585774,0.158996,0.000000,336.000000,266.000000,70.000000,19.000000,0.000000,0.000000,0.401674,0.500418,0.585774,0.158996,0.000000,336.000000,266.000000,70.000000,19.000000,0.000000,0.000000:
0000
0000
0000
0000
,
0000
0000
0000
0000
,
0000
0000
0000
0000
,
0000
0000
0000
0000
,
0000
0000
0000
0000
,
0000
0000
0000
0000
,
0010
0010
1000
0110
,
0010
0010
0001
0110
,
1000
1000
0010
1001
,
0001
0001
0100
1001
,
0110
0000
1001
0000
,
0110
1001
0110
0000
,
0110
0110
1001
0110
,
2002
0000
3003
0110
,
0100
1000
0100
0001
,
0100
1000
0010
0001
,
0010
1000
0010
0001
,
0010
1000
0100
0001
,
0100
1000
0010
1001
,
0100
0001
0010
1001
,
0010
0100
0110
1001
,
0010
0010
0010
1001
,
0001
0100
1000
0100
,
0010
0001
0010
0100
,
1000
0010
0001
0010
,
0100
1000
0100
1001
,
0001
0100
1000
1001
,
1000
0100
0001
1001
,
0110
1000
0001
0110
,
1001
0010
0100
1001
,
0010
1100
0001
0001
,
0100
0011
1000
1000
,
0010
1001
0100
0100
,
0010
1001
0100
0100
,
0001
1000
0001
0000
0100
0000
0110
0000
,
1000
0001
1000
0000
0010
0000
0110
0000
,
0100
1000
0010
0001
,
0100
0001
0010
1000
,
2002
3003
0200
0300
,
0020
0030
0002
0003
,
0020
0030
0200
0300
,
1000
1000
0001
0110
,
1000
1000
0010
0001
,
0100
0100
0001
0010
,
1000
0100
0001
0010
,
0100
0100
0110
1001
,
0001
0000
0001
0000
0100
0100
0100
0000
,
1000
0000
1000
0000
0100
0100
0101
0000
,
0010
0100
1000
0010
,
1001
1001
1001
0000
,
0001
0000
0100
0000
0010
0010
0010
0000
,
1000
0100
0010
0001
,
0100
0000
0010
0000
1000
1000
1000
0000
,
0100
0010
0001
1001
,
0010
0000
0100
0000
0001
0001
0001
0000
,
1000
0100
0010
1001
,
1000
0100
0001
0010
,
0001
1000
0001
1000
0001
0000
1001
0000
,
0010
1001
0100
1001
,
0010
1100
0010
0101
,
0010
0010
1001
0110
,
0100
0100
0110
1001
,
1000
0100
0001
0011
,
0001
0100
1000
1100
,
0010
1001
0010
0110
,
1001
0110
1001
0010
,
2002
3003
0100
0010
,
2002
3003
0010
0100
,
2200
3300
0010
0001
,
2020
3030
0100
0001
,
0010
0110
0001
0001
,
0100
0110
1000
1000
,
0001
0100
1000
0010
,
1001
0110
1001
0110
,
2002
0000
0000
3003
;

//---------------dance-single - ----------------
#NOTES:
     dance-single:
     :
     Medium:
     10:
     0.512851,0.562971,0.527197,0.100418,0.046025,429.000000,366.000000,63.000000,12.000000,0.000000,0.000000,0.512851,0.562971,0.527197,0.100418,0.046025,429.000000,366.000000,63.000000,12.000000,0.000000,0.000000:
0000
0000
0000
0000
,
0000
0000
0000
0000
,
0000
0000
0000
0000
,
0000
0000
0000
0000
,
0000
0000
0000
0000
,
0000
0000
0000
0000
,
1010
0000
0101
0000
1000
0100
0001
0000
,
0101
0000
1010
0000
0001
0010
1000
0000
,
0110
0000
1001
0000
0010
1000
0001
0000
,
1100
0101
1000
0110
,
0001
0100
0010
0000
1000
0100
0010
0000
,
0001
0010
0100
0010
0001
0100
0100
0000
,
1010
0000
0101
0000
1000
0001
1001
0000
,
0001
0010
0100
1001
,
0020
0001
0100
0031
,
1000
0000
0100
0000
0010
0000
0000
0010
0000
0000
1000
0000
1001
0000
0000
0000
,
0200
0000
0001
0000
1000
0000
0301
0001
,
0000
1000
0100
0000
0010
0001
0100
0000
,
0010
0000
0010
0000
0000
0010
0000
0000
1000
0000
0001
0000
0100
0000
0000
0000
,
0001
1000
0001
1000
0000
0000
0010
0000
0000
1001
0000
0000
,
0001
0100
1000
0000
0001
0010
1000
0000
,
0011
0110
1100
1001
,
0001
0000
0010
0000
0100
0000
0000
0000
1000
0000
0001
0000
1000
0000
0000
1000
,
0000
0000
0001
0000
0100
0000
0000
0010
0000
0000
0100
0000
1000
0000
0000
0000
,
0001
1000
0001
1000
0100
0000
0010
0010
,
0010
0000
1001
0000
0100
0100
0100
0000
,
0001
0000
1100
0000
0001
0100
0010
0000
,
1000
0000
0101
0000
1000
0100
0010
0000
,
0001
0000
0001
0000
0001
0000
0000
1000
0000
0000
0001
0000
1000
0000
0100
0000
,
0010
0000
0110
0000
0001
0100
1000
0000
,
0110
0000
0010
0000
0010
0000
0001
0100
,
0010
0000
0010
0000
0010
1000
0010
1000
,
0100
0000
0100
0000
0100
0000
1000
0001
,
0100
0000
0100
0000
0001
1000
0001
1000
,
0100
1100
0101
1100
,
0010
0011
1010
0011
,
0001
1000
0001
1000
0010
0100
0010
0100
,
0001
1000
0001
1000
0001
0000
0110
0000
,
2002
3003
0200
0300
,
0020
0030
0002
0003
,
0100
0000
0000
0100
0000
0000
0000
0000
0010
0000
0000
0010
0000
0000
0000
0000
,
1000
0001
0100
0110
,
0001
0100
0001
0000
0100
0000
1001
0000
,
1000
0100
1000
0000
0100
0000
1001
0000
,
0001
0010
0100
0000
0010
0000
1001
0000
,
0110
0110
1001
1001
,
1000
0100
1000
0100
1000
0100
1000
0100
,
0010
0001
0010
0001
0010
0001
0010
0001
,
0100
0010
0100
0010
1000
0001
1000
0001
,
0100
0000
0100
0000
0100
0000
0100
0000
0100
0010
0000
0000
1001
0000
0000
0000
,
0001
0100
0001
0000
0110
0000
1001
0000
,
1000
0100
1000
0000
0010
0010
0010
0010
,
1000
0000
0001
0000
1000
0100
0010
0000
,
0001
1000
0001
1000
0001
0000
0110
0000
,
0001
0000
0110
0000
0001
1000
0100
0000
,
1000
0000
0110
0000
1000
1000
1000
1000
,
1000
0000
0101
0000
1000
0100
0010
0000
,
0001
0000
0100
0000
0001
0000
0100
0000
0010
0000
0000
0010
0000
0000
1001
0000
,
0000
0000
0110
0000
0001
0010
0100
0000
,
1000
0100
0010
0000
0001
0000
0110
0000
,
0001
1000
0001
1000
0100
1000
0100
0000
,
1000
0001
1000
0001
0100
0001
0100
0000
,
0101
0000
0101
0000
1000
0100
0010
0000
,
1100
0000
1100
0000
0001
0010
0100
0000
,
0110
0000
1001
0000
0001
0100
0010
0000
,
1000
0100
1000
0100
0010
0001
0010
0001
,
0200
0000
0001
0310
,
1002
0000
0010
0103
,
2001
0000
0010
3100
,
1001
0110
1001
0110
,
0001
0100
0010
0000
1000
0100
0010
0000
,
0001
0100
1000
0000
0001
0010
1000
0000
,
0010
0010
1000
0000
0100
0100
0001
0000
,
1000
0001
1000
0001
1000
0001
0100
0000
,
2002
0000
0000
3003
;

//---------------dance-double - ----------------
#NOTES:
     dance-double:
     :
     Medium:
     10:
     0.459056,0.531695,0.418410,0.175732,0.046025,384.000000,334.000000,50.000000,21.000000,0.000000,0.000000,0.459056,0.531695,0.418410,0.175732,0.046025,384.000000,334.000000,50.000000,21.000000,0.000000,0.000000:
00000000
00000000
00000000
00000000
,
00000000
00000000
00000000
00000000
,
00000000
00000000
00000000
00000000
,
00000000
00000000
00000000
00000000
,
00000000
00000000
00000000
00000000
,
00000000
00000000
00000000
00000000
,
00011000
00000000
01010000
00000000
00010000
01000000
10000000
00000000
,
01010000
00000000
11000000
00000000
10000000
01000000
00010000
00000000
,
00011000
00000000
00001100
00000000
00000001
00000100
00001000
00000000
,
00011000
00000000
00110000
00000000
10000000
00010000
01000000
00000000
,
10000000
01000000
00100000
00000000
00001000
00010000
00000010
00000000
,
00000001
00000100
00001000
00000000
00010000
01000000
00100000
00000000
,
10100000
00000000
01010000
00000000
10000000
00010000
10010000
00000000
,
00010000
00100000
01000000
10010000
,
00200000
00010000
00001000
00310000
,
00001000
00000000
00010000
00000000
00000010
00000000
00000000
00000010
00000000
00000000
00001000
00000000
00001001
00000000
00000000
00000000
,
00000200
00000000
00000001
00000000
00001000
00000000
00000301
00000001
,
00000000
00001000
00000100
00000000
00010000
00001000
01000000
00000000
,
00100000
00000000
00100000
00000000
00000000
00100000
00000000
00000000
10000000
00000000
01000000
00000000
00010000
00000000
00000000
00000000
,
00001000
00000000
00010000
00000000
00001000
00000000
00010000
00000000
00000000
00000000
00000000
00000000
00000010
00000000
00000000
00001000
00000000
00000000
00000100
00000000
00000000
00000000
00000000
00000000
,
00001000
00000010
00000001
00000000
00000100
00001000
00000010
00000000
,
00000011
00000110
00001100
00011000
,
00100000
00000000
00010000
00000000
01000000
00000000
00000000
00000000
10000000
00000000
00010000
00000000
10000000
00000000
00000000
10000000
,
00000000
00000000
00010000
00000000
01000000
00000000
00000000
00100000
00000000
00000000
10000000
00000000
01000000
00000000
00000000
00000000
,
00010000
00000000
00001000
00000000
00000100
00000000
00000001
00000001
,
00000001
00000000
00001100
00000000
00000100
00000100
00000100
00000000
,
00010000
00100000
10000000
01000000
,
00010000
00000000
00001000
00000000
00000100
00000010
00000001
00000000
,
00000001
00000000
00000001
00000000
00000001
00000000
00000000
00001000
00000000
00000000
00000001
00000000
00001000
00000000
00000000
00000000
,
00000001
00000100
00001000
00000000
00010000
00000000
00011000
00000000
,
00001000
00000000
00100000
00000000
00010000
00100000
01000000
10000000
,
01000000
00000000
10000000
00000000
00100000
00001000
00010000
00000000
,
00000100
00000100
00001000
00000010
,
00000001
00000100
00001000
00011000
,
00100000
00000000
00010000
00000000
10000000
01000000
00100000
00000000
,
00001000
00000000
00011000
00000000
00000100
00001000
00000010
00000000
,
00000001
00000100
00000010
00000000
00001000
00000100
00010000
00000000
,
00002000
00100000
00013000
00011000
,
00020000
00030000
00002000
00003000
,
00000200
00000300
00000020
00000030
,
00000010
00000000
00000000
00000010
00000000
00000000
00000000
00000000
00000100
00000000
00000000
00000100
00000000
00000000
00000000
00000000
,
00000001
00001000
00000010
00000110
,
00000001
00000100
00001000
00010000
,
10000000
01000000
00010000
00001000
,
00000001
00000100
00000010
00000000
00001000
00000100
00010000
00000000
,
00001000
00100000
00010000
00000000
01100000
00000000
10010000
00000000
,
10000000
01000000
10000000
01000000
10000000
01000000
00010000
00000000
,
00001000
00000100
00001000
00000100
00000001
00000100
00001000
00000000
,
00010000
00001000
00010000
00001000
01000000
00100000
01000000
00100000
,
01000000
00000000
01000000
00000000
01000000
00000000
01000000
00000000
01000000
00100000
00000000
00000000
10010000
00000000
00000000
00000000
,
00010000
01000000
00010000
00000000
01100000
00000000
10010000
00000000
,
00100000
00000000
00001000
00000000
00010000
00010000
00010000
00000000
,
00010000
00000000
00001100
00000000
00000001
00000010
00000100
00000000
,
00010000
00001000
00010000
00001000
00010000
00000000
00110000
00000000
,
01000000
00000000
10010000
00000000
10000000
01000000
00100000
00000000
,
00001000
00000000
00011000
00000000
00010000
00010000
00010000
00010000
,
00010000
00000000
00001100
00000000
00000001
00000010
00000100
00000000
,
00001000
00000000
00000100
00000000
00001000
00000000
00000100
00000000
00010000
00000000
00000000
00010000
00000000
00000000
00011000
00000000
,
00000000
00000000
01100000
00000000
00010000
00100000
01000000
00000000
,
10000000
01000000
00010000
00000000
00001000
00000000
00000100
00000000
,
00000001
00001000
00000001
00001000
00000100
00001000
00000100
00000000
,
00010000
00001000
00010000
00000000
01000000
00000000
01100000
00000000
,
01010000
00000000
01100000
00000000
10000000
01000000
00100000
00000000
,
00110000
00000000
00011000
00000000
00001000
00000100
00000010
00000000
,
00000101
00000000
00001100
00000000
00010000
00001000
01000000
00000000
,
00010000
10000000
01000000
00000000
00100000
00000000
01100000
00000000
,
20020000
00000000
00000000
30030000
,
00022000
00000000
00000000
00033000
,
00002002
00000000
00000000
00003003
,
00022000
00033000
00220000
00330000
,
10000000
01000000
00010000
00001000
,
00000100
00000001
00000100
00001000
,
00010000
01000000
10000000
00000000
10000000
01000000
00010000
00000000
,
00002000
00023000
00030100
00011000
,
00022000
00000000
00000000
00033000
;

//---------------dance-single - ----------------
#NOTES:
     dance-single:
     :
     Hard:
     14:
     0.751943,0.844456,0.225941,0.443515,0.677824,629.000000,602.000000,27.000000,53.000000,0.000000,0.000000,0.751943,0.844456,0.225941,0.443515,0.677824,629.000000,602.000000,27.000000,53.000000,0.000000,0.000000:
0000
0000
0000
0000
,
0000
0000
0000
0000
,
2002
0000
0000
0000
,
0000
0000
0000
0000
3003
0000
0000
0000
0000
0000
1001
0000
0000
0110
0000
0000
,
2002
0000
0000
0000
0000
0000
3003
0010
,
0220
0000
0000
0330
2002
0000
3003
0000
,
1000
0010
0100
0010
1000
0001
0100
0010
,
1000
0100
1000
0100
1000
0000
0001
0000
0100
0010
0100
0000
0001
0000
1000
0000
,
0010
0000
0100
0000
0010
0000
1000
0000
0001
0010
0001
0000
1000
0000
0010
0000
,
0100
0010
0100
0010
0100
0010
0100
0010
0100
0010
0100
0010
0100
0000
0000
0000
,
1000
0000
0010
0000
0100
0010
0100
0000
0010
0000
1000
0000
0001
0100
0001
0000
,
1000
0000
0010
0000
0100
0010
0100
0000
0001
0000
1000
0000
0010
0100
0010
0000
,
1000
0001
1000
0000
0001
0010
0001
0000
1000
0100
1000
0000
0010
0100
0010
0000
,
1001
0000
0110
0000
1001
0010
0110
0000
,
2002
3003
1000
0010
0100
0001
0100
0010
,
0100
0010
0100
0000
0001
0000
0100
0010
0000
0010
1000
0000
0002
0000
0003
0000
,
1000
0000
0010
0000
0100
0000
0010
0000
1000
0100
1000
0000
0001
0000
0010
0000
,
0100
0000
0100
0000
0010
0000
0001
0000
1000
0001
1000
0000
0002
0000
0003
0000
,
0100
0000
0010
0000
0100
0001
0000
0001
0100
0010
0100
0010
0100
0000
0001
0000
,
1000
0100
0010
0100
1000
0001
0010
0100
0010
0001
0000
0000
,
1001
0000
0001
0000
1000
0100
1000
0000
1001
0000
0001
0000
0100
0010
0100
0000
,
0022
0000
0033
0000
0220
0000
0330
0000
2200
0000
3300
0000
0001
0010
0100
1000
,
0001
0000
1000
0000
0010
0000
0100
0000
0010
0000
1000
0000
0001
0010
0000
0010
,
0000
0100
1000
0000
0100
0000
1000
0001
0000
0001
1000
0001
2000
0000
3000
0000
,
0100
0010
1000
0000
0200
0300
0010
1000
,
0100
0000
0010
0000
0001
0000
0100
0000
0010
1000
0010
1000
0010
0000
0000
0000
,
1000
0001
1000
0000
0010
0000
0100
0000
0001
0000
1000
0001
0000
0000
1000
0000
,
0001
0000
0010
0000
0100
0000
0010
0000
0100
0000
0001
0100
0010
0000
1000
0000
,
0001
1000
0001
1000
0001
0000
1000
0100
0000
0100
1000
0000
0001
0010
0100
0000
,
1000
0001
1000
0001
1000
0001
1000
0001
2000
0000
0000
0000
3001
0000
0000
0000
,
2000
0100
0100
3100
,
0002
0100
0100
0103
,
0020
0100
0100
0130
,
0200
0000
0310
0000
1000
0001
1000
0010
,
0100
0000
0001
0000
0100
0010
0100
0000
0001
0000
1000
0000
0010
0100
0010
0000
,
1000
0000
0100
0000
0010
0001
0010
0000
0100
0000
1000
0000
0001
0010
0001
0000
,
1000
0100
1000
0000
0001
0100
0001
0000
1000
0010
1000
0000
0001
0100
0001
0000
,
1000
0010
1000
0000
0001
0010
0100
0010
0001
0000
0000
0000
1001
0000
0000
0000
,
0110
0000
0000
0010
0000
0000
0010
0000
1000
0000
0000
1000
0000
0000
1000
0000
,
0001
0000
0000
0001
0000
0000
0001
0000
0100
0000
0000
0100
0000
0000
0100
0000
,
0010
0000
0000
0010
0000
0000
0010
0000
1000
0000
0000
1000
0000
0000
1000
0000
,
0100
0000
0000
0100
0000
0000
0100
0000
0001
0000
0100
0000
1000
0001
1000
0001
,
1000
0000
0100
1000
0000
0100
1000
0000
0010
0000
0000
0000
1000
0001
1000
0001
,
0010
0000
0001
0010
0000
0001
0010
0000
0001
0000
0000
0100
0000
0000
0010
0000
,
1000
0000
0001
1000
0000
0001
1000
0000
0010
0000
0100
0010
0000
0100
0010
0000
,
1000
0000
0000
0100
0000
0000
0010
0000
0001
0000
1000
0001
1000
0000
0010
0000
,
2000
3200
0320
0230
0320
0032
0023
0230
,
0302
0023
0230
2300
3200
0320
0032
0203
,
0301
1000
0001
1000
0001
1000
0001
1000
0010
0100
0010
0100
0010
0100
0010
0100
,
0002
0000
0000
0003
0001
1000
0001
1000
0020
0000
0000
0030
0010
0100
0010
0100
,
0001
0000
0000
1000
0000
0000
0001
0000
1000
0000
0100
0000
0010
0000
0001
0000
,
0100
0000
0000
0010
0000
0000
0100
0000
0001
0000
0001
0000
0001
0000
0001
0000
,
1000
0100
1000
0000
0010
1000
0010
0000
1000
0100
1000
0000
0010
0100
0010
0100
,
0010
0000
1000
0100
1000
0000
0001
0000
0100
0010
0100
0010
0100
0000
0001
0000
,
1000
0000
0010
1000
0000
0010
1000
0000
0001
0000
0100
0000
0010
0000
1000
0000
,
0001
0000
0010
0001
0000
0010
0001
0000
0100
0000
0100
0000
0100
0000
0100
0000
,
0001
0000
1000
0000
0010
1000
0010
0000
1000
0010
1000
0000
0001
0000
0100
0010
,
0100
0000
0001
1000
0001
1000
0001
0000
1000
0100
1000
0000
0010
0000
0100
0000
,
2002
0000
3003
0000
0001
0000
1000
0000
0010
0100
0010
0100
0000
0010
0100
0000
,
0001
1000
0001
1000
0000
0001
1000
0000
0001
0010
0001
0000
1000
0000
0100
0000
,
1000
0000
0010
1000
0000
0010
1000
0000
0001
0000
0100
0001
0000
0100
0001
0000
,
1000
0000
0010
0100
0000
0010
0100
0000
0001
0100
0001
0100
0001
0000
0000
0000
,
1000
0000
0010
1000
0000
0010
1000
0000
0010
0100
0010
0100
0000
0000
0010
0000
,
1000
0010
1000
0010
0000
0000
1000
0000
0001
0000
0001
0000
0001
0000
0001
0000
,
1000
0000
0010
1000
0000
1000
0010
0000
0100
0000
0010
0100
0000
0100
0010
0000
,
1000
0000
0100
0000
0010
0000
0001
0000
0100
0010
0100
0010
0100
0000
0001
0000
,
2002
0000
0000
0000
,
0000
0000
0000
0000
3003
0000
0000
0000
0000
0000
1001
0000
0000
0110
0000
0000
,
2002
0000
0000
0000
0000
0000
3003
0110
,
0220
0000
0000
0000
0330
0000
0000
0000
1000
0001
1000
0000
1001
0000
0000
0000
,
1000
0100
1000
0100
0010
0001
0010
0001
,
1000
0100
0010
0100
0001
0010
0100
1000
,
0010
0100
0010
0100
0010
0000
1000
0010
1000
0010
1000
0000
0001
0000
0100
0000
,
0010
0100
0010
0100
0010
0100
0010
0100
0010
0100
0010
0100
0010
0000
0000
0000
,
2002
0000
0000
3003
;

//---------------dance-double - ----------------
#NOTES:
     dance-double:
     :
     Hard:
     14:
     0.669456,0.844456,0.234310,0.451883,0.418410,560.000000,532.000000,28.000000,54.000000,0.000000,0.000000,0.669456,0.844456,0.234310,0.451883,0.418410,560.000000,532.000000,28.000000,54.000000,0.000000,0.000000:
// measure 0
00000000
00000000
00000000
00000000
,  // measure 1
00000000
00000000
00000000
00000000
,  // measure 2
00022000
00000000
00000000
00000000
,  // measure 3
00033000
00000000
00000000
00000000
00000000
00000000
00000000
00000000
00000000
00000000
00110000
00000000
00000000
00011000
00000000
00000000
,  // measure 4
00002200
00000000
00000000
00000000
00003300
00000000
00000000
00101000
,  // measure 5
00220000
00000000
00000000
00000000
00330000
00000000
00000000
00000000
10000000
00010000
10000000
00000000
00100000
00000000
00000000
00000000
,  // measure 6
10000000
01000000
00010000
01000000
00010000
00001000
00010000
00001000
,  // measure 7
00000100
00001000
00000100
00000001
00000100
00000001
00001000
00000001
,  // measure 8
00000010
00000100
00001000
00000100
00000010
00000001
00000100
00000010
,  // measure 9
00001000
00000001
00001000
00000001
00001000
00000001
00001000
00000001
00001000
00000001
00001000
00000001
00001000
00000000
00000000
00000000
,  // measure 10
00000001
00000100
00001000
00000000
00010000
01000000
10000000
00000000
,  // measure 11
10000000
01000000
00010000
00001000
00000010
00000100
00000001
00000000
,  // measure 12
00001000
00000000
00000100
00000000
00010000
00001000
00010000
00000000
00001000
00000000
00100000
00000000
00010000
01000000
00010000
00000000
,  // measure 13
01000000
00100000
00010000
10010000
,  // measure 14
20000000
00000000
31000000
10000000
00100000
01000000
00010000
00000000
,  // measure 15
00100000
00010000
00100000
00010000
00100000
00000000
00000000
00010000
00000000
00000000
01000000
00000000
01100000
00000000
00000000
00000000
,  // measure 16
00100000
10000000
01000000
00010000
00001000
00010000
00000010
00001000
,  // measure 17
00000001
00000100
00000001
00000100
00000001
00000000
00000100
00000000
00000010
00001000
00000010
00001000
00000010
00000000
00000000
00000000
,  // measure 18
00001000
00000000
00000100
00000000
00010000
00000100
00010000
00000100
00010000
00000000
00001000
00000000
00100000
00000000
00010000
00000000
,  // measure 19
01000000
00000000
01000000
00000000
01000000
00000000
00100000
00000000
00100000
00000000
00100000
00000000
10000000
00000000
00000000
00010000
00000000
00000000
10010000
00000000
00000000
00000000
00000000
00000000
,  // measure 20
10000000
01000000
00010000
00001000
00000010
00000100
00000001
00000000
,  // measure 21
00002200
00003300
00022000
00033000
00220000
00330000
01000000
00100000
,  // measure 22
10000000
00000000
01000000
00000000
00010000
00000000
00001000
00000000
00010000
00000000
01000000
00000000
10000000
00100000
00000000
01000000
,  // measure 23
00000000
00000000
00010000
00000000
01000000
00000000
00000000
00001000
00000000
00001000
00010000
00001000
00010000
00000000
00000000
00000000
,  // measure 24
00000100
00001000
00000001
00000100
00001000
00000100
00000001
00000010
,  // measure 25
00001000
00000010
00000001
00000100
00001000
00010000
01000000
00000000
,  // measure 26
10000000
00000000
01000000
00100000
00000000
00000000
00010000
00000000
01000000
00000000
00100000
01000000
00000000
00000000
10000000
00000000
,  // measure 27
01000000
00000000
00100000
01000000
00000000
00000000
00100000
00000000
00001000
00000000
00010000
00000000
00011000
00000000
00000000
00000000
,  // measure 28
00000100
00001000
00000100
00001000
00000100
00000000
00001000
00000010
00000000
00001000
00000010
00000000
00000100
00000000
00000001
00000000
,  // measure 29
00002000
00000000
00000000
00000200
00000000
00000000
00003300
00000000
,  // measure 30
00020000
00000100
00001000
00030010
,  // measure 31
00002000
00010000
00000100
00013000
,  // measure 32
02000000
00010000
10000000
03010000
,  // measure 33
10000000
00100000
00010000
00100000
10000000
01000000
00100000
00010000
,  // measure 34
00001000
00010000
00100000
00010000
00001000
00000000
00011000
00000000
,  // measure 35
00000100
00001000
00000010
00000001
00000010
00000000
00001010
00000000
,  // measure 36
00000001
00000100
00001000
00010000
01000000
10000000
00100000
00010000
,  // measure 37
00002000
00000000
00000000
00000000
00013000
00001000
00010000
00001000
00020000
00000000
00000000
00000000
00031000
00000000
00000000
00000000
,  // measure 38
00220000
00030000
02000000
03000000
,  // measure 39
20000000
30000000
02000000
00300000
,  // measure 40
00020000
00030000
00200000
00300000
,  // measure 41
10000000
00000000
13000000
00000000
00100000
01000000
00010000
10000000
,  // measure 42
01000000
00010000
00001000
00000100
00000001
00000100
00001000
00000100
,  // measure 43
00000001
00001000
00000001
00001000
00000001
00000100
00001000
00010000
,  // measure 44
01000000
00100000
01000000
00100000
00010000
10000000
00010000
10000000
,  // measure 45
00010000
00100000
01000000
10000000
00100000
01000000
00001000
00000000
,  // measure 46
00020000
00030200
00002300
00003020
00000230
00000302
00002003
00003200
,  // measure 47
00020300
00032000
00203000
00320000
20030000
32000000
03020000
00032000
,  // measure 48
00013000
00001000
00010000
00001000
00100000
00010000
00100000
00010000
01000000
00100000
01000000
00100000
10000000
01000000
10000000
01000000
,  // measure 49
20000000
00000000
00000000
00000000
30100000
01000000
00100000
01000000
00100000
00000000
10000000
00000000
00000000
01100000
00000000
00000000
,  // measure 50
10010000
00000000
00000000
10000000
01000000
00000000
00100000
00000000
00001000
00000000
00010000
00000000
00000100
00000000
00001000
00000000
,  // measure 51
00000001
00000000
00000000
00000001
00000010
00000000
00000100
00000000
00000010
00000000
00000010
00000000
00000010
00000000
00000010
00000000
,  // measure 52
00000100
00000000
00000010
00000100
00000000
00000010
00000100
00000000
00000001
00000000
00001000
00000001
00000000
00001000
00000001
00000000
,  // measure 53
00001000
00000100
00010000
00001000
01000000
00010000
10010000
00000000
,  // measure 54
00100000
00000000
00000000
00100000
10000000
00000000
01000000
00000000
00010000
00000000
00001000
00000000
00000100
00000000
00000001
00000000
,  // measure 55
00000010
00000000
00000000
00000010
00000001
00000000
00000100
00000000
00001000
00000000
00010000
00000000
01000000
00000000
10000000
00000000
,  // measure 56
00100000
10000000
01000000
00010000
00001000
00010000
01000000
10000000
,  // measure 57
00100000
01000000
00100000
01000000
00100000
01000000
00100000
01000000
00100000
00000000
00000000
10010000
00000000
00000000
01000000
00000000
,  // measure 58
02200000
00000000
03300000
00000000
00100000
10000000
01000000
00000000
00100000
00000000
00001000
00000000
00010000
00000000
00000100
00000000
,  // measure 59
00001000
00000010
00000100
00000000
00000001
00000000
00000100
00000000
00000010
00001000
00000100
00000000
00010000
00000000
00001000
00000000
,  // measure 60
01000000
00010000
01000000
00010000
00000000
10000000
00010000
00000000
10000000
00100000
10000000
00100000
00000000
10000000
00010000
00000000
,  // measure 61
10000000
01000000
10000000
01000000
00000000
00100000
00010000
00000000
00100000
00010000
01000000
00000000
00100000
00000000
10000000
00000000
,  // measure 62
01000000
00100000
01000000
00100000
00000000
01000000
00100000
00000000
10000000
00000000
01000000
00000000
00010000
00000000
00001000
00000000
,  // measure 63
00000100
00000000
00000001
00000100
00000000
00000001
00000100
00000000
00001000
00000000
00010000
00000000
01000000
00000000
10000000
00000000
,  // measure 64
00100000
01000000
00100000
01000000
00010000
00000000
10000000
00000000
00100000
10000000
00100000
10000000
00000000
00010000
10000000
00000000
,  // measure 65
00100000
00000000
01000000
00000000
00010000
10000000
00010000
10000000
00010000
00000000
10000000
00000000
01000000
00000000
00100000
00000000
,  // measure 66
00022000
00000000
00000000
00000000
,  // measure 67
00033000
00000000
00000000
00000000
00000000
00000000
00000000
00000000
00000000
00000000
00001100
00000000
00000000
00011000
00000000
00000000
,  // measure 68
00220000
00000000
00000000
00000000
00000000
00000000
00330000
00010000
,  // measure 69
20020000
00000000
00000000
00000000
30030000
00000000
00000000
00000000
00100000
01000000
00100000
00000000
01100000
00000000
00000000
00000000
,  // measure 70
10000000
00000000
01000000
00000000
00010000
00000000
00001000
00000000
00000100
00000000
00000001
00000100
00000001
00000100
00000001
00000000
,  // measure 71
00000100
00000000
00001000
00000000
00010000
00000000
01000000
00000000
10000000
00000000
00100000
10000000
00100000
10000000
00100000
00000000
,  // measure 72
10000000
01000000
00100000
00000000
00010000
00100000
01000000
00000000
10000000
00000000
01000000
00000000
00010000
00000000
00001000
00000000
,  // measure 73
00010000
00001000
00010000
00001000
00010000
00001000
00010000
00001000
00010000
00001000
00010000
00001000
01000000
00000000
00010000
00000000
,  // measure 74
20020000
00000000
00000000
30030000
;
