#VERSION:0.83;
#TITLE:ABSOLUTE;
#SUBTITLE:(EUROBEAT REMIX);
#ARTIST:Tracy vs Yu_Asahina;
#TITLETRANSLIT:;
#SUBTITLETRANSLIT:;
#ARTISTTRANSLIT:;
#GENRE:;
#ORIGIN:;
#CREDIT:;
#BANNER:ABSOLUTE (EUROBEAT REMIX).png;
#BACKGROUND:ABSOLUTE (EUROBEAT REMIX)-bg.png;
#PREVIEWVID:;
#JACKET:ABSOLUTE (EUROBEAT REMIX)-jacket.png;
#CDIMAGE:;
#DISCIMAGE:;
#LYRICSPATH:;
#CDTITLE:;
#MUSIC:ABSOLUTE (EUROBEAT REMIX).ogg;
#OFFSET:1.700000;
#SAMPLESTART:26.448147;
#SAMPLELENGTH:13.333332;
#SELECTABLE:YES;
#BPMS:0.000=162.000,
288.000=150.000,
290.000=138.000,
292.000=126.000,
296.000=114.000,
298.000=104.000,
300.000=90.000;
#STOPS:;
#DELAYS:;
#WARPS:;
#TIMESIGNATURES:0.000=4=4;
#TICKCOUNTS:0.000=4;
#COMBOS:0.000=1;
#SPEEDS:0.000=1.000=0.000=0;
#SCROLLS:0.000=1.000;
#FAKES:;
#LABELS:0.000=Song Start;
#BGCHANGES:;
#KEYSOUNDS:;
#ATTACKS:
;

//---------------dance-single - ----------------
#NOTEDATA:;
#CHARTNAME:;
#STEPSTYPE:dance-single;
#DESCRIPTION:;
#CHARTSTYLE:;
#DIFFICULTY:Hard;
#METER:12;
#RADARVALUES:0.589666,0.582128,0.059574,0.178723,0.225532,485.000000,478.000000,7.000000,21.000000,0.000000,0.000000,0.000000,0.000000,0.000000,0.589666,0.582128,0.059574,0.178723,0.225532,485.000000,478.000000,7.000000,21.000000,0.000000,0.000000,0.000000,0.000000,0.000000;
#CREDIT:;
#NOTES:
0000
0000
0000
0000
,
0000
0000
0000
0000
,
0000
0000
0000
0000
,
0000
0000
0000
0000
,
0200
0000
0000
0000
0300
0000
0000
0100
,
0020
0000
0030
0000
,
0002
1000
0000
1000
0000
1003
0000
0001
,
2000
0010
0000
0010
0000
3010
0000
1000
,
0010
0000
1000
0100
1000
0000
0001
0000
0100
0000
0000
0000
0001
0000
0010
0000
,
2000
0010
0010
3010
,
1000
0001
1000
0001
0200
0000
0310
0000
,
1000
0100
0001
0000
0100
0100
0010
0000
,
0001
0100
1000
0100
0010
0000
1001
0000
,
0001
0000
0010
0000
0100
0000
0000
0000
0010
0000
0000
0010
0000
0000
0010
0000
,
0000
0000
1000
0000
0001
0000
1000
0010
0000
0010
0000
0010
1000
0000
0001
0000
,
0100
0010
1000
0000
0010
0010
0100
0000
,
1000
0100
0001
0100
1000
0000
1001
0000
,
0010
0000
1000
0000
0100
0000
0000
0000
0001
0000
0000
0001
0000
0000
0001
0000
,
0100
0000
0000
0100
0001
0000
0000
0001
1000
0000
0000
1000
0010
0000
0000
0000
,
1000
0000
0100
0010
0100
0000
1000
0000
0001
0000
0000
0000
0001
0000
0010
0000
,
0001
0100
1000
0100
0010
0100
0001
0000
,
0100
0000
1000
0001
1000
0000
0010
0000
0100
0000
0000
0000
0010
0000
1000
0000
,
0100
1000
0001
1000
0010
0001
0010
1000
,
0100
0000
1000
0100
1000
0000
0001
0000
0100
0000
0000
0000
0001
0000
0010
0000
,
0100
0010
0001
0010
1000
0010
0100
0010
,
0001
0000
1000
0001
1000
0000
0010
0000
0100
0000
0000
0000
0001
0000
0100
0000
,
0010
1000
0100
1000
0010
1000
1001
0000
,
0001
0000
0001
0100
0000
0000
0010
0000
1000
0000
1000
0010
0000
0000
0100
0000
,
0001
0010
0100
1000
1000
0100
0010
0001
,
1000
0000
1000
0010
0000
0000
0100
0000
0001
0000
0001
0100
0000
0000
0010
0000
,
1000
0000
0001
0000
0100
0000
0000
0010
0000
0010
0100
0000
0001
0000
0100
0000
,
0010
0000
0010
1000
0000
0000
0010
0000
0100
0000
0100
0001
0000
0000
0100
0000
,
0010
1000
0010
0000
0100
0000
0000
0001
0000
0010
0000
0100
0000
1000
0000
0000
,
0001
0000
0100
0001
0000
0000
1000
0000
0010
0000
1000
0010
0000
0000
1000
0000
,
0100
0010
0100
1000
0100
0001
0100
1000
,
0100
0010
0001
0100
0010
0000
1001
0000
,
0100
0000
0000
0100
0001
0000
0000
0001
0010
0000
0000
0010
0100
0000
0000
0100
,
1000
0100
0010
0100
0001
0100
1000
0000
,
0010
0000
0000
0100
0001
0000
0000
0000
0010
0000
0000
0100
1000
0000
0000
0000
,
1000
0100
0001
0100
0010
0100
1000
0000
,
1000
0001
0100
0000
0010
1000
0100
0000
,
0010
0100
0100
0000
1000
0001
0001
0000
,
1000
0000
0000
1000
0100
0000
0000
0000
0001
0000
0000
0001
1000
0000
1000
0000
,
0100
0000
0110
0000
0001
0010
0100
1000
,
0002
0010
0013
0000
0001
0010
0100
1000
,
0200
1000
1300
0000
1000
0100
0010
0001
,
0200
0010
0310
0000
0001
0010
0100
0010
,
0001
0000
0100
0000
0100
0000
0010
0000
1000
0000
0000
1000
0100
0000
0000
0100
,
0010
0100
1000
0000
0001
0010
0100
0010
,
0001
0100
0010
0000
0001
0100
0010
1000
,
0002
0000
0010
0000
0103
0000
0001
0100
,
0010
1000
0010
1000
0001
0100
0001
0100
,
0010
0000
1000
0010
1000
0000
0001
0000
0100
0000
0000
0000
1000
0000
0100
0000
,
0010
0100
1000
0100
0001
0100
1000
0100
,
0010
0000
0001
0010
0001
0000
0100
0000
0010
0000
0000
0000
0001
0000
0010
0000
,
0100
0010
0100
1000
0100
0001
0100
0000
,
1000
0000
0001
1000
0001
0000
0010
0000
0100
0000
0000
0000
0001
0000
0010
0000
,
0100
0010
0001
0010
0100
1000
0100
0010
,
0001
0000
0100
0010
0100
0000
0010
0000
1000
0000
0000
0000
0001
0000
0100
0000
,
0010
0010
1000
1000
0001
0001
1001
0000
,
0001
0100
0010
0000
1000
1000
0010
0000
,
0001
0100
1000
0100
0010
0000
1001
0000
,
0001
0000
0010
0000
0100
0000
0000
0000
0010
0000
0000
0010
0000
0000
0010
0000
,
0000
0000
0001
0000
1000
0000
0010
0100
0000
0100
0000
0100
0010
0000
1000
0000
,
0001
1000
0010
0000
1000
1000
0010
0000
,
1000
0100
0001
0100
1000
0100
0010
0001
,
0010
0000
0100
0000
1000
0000
0000
0000
0001
0000
0000
0001
0000
0000
0001
0000
,
0100
0000
0000
0100
0001
0000
0000
0001
1000
0000
0000
1000
0010
0000
0000
0000
,
0001
0000
0010
0100
0010
0000
1000
0000
0001
0000
0000
0000
1000
0000
0100
0000
,
0002
0203
2300
3002
,
0103
0000
0001
1000
0001
0000
0100
0000
0010
0000
0000
0000
1000
0000
0100
0000
,
0020
0032
0203
0320
,
1030
0000
0010
0100
0001
0000
1000
0000
0001
0000
0000
0000
1000
0000
0100
0000
,
0020
0000
0000
0030
,
0100
0000
0001
0000
1000
0000
0100
0010
,
0002
0000
2000
0000
,
3003
0000
0000
0000
;

//---------------dance-double - ----------------
#NOTEDATA:;
#CHARTNAME:;
#STEPSTYPE:dance-double;
#DESCRIPTION:;
#CHARTSTYLE:;
#DIFFICULTY:Hard;
#METER:12;
#RADARVALUES:0.537386,0.582128,0.246809,0.110638,0.110638,442.000000,413.000000,29.000000,13.000000,0.000000,0.000000,0.000000,0.000000,0.000000,0.537386,0.582128,0.246809,0.110638,0.110638,442.000000,413.000000,29.000000,13.000000,0.000000,0.000000,0.000000,0.000000,0.000000;
#CREDIT:;
#NOTES:
// measure 0
00000000
00000000
00000000
00000000
,  // measure 1
00000000
00000000
00000000
00000000
,  // measure 2
00000000
00000000
00000000
00000000
,  // measure 3
00000000
00000000
00000000
00000000
,  // measure 4
00011000
00000000
00000000
00000000
00000000
00000000
00000000
00001000
,  // measure 5
00010000
00000000
00000000
00000000
,  // measure 6
01100000
00000000
00000000
00000000
00000000
00000000
00000000
01000000
,  // measure 7
00100000
00000000
00000000
00000000
,  // measure 8
10000000
01000000
00010000
00000000
00001000
00000100
00000001
00000000
,  // measure 9
00000002
00000203
00002300
00023000
,  // measure 10
02030000
23000000
30100000
10010000
,  // measure 11
10000000
01000000
00100000
00000000
00001000
00010000
00000010
00000000
,  // measure 12
00001000
00000100
00000010
00000100
00001000
00000100
00000010
00000001
,  // measure 13
00000100
00000000
00000100
00000000
00000100
00000000
00000000
00000000
00000001
00000000
00000000
00001000
00000000
00000000
00000001
00000000
,  // measure 14
00000000
00000000
00000100
00000000
00000010
00000000
00000100
00000010
00000000
00000010
00000000
00000010
00000100
00000000
00000001
00000000
,  // measure 15
00001000
00000000
00001100
00000000
00000001
00000100
00001000
00000000
,  // measure 16
00010000
01000000
10000000
01000000
00100000
01000000
10000000
01000000
,  // measure 17
00010000
00000000
00000000
00000000
01100000
00000000
00000000
00000000
10000000
00000000
00000000
10000000
00000000
00000000
10000000
00000000
,  // measure 18
01000000
00000000
00000000
01000000
00100000
00000000
00000000
00100000
00010000
00000000
00000000
00000000
10010000
00000000
00000000
00000000
,  // measure 19
10000000
00000000
00100000
10000000
00100000
00000000
10000000
00000000
01000000
00000000
00000000
00000000
00010000
00000000
00000000
00000000
,  // measure 20
00001000
00000000
00000100
00000000
00000001
00000100
00000001
00000000
,  // measure 21
00000010
00000000
00000100
00000010
00000100
00000000
00000010
00000000
00000001
00000000
00000000
00000000
00000100
00000000
00000000
00000000
,  // measure 22
00001000
00000000
00010000
00000000
00100000
00010000
01000000
00000000
,  // measure 23
00100000
00000000
10000000
00100000
10000000
00000000
00100000
00000000
01000000
00000000
00000000
00000000
00010000
00000000
00000000
00000000
,  // measure 24
00100000
00001000
00010000
00000010
,  // measure 25
00001000
00000000
00000100
00000010
00000100
00000000
00001000
00000000
00000100
00000000
00000000
00000000
00000010
00000000
00000001
00000000
,  // measure 26
00000100
00000000
00001000
00000000
00010000
01000000
10000000
00000000
,  // measure 27
00100000
10000000
01000000
00000000
10000000
01000000
00010000
00000000
,  // measure 28
00001000
00000100
00000001
00000000
00000100
00000001
00000010
00000000
,  // measure 29
00000010
00001000
00000100
00000000
00000100
00010000
00001000
00000000
,  // measure 30
00100000
00010000
01000000
00000000
00010000
00100000
01000000
10000000
,  // measure 31
00100000
00100000
00100000
00000000
10000000
01000000
00100000
00000000
,  // measure 32
00001000
00001000
00001000
00000000
00010000
00000100
00001000
00000000
,  // measure 33
00000001
00000001
00000001
00000000
00000010
00000100
00001000
00000000
,  // measure 34
00000100
00010000
00001000
01000000
,  // measure 35
00010000
00100000
01000000
10000000
00200000
00000000
01300000
00000000
,  // measure 36
10000000
00000000
11000000
00000000
00100000
00001000
00010000
00000000
,  // measure 37
00000100
00000000
00001100
00000000
00000001
00000010
00000100
00000000
,  // measure 38
00000010
00000000
00001100
00000000
00000010
00010000
00001000
00000000
,  // measure 39
00001000
00000000
00110000
00000000
00010000
00100000
01000000
10000000
,  // measure 40
01000000
00000000
10100000
00000000
10000000
01000000
00100000
00000000
,  // measure 41
00001000
00000000
00011000
00000000
00000100
00001000
00000010
00000000
,  // measure 42
00001001
00000110
00001001
00000110
,  // measure 43
00000001
00000100
00001000
00000000
00010000
01000000
10000000
00000000
,  // measure 44
11000000
00000000
10010000
00000000
10000000
01000000
00010000
00000000
,  // measure 45
00001000
00000000
00000100
00000000
00000001
00000100
00001000
00000000
,  // measure 46
00010000
00000000
01000000
00000000
10000000
01000000
00010000
00000000
,  // measure 47
00001000
00000100
00000001
00000100
00001000
00000100
00000010
00001000
,  // measure 48
00000100
00001001
00000010
00001001
,  // measure 49
00000100
00001100
00000110
00000011
,  // measure 50
00000100
00001001
00000010
00001000
,  // measure 51
00000001
00000100
00001000
00010000
10000000
01000000
00010000
00001000
,  // measure 52
00000100
00000000
00010000
00001000
00010000
00000000
00000100
00000000
00000100
00000000
00000000
00000000
00001000
00000000
00000100
00000000
,  // measure 53
00000010
00000100
00000010
00000001
00000010
00000100
00000010
00000100
,  // measure 54
00001000
00000000
00000100
00010000
00000100
00000000
00010000
00000000
00001000
00000000
00000000
00000000
00100000
00000000
00010000
00000000
,  // measure 55
01000000
10000000
01000000
00010000
00100000
01000000
10000000
01000000
,  // measure 56
00100000
00000000
00001000
00010000
00001000
00000000
00100000
00000000
00010000
00000000
00000000
00000000
10000000
00000000
01000000
00000000
,  // measure 57
00010000
00001000
00000001
00000100
00001000
00010000
10000000
01000000
,  // measure 58
00100000
00000000
00010000
00100000
00010000
00000000
00100000
00000000
01000000
00000000
10000000
00000000
01000000
00000000
00100000
00000000
,  // measure 59
00001000
00011000
00110000
01100000
,  // measure 60
10000000
01000000
00010000
00001000
00010000
01000000
00010000
00001000
,  // measure 61
00000100
00000001
00000100
00001000
00010000
01000000
00010000
00001000
,  // measure 62
00010000
00000000
00000000
00000000
00001100
00000000
00000000
00000000
00000010
00000000
00000000
00000010
00000000
00000000
00000010
00000000
,  // measure 63
00000000
00000000
00000001
00000000
00000100
00000000
00000010
00001000
00000000
00001000
00000000
00001000
00000100
00000000
00001000
00000000
,  // measure 64
00000001
00000010
00001000
00010000
00001000
00000100
00001000
00010000
,  // measure 65
01000000
10000000
00100000
00010000
00001000
00000010
00000001
00000010
,  // measure 66
00000100
00000000
00000000
00000000
00011000
00000000
00000000
00000000
00010000
00000000
00000000
00010000
00000000
00000000
00010000
00000000
,  // measure 67
00001000
00000000
00000000
00001000
00100000
00000000
00000000
00100000
00010000
00000000
00000000
00010000
01000000
00000000
00000000
00000000
,  // measure 68
00100000
00000000
10000000
00100000
10000000
00000000
00100000
00000000
01000000
00000000
00000000
00000000
00010000
00000000
00000000
00000000
,  // measure 69
10000000
01000000
00010000
00001000
,  // measure 70
00000100
00000000
00000010
00000100
00000010
00000000
00000100
00000000
00000001
00000000
00000000
00000000
00000100
00000000
00000000
00000000
,  // measure 71
00001000
00010000
00100000
00010000
,  // measure 72
01000000
00000000
00100000
10000000
00100000
00000000
10000000
00000000
01000000
00000000
00000000
00000000
00100000
00000000
00001000
00000000
,  // measure 73
00020000
00000000
00000000
00030000
,  // measure 74
00000200
00000000
00020300
00000000
00032000
00000000
01003000
00100000
,  // measure 75
20000000
00000000
00020000
00000000
,  // measure 76
30030000
00000000
00000000
00000000
;

//---------------dance-double - ----------------
#NOTEDATA:;
#CHARTNAME:;
#STEPSTYPE:dance-double;
#DESCRIPTION:;
#CHARTSTYLE:;
#DIFFICULTY:Medium;
#METER:9;
#RADARVALUES:0.417021,0.485106,0.178723,0.289362,0.017021,343.000000,322.000000,21.000000,34.000000,0.000000,0.000000,0.000000,0.000000,0.000000,0.417021,0.485106,0.178723,0.289362,0.017021,343.000000,322.000000,21.000000,34.000000,0.000000,0.000000,0.000000,0.000000,0.000000;
#CREDIT:;
#NOTES:
00000000
00000000
00000000
00000000
,
00000000
00000000
00000000
00000000
,
00000000
00000000
00000000
00000000
,
00000000
00000000
00000000
00000000
,
10000000
01000000
00010000
00001000
,
00000200
00000000
00000300
00000000
,
00000001
00000100
00001000
00010000
,
02000000
00000000
03000000
00000000
,
10000000
01000000
00010000
00001000
,
00000100
00000001
00000100
00001000
,
00010000
01000000
10000000
00000000
,
00100000
00000000
10000000
00000000
00010000
10000000
00010000
00000000
,
10000000
01000000
00100000
00000000
00001000
00000000
00011000
00000000
,
00000100
00000000
00001000
00000000
00000010
00000000
00000000
00000000
00000001
00000000
00000000
00000001
00000000
00000000
00000001
00000000
,
00000000
00001000
00000100
00000000
00001001
00000000
00000110
00000000
,
00000001
00000100
00001000
00000000
00010000
00000000
01000000
00000000
,
10000000
00100000
00010000
01100000
,
10000000
00000000
00000000
00000000
10010000
00000000
00000000
00000000
00100000
00000000
00000000
00100000
00000000
00000000
00100000
00000000
,
02000000
03200000
20300000
30010000
,
10000000
00000000
01000000
00100000
00010000
00000000
00100000
01000000
,
10000000
01000000
00010000
00001000
,
00000100
00000000
00000001
00000000
00001000
00000000
00000010
00000100
,
00000001
00000100
00001000
00010000
,
01000000
00000000
10000000
00000000
00100000
00000000
10000000
01000000
,
00100000
00001000
00010000
00000100
,
00001000
00000000
00000001
00000010
00000100
00000000
00000010
00000100
,
00001000
00000100
00010000
00001000
,
00100000
00010000
00100000
00000000
01000000
10000000
01000000
00000000
,
10000000
01000000
00010000
00001000
,
00000100
00010000
00000100
00000000
00001000
00000010
00001000
00000000
,
00000001
00000100
00001000
00010000
,
00001000
00100000
00001000
00000000
01000000
00010000
01000000
00000000
,
00010000
00100000
01000000
10000000
,
00100000
01000000
00100000
00000000
10000000
01000000
10000000
00000000
,
00010000
00100000
00001000
00010000
,
00000100
00001000
00000100
00001000
00000100
00000000
00000010
00000000
,
00000002
00000000
00000003
00000100
,
00001000
00010000
01000000
10000000
,
00200000
10000000
10300000
10000000
,
01000000
00010000
00001000
00000100
,
00000020
00000001
00000100
00000031
,
00002000
00000100
00000010
00003001
,
00000020
00000100
00000130
00000000
00002000
00000100
00003100
00000000
,
00000020
00000001
00000031
00000000
00000100
00000010
00001000
00000001
,
00000100
00001001
00000010
00001001
,
00000100
00010000
00001000
01000000
,
00100000
10010000
01000000
10010000
,
00100000
00000000
10000000
00000000
01000000
00100000
00010000
00100000
,
01000000
10010000
10000000
11000000
,
00100000
00110000
00011000
00001100
,
00000010
00001001
00000100
00001001
,
00000001
00000010
00000100
00000010
00000001
00000010
00000100
00000010
,
00000001
00000100
00001000
00010000
,
01000000
00010000
01000000
00010000
10000000
00100000
10000000
00100000
,
10000000
01000000
00010000
00001000
,
00010000
00000010
00010000
00000010
00001000
00000100
00001000
00000100
,
00001000
00000001
00000100
00000010
,
00001000
00000100
00001000
00000100
00010000
00001000
00010000
00001000
,
00100000
00010000
01000000
00100000
,
10000000
01000000
10000000
01000000
00100000
00010000
01000000
00000000
,
00100000
11000000
00100000
01010000
,
00100000
10000000
01000000
00000000
00010000
00000000
00001000
00000000
,
00000100
00000000
00000000
00000000
00000001
00000000
00000000
00000000
00000010
00000000
00000000
00000010
00000000
00000000
00000010
00000000
,
00000000
00000001
00000100
00000000
00000010
00000000
00001001
00000000
,
00000001
00000100
00000010
00000000
00001000
00000000
00001100
00000000
,
00000010
00001000
00000100
00000000
00010000
00001000
00010000
00000000
,
00001000
00000000
00100000
00000000
00010000
00000000
00000000
00000000
01000000
00000000
00000000
01000000
00000000
00000000
01000000
00000000
,
00200000
20300000
30020000
01030000
,
00200000
20300000
32000000
03020000
,
00032000
00000000
00023000
00000000
,
00030020
00002030
00003200
00002300
,
00003020
00000000
00020030
00000000
,
00032000
02003000
03200000
02300000
,
03002000
00000000
00000000
00003000
,
00010000
00000000
00001000
00000000
,
00022000
00000000
00000000
00000000
,
00033000
00000000
00000000
00000000
;

//---------------dance-double - ----------------
#NOTEDATA:;
#CHARTNAME:;
#STEPSTYPE:dance-double;
#DESCRIPTION:;
#CHARTSTYLE:;
#DIFFICULTY:Easy;
#METER:6;
#RADARVALUES:0.269909,0.323404,0.042553,0.255319,0.000000,222.000000,217.000000,5.000000,30.000000,0.000000,0.000000,0.000000,0.000000,0.000000,0.269909,0.323404,0.042553,0.255319,0.000000,222.000000,217.000000,5.000000,30.000000,0.000000,0.000000,0.000000,0.000000,0.000000;
#CREDIT:;
#NOTES:
00000000
00000000
00000000
00000000
,
00000000
00000000
00000000
00000000
,
00000000
00000000
00000000
00000000
,
00000000
00000000
00000000
00000000
,
00100000
00000000
00000000
00000000
,
01000000
00000000
00000000
00000000
,
00010000
00000000
00000000
00000000
,
10000000
00000000
00000000
00000000
,
00100000
10000000
01000000
00010000
,
00200000
00000000
00302000
00000000
,
00013000
00010000
00010000
00000000
,
00000100
00001000
00000010
00000001
,
00000100
00001000
00010000
01000000
,
10000000
00010000
10000000
10000000
,
00010000
00100000
01000000
10010000
,
00100000
00100000
10000000
00010000
,
10000000
01000000
00010000
00001000
,
00000100
00000001
00000010
00000010
,
00002002
00000000
00003003
00000000
,
00000001
00000100
00001000
00010000
,
02000000
00000000
03000000
00000000
,
10000000
00100000
00010000
00001000
,
00000200
00000000
00000300
00000000
,
00000001
00000010
00001000
00010000
,
00200000
00000000
00300000
00000000
,
10000000
01000000
00010000
00001000
,
00000020
00000000
00000030
00000000
,
00000001
00000100
00001000
00000100
,
00000001
00000001
00001000
00001000
,
00000100
00010000
00001000
00100000
,
00010000
00010000
10000000
10000000
,
00100000
10000000
01000000
10000000
,
00100000
00100000
01000000
01000000
,
00001000
00001000
00010000
00010000
,
00000010
00001000
00000100
00000001
,
00000100
00001000
00000010
00000000
,
00000002
00000000
00000003
00000100
,
00001000
00010000
00100000
10000000
,
02000000
00000000
03000000
10000000
,
00100000
00010000
00001000
00000100
,
00000002
00000010
00000000
00000013
,
00000000
00000001
00000100
00001000
,
00020000
00030000
00002000
00003000
,
02000000
03000000
00100000
10000000
,
02000000
10000000
00000000
13000000
,
01000000
00100000
00010000
00100000
,
02000000
00100000
00000000
03100000
,
00010000
00100000
00001000
00010000
,
00000020
00001000
00000000
00001030
,
00000001
00000010
00000100
00001000
,
00000020
00000100
00000000
00000130
,
00000001
00000100
00001000
00010000
,
01000000
10000000
01000000
00010000
,
00002000
00000000
00023000
00000000
,
00030100
00001000
00010000
00001000
,
00200000
00000000
00320000
00000000
,
01030000
10000000
01000000
00010000
,
00200000
00000000
00302000
00000000
,
00013000
00000100
00001000
00000010
,
00000100
00000100
00000100
00001001
,
00000001
00001000
00000001
00001000
,
00000001
00000100
00001000
00010000
,
00100000
10000000
01000000
01000000
,
00100000
00010000
01000000
10010000
,
00100000
00100000
01000000
01000000
,
10000000
01000000
00010000
00001000
,
00000010
00000001
00000100
00000100
,
00000020
00000100
00000130
00000000
,
00000001
00000000
00000100
00000000
,
00002000
00000000
00003000
00000000
,
00010000
00000000
01000000
00000000
,
20000000
00000000
30000000
00000000
,
00100000
00000000
00001000
00000000
,
00020000
00000000
00030000
00000000
,
00001000
00000000
00010000
00000000
,
00022000
00000000
00000000
00000000
,
00033000
00000000
00000000
00000000
;

//---------------dance-single - ----------------
#NOTEDATA:;
#CHARTNAME:;
#STEPSTYPE:dance-single;
#DESCRIPTION:;
#CHARTSTYLE:;
#DIFFICULTY:Medium;
#METER:9;
#RADARVALUES:0.443769,0.549787,0.246809,0.365957,0.017021,365.000000,336.000000,29.000000,43.000000,0.000000,0.000000,0.000000,0.000000,0.000000,0.443769,0.549787,0.246809,0.365957,0.017021,365.000000,336.000000,29.000000,43.000000,0.000000,0.000000,0.000000,0.000000,0.000000;
#CREDIT:;
#NOTES:
0000
0000
0000
0000
,
0000
0000
0000
0000
,
0000
0000
0000
0000
,
0000
0000
0000
0000
,
1000
0100
0001
0100
,
2000
0000
3000
0000
,
0001
0100
1000
0100
,
0002
0000
0003
0000
,
1000
0100
0001
0010
,
1000
0010
0001
0100
,
1000
0010
1001
0000
,
0010
0000
1000
0000
0001
1000
0001
0000
,
1000
0100
0010
0000
0001
0010
0100
0000
,
1000
0000
0001
0000
0100
0000
0000
0000
0010
0000
0000
0010
0000
0000
0010
0000
,
0000
0001
1000
0000
0110
0000
1001
0000
,
0001
1000
0010
0000
1000
0001
0100
0000
,
1000
0010
0001
0110
,
1000
0000
0000
0000
1001
0000
0000
0000
0010
0000
0000
0010
0000
0000
0010
0000
,
0200
0320
2030
3001
,
1000
0000
0100
0010
0001
0000
0010
0100
,
1000
0100
0001
0100
,
1000
0010
1000
0000
0001
0000
0100
0010
,
0100
0001
1000
0010
,
1000
0000
0001
0100
0010
0000
1000
0100
,
0010
0001
0010
0100
,
1000
0000
0001
0010
0100
0000
0010
0100
,
1000
0001
0100
1001
,
0010
0001
0010
0000
0100
1000
0100
0000
,
1000
0100
0001
0100
,
1000
0001
1000
0000
0010
0100
0010
0000
,
1000
0100
0010
0001
,
1000
0010
1000
0000
0001
0100
0001
0000
,
1000
0010
0100
0001
,
0010
0100
0010
0000
1000
0100
1000
0000
,
0001
0010
0100
1000
,
0010
0100
0010
0100
0010
0000
1001
0000
,
0220
0000
0330
0001
,
1000
0001
1000
0000
0001
1000
0001
0000
,
0020
1000
1030
0001
,
1000
0001
0100
0000
0010
0000
1000
0001
,
0200
0010
0001
0310
,
0002
1000
0100
1003
,
0020
1000
1030
0000
0002
0100
0103
0000
,
0020
0100
0130
0000
0010
0100
0001
1000
,
0020
0000
1000
0000
0130
0000
1000
0001
,
0200
0301
2000
3010
,
2000
0001
0100
3001
,
0010
0000
1000
0000
0100
0010
0001
0010
,
0100
1001
1000
1100
,
0010
0011
0101
1001
,
0010
1000
0100
0000
0010
0001
0100
0000
,
0010
1000
0010
1000
0001
0100
0001
0100
,
0010
0000
1000
0001
0100
0000
0001
1000
,
0100
0000
0101
0000
1000
0010
1000
0000
,
1000
0000
0010
1000
0010
0000
0100
0001
,
0100
0101
1010
0101
,
1000
0100
0010
0100
1000
0001
1000
0001
,
1000
0110
0001
0110
,
1000
0001
1000
0001
0100
0010
0100
0010
,
2000
3200
0320
0031
,
0011
1100
0010
0101
,
0010
0001
0100
0000
0010
1000
0100
0000
,
0010
0000
0001
0000
0100
0000
0000
0000
0010
0000
0000
0010
0000
0000
0010
0000
,
0000
1000
0001
0000
0110
0000
1001
0000
,
0001
1000
0100
1000
0001
0000
0110
0000
,
1000
0001
0010
0001
1000
0000
0110
0000
,
1001
0000
0000
0000
0110
0000
0000
0000
0100
0000
0000
0100
0000
0000
0100
0000
,
0020
2030
3002
0103
,
0020
2030
3200
0302
,
0023
0000
0230
0000
,
0302
0203
2300
3020
,
0230
0000
0302
0000
,
0203
0320
2030
3002
,
0203
0000
0020
0330
,
0001
0010
0100
1000
,
2002
0000
0000
0000
,
3003
0000
0000
0000
;

//---------------dance-single - ----------------
#NOTEDATA:;
#CHARTNAME:;
#STEPSTYPE:dance-single;
#DESCRIPTION:;
#CHARTSTYLE:;
#DIFFICULTY:Easy;
#METER:6;
#RADARVALUES:0.271125,0.323404,0.051064,0.263830,0.000000,223.000000,217.000000,6.000000,31.000000,0.000000,0.000000,0.000000,0.000000,0.000000,0.271125,0.323404,0.051064,0.263830,0.000000,223.000000,217.000000,6.000000,31.000000,0.000000,0.000000,0.000000,0.000000,0.000000;
#CREDIT:;
#NOTES:
0000
0000
0000
0000
,
0000
0000
0000
0000
,
0000
0000
0000
0000
,
0000
0000
0000
0000
,
0010
0000
0000
0000
,
0100
0000
0000
0000
,
0001
0000
0000
0000
,
1000
0000
0000
0000
,
0010
1000
0100
0001
,
0020
0000
2030
0000
,
3001
0001
0001
0000
,
0100
1000
0010
0001
,
0010
1000
0100
0001
,
0010
0001
0100
1000
,
0001
0010
0100
1001
,
0010
0010
1000
0001
,
1000
0100
0001
0100
,
1000
0010
0001
0001
,
2002
0000
3003
0000
,
1000
0100
0010
0001
,
0200
0000
0300
0000
,
1000
0100
0010
0001
,
0200
0000
0300
0000
,
0001
0010
0100
1000
,
0020
0000
0030
0000
,
1000
0100
0010
0001
,
2002
0000
3003
0000
,
1000
0100
0001
0100
,
1000
1000
0001
0001
,
0100
0001
1000
0010
,
1000
1000
0001
0001
,
0100
0001
0100
1000
,
0010
0010
0100
0100
,
0001
0001
1000
1000
,
0010
0100
0001
0100
,
1000
0100
0001
0000
,
2000
0000
3000
0100
,
0001
0100
1000
0010
,
0200
0000
0300
0001
,
0010
0100
1000
0100
,
0002
0010
0000
0013
,
0000
0001
0100
0010
,
2000
3000
0002
0003
,
0200
0300
0010
1000
,
0200
1000
0000
1300
,
0100
0010
0001
0010
,
0200
0010
0000
0310
,
0001
0010
0100
1000
,
0200
0001
0000
0301
,
1000
0100
0010
0001
,
0200
0010
0000
0310
,
1000
0010
0100
0001
,
0100
1000
0100
0001
,
2000
0000
3002
0000
,
1003
0010
0100
0010
,
2000
0000
3002
0000
,
0103
1000
0100
0001
,
0020
0000
0032
0000
,
0103
0010
1000
0001
,
0100
0100
0100
1001
,
1000
0001
1000
0001
,
1000
0100
0010
0001
,
0010
0100
1000
0100
,
0010
0001
0100
1001
,
0010
0010
0100
0100
,
1000
0100
0001
0100
,
1000
0010
0001
0100
,
2000
0001
3001
0000
,
1000
0000
0100
0000
,
0020
0000
0030
0000
,
0001
0000
0100
0000
,
2000
0000
3000
0000
,
0010
0000
1000
0000
,
0002
0000
0003
0000
,
0100
0000
0010
0000
,
2002
0000
0000
0000
,
3003
0000
0000
0000
;

//---------------dance-single - ----------------
#NOTEDATA:;
#CHARTNAME:;
#STEPSTYPE:dance-single;
#DESCRIPTION:;
#CHARTSTYLE:;
#DIFFICULTY:Beginner;
#METER:2;
#RADARVALUES:0.139818,0.194043,0.017021,0.255319,0.000000,115.000000,113.000000,2.000000,30.000000,0.000000,0.000000,0.000000,0.000000,0.000000,0.139818,0.194043,0.017021,0.255319,0.000000,115.000000,113.000000,2.000000,30.000000,0.000000,0.000000,0.000000,0.000000,0.000000;
#CREDIT:;
#NOTES:
0000
0000
0000
0000
,
0000
0000
0000
0000
,
0000
0000
0000
0000
,
0000
0000
0000
0000
,
0010
0000
0000
0000
,
0100
0000
0000
0000
,
0001
0000
0000
0000
,
1000
0000
0000
0000
,
0010
0000
0010
0000
,
0020
0000
0030
0000
,
0001
0001
0001
0000
,
0100
0000
0100
0000
,
0010
0000
0010
0000
,
0100
0000
0100
0000
,
0001
0000
1000
0000
,
0010
0000
1000
0000
,
1000
0000
0001
0000
,
1000
0000
0001
0000
,
2002
0000
3003
0000
,
1000
0000
1000
0000
,
2000
0000
3000
0000
,
0001
0000
0001
0000
,
0002
0000
0003
0000
,
0010
0000
0010
0000
,
0020
0000
0030
0000
,
0100
0000
0100
0000
,
0200
0000
0300
0000
,
1000
0000
0100
0000
,
2000
0000
3000
0000
,
0001
0000
0100
0000
,
0002
0000
0003
0000
,
0100
0000
0010
0000
,
0200
0000
0300
0000
,
0010
0000
0100
0000
,
2000
0000
3000
0000
,
0002
0000
0003
0000
,
2000
0000
3000
0000
,
0001
0000
1000
0000
,
0200
0000
0300
0000
,
0010
0000
0100
0000
,
0002
0000
0000
0003
,
0000
0000
0100
0000
,
2000
0000
3000
0000
,
0100
0000
0010
0000
,
0200
0000
0000
0300
,
0100
0000
0001
0000
,
0200
0000
0000
0300
,
0100
0000
0010
0000
,
0200
0000
0000
0300
,
0000
0100
0100
0100
,
0200
0000
0300
0000
,
1000
0000
0001
0000
,
1000
0000
1000
0000
,
2000
0000
3000
0000
,
0001
0000
0001
0000
,
0002
0000
0003
0000
,
0100
0000
0100
0000
,
0020
0000
0030
0000
,
0100
0000
0001
0000
,
0200
0000
0300
0000
,
1000
0000
1000
0000
,
0001
0000
0001
0000
,
0010
0000
0010
0000
,
0100
0000
0100
0000
,
0010
0000
0100
0000
,
0001
0000
1000
0000
,
0001
0000
0100
0000
,
0020
0000
0030
0000
,
1000
0000
0100
0000
,
0020
0000
0030
0000
,
0001
0000
0100
0000
,
0020
0000
0030
0000
,
1000
0000
0100
0000
,
0020
0000
0030
0000
,
0001
0000
0100
0000
,
2002
0000
0000
0000
,
3003
0000
0000
0000
;
