#TITLE:1-2-3;
#SUBTITLE:;
#ARTIST:After The Rain (そらる x まふまふ);
#TITLETRANSLIT:;
#SUBTITLETRANSLIT:;
#ARTISTTRANSLIT:After The Rain (soraru x mafumafu);
#GENRE:;
#CREDIT:;
#BANNER:1-2-3.png;
#BACKGROUND:1-2-3-bg.png;
#LYRICSPATH:;
#CDTITLE:;
#MUSIC:1-2-3.ogg;
#OFFSET:1.019999;
#SAMPLESTART:44.058197;
#SAMPLELENGTH:14.505493;
#LASTBEATHINT:0.083552;
#SELECTABLE:YES;
#DISPLAYBPM:91.000000:182.000000;
#BPMS:0.000000=185.000000
,8.000000=184.000000
,12.000000=182.500000
,33.000000=180.000000
,36.000000=182.399994
,56.000000=182.000000
,108.000000=91.000000
,114.000000=182.000000
;
#STOPS:
;
#BGCHANGES:;
#KEYSOUNDS:;
#ATTACKS:;

//---------------dance-single - ----------------
#NOTES:
     dance-single:
     :
     Easy:
     6:
     0.352216,0.402352,0.230342,0.290060,0.000000,289.000000,262.000000,27.000000,34.000000,0.000000,0.000000,0.352216,0.402352,0.230342,0.290060,0.000000,289.000000,262.000000,27.000000,34.000000,0.000000,0.000000:
0000
0000
0000
0000
,
0000
0000
0000
0000
,
1000
0100
0010
0001
,
0010
1000
0100
1001
,
0010
0001
0010
0001
,
0100
0000
1000
0000
0000
1001
0000
0000
,
0010
1000
0100
0001
,
0010
0100
1000
0110
,
0001
0000
0010
0000
0100
0000
0000
1001
,
0000
0000
0010
0000
0010
0000
0000
0010
,
0000
0010
0000
0000
1001
0000
0000
0000
,
0010
0010
0010
0000
,
0100
0100
0100
0000
,
0001
0001
0001
0000
,
1000
1000
1000
0000
,
0002
0003
2000
3000
,
0020
0030
0200
0300
,
0001
0001
1000
1000
,
0010
0010
1001
0000
,
0001
0001
0100
0100
,
1000
1000
0010
0010
,
0001
0001
1000
1000
,
0100
0100
0010
0010
,
0001
0100
1000
0000
,
1000
0010
0001
0000
,
0010
0010
0100
0100
,
0001
0001
1001
0000
,
0020
0000
0030
0200
0000
0300
0002
0000
,
0003
2000
0000
3000
0000
0000
2200
0000
,
3300
0022
0033
1000
,
0001
0100
0010
2002
,
3003
0220
0330
0000
,
1000
1001
0001
0100
,
0100
0110
0000
0001
,
0100
1000
0100
0010
,
0010
0110
0000
1000
,
0010
0001
0010
2000
,
3010
0000
0010
0200
,
0301
0000
0001
2000
,
3001
0000
0001
0010
,
0100
1000
0010
0100
,
0100
0001
0001
1000
,
0100
0010
0001
0010
,
0010
1000
1000
0001
,
0010
0100
1000
0002
,
0003
2000
3000
0001
,
0001
1000
1000
0020
,
0030
0200
0300
0110
,
0110
1001
0000
0100
,
0100
0100
0001
0010
,
0100
1000
0100
0010
,
0010
0010
1000
0100
,
0010
0001
0100
2002
,
3003
0010
1000
0200
,
0300
0010
0001
0200
,
0300
0020
0030
1000
,
0100
0010
0001
0100
,
0100
0010
0010
1000
,
0001
0100
0010
1000
,
1000
0001
0001
0010
,
0100
0001
1000
2002
,
3003
0020
0030
1000
,
0100
0010
0001
1000
,
1000
0001
0001
0100
,
0100
0000
0010
1001
,
0000
0001
0010
0100
,
0010
0001
1000
1001
,
0000
1000
0100
0010
,
0100
1000
0001
0200
,
0000
0000
0300
0000
0000
1001
0000
0000
,
0000
0000
0000
0001
,
0100
1000
0100
0001
,
0010
1000
1000
0010
,
0010
0100
0100
0001
,
0100
0000
0000
1001
0000
0000
0010
0000
,
0010
0100
0100
1000
,
0001
1000
0001
1000
,
0100
0000
0010
0000
0000
1001
0000
0000
,
0010
0000
0100
0000
0000
0001
0000
0001
,
0000
0000
1001
0000
0000
1000
0000
1000
,
0000
1001
0000
0000
,
0000
0000
0000
2002
0000
0000
0000
0000
,
0000
0000
0000
0000
,
0000
0000
0000
0000
,
0000
0000
0000
0000
,
0000
0000
0000
3003
;

//---------------dance-single - ----------------
#NOTES:
     dance-single:
     :
     Hard:
     13:
     0.684932,0.768127,0.375372,0.443622,0.119437,562.000000,518.000000,44.000000,52.000000,0.000000,0.000000,0.684932,0.768127,0.375372,0.443622,0.119437,562.000000,518.000000,44.000000,52.000000,0.000000,0.000000:
0000
0000
0000
0000
,
0000
0000
0000
0000
,
1000
0100
0010
0002
0000
0103
0010
0200
,
0000
0310
0100
0002
0000
1003
0100
0020
,
0000
0031
0100
0001
1000
0100
0010
0001
,
0000
0100
0010
1010
0000
0202
0000
0303
,
0001
0010
0100
2000
0000
3001
0100
0020
,
0000
1030
0100
0002
0000
1003
0010
0200
,
0000
0301
0010
0100
1000
0010
0010
0110
,
0000
1000
0100
0000
0010
0001
0000
0110
,
0000
1001
0000
0100
0100
0000
0000
1001
,
0000
0001
1000
0001
1000
0100
0010
0002
,
0000
0013
0100
1000
0000
0001
0100
0020
,
0000
1030
0100
1000
0010
0100
0010
0200
,
0000
0301
0010
0100
0000
1000
0100
0001
,
0000
1000
0010
0001
0000
1000
0100
0010
,
0000
0001
0010
0100
0000
0001
1000
0100
,
0000
0000
1000
0100
1000
0000
0001
0000
0100
0000
0010
0000
1000
0000
0100
0000
,
1000
0001
0010
0100
1000
0001
0010
0002
,
0000
0103
0001
1000
0100
0010
0100
1000
,
0001
0010
0010
0002
0000
1003
0100
0020
,
0000
0031
0100
0001
1000
0100
0001
0100
,
0010
0100
0001
2000
0000
3010
0100
1000
,
0000
0001
0010
0100
0000
1001
0000
0020
,
0000
1030
0100
0010
0001
0100
0010
1000
,
0100
0010
0100
0002
0000
1003
0100
0010
,
0000
1010
1010
0000
0001
0010
0100
1000
,
0002
0013
0011
2000
3200
0320
0032
0103
,
0101
2002
0000
0000
0000
3003
1000
0100
,
1100
0000
0001
0100
0101
0000
1000
0100
,
0010
0001
0010
0100
0001
1000
0010
1000
,
0001
0100
0010
0100
0001
1000
0000
0001
,
0010
0000
0100
0000
1000
0000
0000
0000
0110
0000
0000
0000
1000
0100
0000
0000
,
0100
0010
0000
0000
0010
0001
0000
0000
0001
0000
0100
0000
0001
0000
1000
0000
,
0100
0000
1000
0000
0010
0000
0100
0000
0001
0000
1000
0000
0010
1000
0000
0000
,
1000
0001
0000
0000
0001
0100
0000
0000
0100
0000
0010
0000
1000
0000
0001
0000
,
0010
0100
1000
0100
0010
0002
0000
0000
,
0103
0000
0001
0010
0001
2000
0000
0000
,
3010
0000
0000
0000
1000
0000
0010
1000
0010
0000
0200
0000
0000
0000
0010
0000
,
0310
0000
0000
0000
1000
0000
0100
0000
0010
0000
0002
0000
0000
0000
0103
0001
,
0100
0000
0010
1000
0010
0000
1000
0000
0001
0000
0010
0000
0100
0000
0010
0000
,
0001
1000
0010
1000
0001
0010
0000
0010
,
0200
0000
0301
1000
0100
0010
0002
0000
,
1003
0100
0001
1000
0010
0002
0000
1000
,
1003
0000
0010
0100
0101
0000
1000
0100
,
1000
0000
0001
0000
0100
0000
0001
0000
1000
0000
0001
0000
1000
0100
0000
0000
,
0100
0010
0000
0000
0010
0001
0000
0000
0001
0100
0000
0000
0220
0000
0330
0000
,
0001
0000
0100
0000
0101
0000
0000
0000
1001
0000
0000
0000
1000
0000
0001
0010
,
0001
2000
0000
0010
3010
0000
0110
0000
,
1000
0100
0010
0100
1000
0001
0010
0001
,
1000
0000
0010
0000
0100
0000
0010
0100
0010
0000
0000
0000
0101
0000
0000
0000
,
0001
1000
0010
1000
0100
0010
0001
0100
,
0001
1000
0001
0010
0001
0100
0010
0000
,
0110
0000
0001
0100
0010
2000
0000
0000
,
3001
0000
1000
0100
0010
0002
0000
1000
,
1003
0000
0000
0000
0001
0000
0100
0000
1000
0000
0020
0000
0000
0000
0130
0010
,
0100
0000
0010
0100
0010
0000
1000
0000
0100
0000
0020
0000
0000
0000
0031
0010
,
0001
0000
0100
0000
0000
0000
0010
0000
1000
0000
0002
0000
0000
0000
1003
0001
,
1000
0010
0000
1000
0100
0010
0000
0001
,
0100
1000
0000
0110
0000
1000
0001
0000
,
1000
0000
0100
0010
0001
1000
0000
0001
,
0100
0001
1000
0100
0010
0001
0000
1000
,
0100
1000
0001
0010
0100
1000
0000
0001
,
0100
0010
1000
0100
0010
0100
1000
0001
,
0010
0011
0000
0000
1010
0000
0101
0000
,
0100
0010
0010
1000
0100
0001
1000
0010
,
0001
0100
0000
0010
0110
0000
1001
0000
,
0010
0010
0001
1000
0100
0010
0001
0100
,
0010
1000
0001
0000
1000
0100
0002
0000
,
0000
1000
1003
0000
0000
0110
0000
1000
,
0100
0000
0010
0000
0001
0000
1001
0000
0000
0000
0000
0000
0010
0000
0001
0010
,
0001
0000
2000
0000
0000
0000
3010
1000
0010
0000
0200
0000
0000
0000
0301
0100
,
0001
2000
0000
3010
1000
0100
0000
1000
,
0100
0010
0100
1000
0001
0100
0000
0001
,
0100
0000
1000
0000
0000
0000
2002
0000
0000
0000
3003
0000
1000
0000
0010
1000
,
0010
0000
0200
0000
0000
0000
0301
0100
0001
0000
2000
0000
0000
0000
3010
1000
,
0010
0200
0000
0301
1000
1100
0000
0001
,
1000
1000
0100
0010
0001
1001
0000
0010
,
0011
0000
1000
1100
0000
0011
0000
0110
,
0000
1001
1001
0000
0000
1100
0000
0011
,
0000
0000
0110
0000
1001
0000
0000
0000
0000
0000
0000
0010
0100
0010
0000
0000
,
0000
0000
0000
2002
0000
0000
0000
0000
,
0000
0000
0000
0000
,
0000
0000
0000
0000
,
0000
0000
0000
0000
,
0000
0000
0000
3003
;

//---------------dance-single - ----------------
#NOTES:
     dance-single:
     :
     Medium:
     9:
     0.492371,0.585239,0.358310,0.247404,0.000000,404.000000,362.000000,42.000000,29.000000,0.000000,0.000000,0.492371,0.585239,0.358310,0.247404,0.000000,404.000000,362.000000,42.000000,29.000000,0.000000,0.000000:
0000
0000
0000
0000
,
0000
0000
0000
0000
,
1000
0100
1000
0100
0000
0010
0001
0010
,
0000
0001
0100
0001
0000
0100
1000
0100
,
0000
1000
0010
0000
0001
0000
0100
0010
,
0000
1000
0000
0001
0000
1001
0000
0000
,
0001
0010
0001
0010
0000
1000
0100
1000
,
0000
0100
0001
0100
0000
0001
0010
0001
,
0000
1000
0100
0000
0010
0000
0000
0001
,
0000
0001
1000
0000
0010
0100
0000
0001
,
0000
1001
0000
0100
0010
0000
0000
0000
,
2000
0100
0100
3100
,
0002
0100
0100
0103
,
2000
0010
0010
3010
,
0002
0010
0010
0013
,
2000
0100
0001
3010
,
0002
0100
1000
0013
,
2000
3001
0002
1003
,
0010
0000
0110
0000
1001
0000
0001
1000
,
0000
0001
0010
0001
0010
0000
0010
0100
,
0000
0100
1000
0100
0000
0000
1000
0100
,
0000
0100
0010
0100
0010
0000
0010
0001
,
0000
0001
0100
0001
0000
1000
0100
1000
,
0000
0010
0100
0010
0000
1000
0000
0001
,
0000
1000
0100
0000
0010
0001
0010
0001
,
0000
0100
1000
0010
,
0000
0001
0001
0000
2002
0000
3003
0000
,
0020
0000
1030
0100
0010
0001
0200
0000
,
0010
0020
0000
0330
0000
0000
2020
0000
,
3030
0000
0202
0000
0303
0000
1000
0100
,
1000
0000
0001
0100
0001
0000
0200
0000
,
0000
0010
0310
0000
0000
1001
0000
1000
,
0001
1000
0001
0000
0000
0000
0110
0000
,
1001
0000
0110
0000
0001
1000
0000
0001
,
1000
0001
0000
0000
0000
0000
0110
0000
,
1001
0000
0110
0000
1000
0001
0000
0011
,
0000
0110
0000
1100
0000
2002
0000
3003
,
0001
0000
1000
0010
0000
1001
0000
0000
,
1000
0000
0100
0000
0010
0001
0000
0001
,
0100
0000
0100
1000
0000
1000
0000
1000
,
0010
0000
1000
0001
0100
0000
0010
0000
,
0100
0000
0001
1000
0001
0000
1000
0000
,
0100
0000
0010
0001
0010
0000
0001
0000
,
0100
0000
0010
1000
0010
0000
1000
0000
,
0100
0000
0010
0001
0010
0000
0002
0000
,
0000
0100
0200
0000
0303
0000
1000
0000
,
0100
0010
0001
0100
,
1001
0000
0010
0000
1001
0000
0100
0010
,
0100
0020
0000
0000
0030
0000
0110
0000
,
1001
0000
0110
0000
1000
0001
0000
1000
,
0100
0010
0000
0000
0000
0000
1001
0000
,
0110
0000
1001
0000
0001
0010
0000
0100
,
0010
0100
0000
0010
0000
2002
0000
3003
,
0010
0000
0001
1000
0000
0020
0000
0000
,
1030
0000
0100
0000
0010
0001
0000
0001
,
0100
0000
0010
1000
0010
1000
0000
1000
,
0100
0000
0010
0001
0010
0001
0000
0100
,
0000
0010
0000
1000
0100
1000
0000
0010
,
0000
0100
0000
0001
1000
0001
0000
1000
,
0001
1000
0000
0010
0000
0100
0010
0000
,
1000
0100
0010
0001
,
0100
0101
0000
1000
,
0100
1100
0000
0010
,
0100
0000
0001
0000
1000
0000
0010
0100
,
0010
0100
0000
0000
0110
0000
1001
0000
,
0000
0000
0001
0000
0100
0000
1000
0010
,
1000
0010
0001
1001
,
0000
0000
0010
0000
1000
0000
0100
0001
,
0100
0000
0001
0000
0010
0100
0020
0000
,
0000
0000
0030
0000
0000
1001
0000
1000
,
0001
1000
0001
1000
0000
0000
1000
0100
,
1000
0100
0000
0010
0001
0010
0000
0001
,
0100
0001
0000
0100
0010
0100
0000
0001
,
0010
0000
0100
1000
0100
1000
0000
0010
,
0001
0010
0000
0101
0000
0000
1000
0001
,
1000
0001
0000
0100
0010
0100
0000
0001
,
0010
0001
0000
1000
0100
1000
0000
0001
,
0010
0000
1000
0100
0010
0001
0000
0100
,
0010
0000
1000
0001
0000
1100
0000
0110
,
0000
0000
1001
0000
0000
0011
0000
0110
,
0000
1001
0000
0000
,
0000
0000
0000
2002
0000
0000
0000
0000
,
0000
0000
0000
0000
,
0000
0000
0000
0000
,
0000
0000
0000
0000
,
0000
0000
0000
3003
;

//---------------dance-single - ----------------
#NOTES:
     dance-single:
     :
     Beginner:
     4:
     0.182811,0.256042,0.051187,0.110905,0.000000,150.000000,144.000000,6.000000,13.000000,0.000000,0.000000,0.182811,0.256042,0.051187,0.110905,0.000000,150.000000,144.000000,6.000000,13.000000,0.000000,0.000000:
0000
0000
0000
0000
,
0000
0000
0000
0000
,
0000
0000
0000
0000
,
0000
0000
0000
0000
,
0000
0000
0000
0000
,
0000
0000
0000
0000
,
0010
0000
0010
0000
,
0100
0000
0100
0000
,
0010
0000
0010
0000
,
0100
0100
0100
0000
,
0010
0010
0010
0000
,
1000
0000
1000
0000
,
0001
0000
0001
0000
,
0100
0000
0100
0000
,
0010
0000
0010
0000
,
2000
0000
3000
0000
,
0002
0000
0003
0000
,
0100
0000
0100
0000
,
0010
0000
0010
0000
,
1000
0000
1000
0000
,
0001
0000
0001
0000
,
1000
0000
0001
0000
,
1000
0000
0001
0000
,
0100
0000
0100
0000
,
0010
0000
0010
0000
,
0200
0000
0000
0000
,
0300
0000
0000
0000
,
0002
0003
0000
2000
,
3000
0000
0000
0010
,
0000
0010
0000
1000
,
0000
1000
0000
0100
,
0000
0100
0000
0020
,
0000
0030
0000
0001
,
0001
0001
0000
1000
,
0000
0001
0000
1000
,
1000
1000
0000
0001
,
0000
1000
0000
0010
,
0000
0000
0000
0100
,
0000
0000
0000
0001
,
0000
0000
0000
1000
,
0000
0000
0000
0010
,
0010
0010
0000
0100
,
0000
0100
0000
0010
,
0010
0010
0000
1000
,
0000
1000
0000
0002
,
0000
0003
0000
2000
,
0000
3000
0000
0001
,
0000
1000
0000
0001
,
0001
0001
0000
1001
,
0000
0010
0000
0020
,
0000
0030
0000
1001
,
0000
0100
0000
0200
,
0000
0300
0000
0010
,
0000
0000
0000
0010
,
0000
0010
0000
0100
,
0000
0100
0000
0002
,
0003
0001
0000
1000
,
0000
1000
0000
0010
,
0000
0010
0000
0001
,
0000
0001
0000
0100
,
0000
0100
0000
0010
,
0000
0010
0000
1000
,
1000
1000
0000
0001
,
0000
0100
0000
0001
,
0000
1000
0000
1001
,
0000
0000
0000
0010
,
0010
0010
0000
1001
,
0000
0000
0000
0100
,
0100
0100
0000
1001
,
0000
0000
0000
0010
,
0000
0000
0000
0100
,
0000
0100
0000
0001
,
0000
0001
0000
0010
,
0000
0010
0000
1000
,
0000
1000
0000
0100
,
0000
1000
0000
0010
,
0000
0001
0000
0100
,
0100
0100
0000
0010
,
0010
0010
0000
1000
,
1000
1000
0000
0001
,
0001
0001
0000
0000
,
0000
0000
0000
2002
0000
0000
0000
0000
,
0000
0000
0000
0000
,
0000
0000
0000
0000
,
0000
0000
0000
0000
,
0000
0000
0000
3003
;

//---------------dance-double - ----------------
#NOTES:
     dance-double:
     :
     Hard:
     13:
     0.647151,0.731549,0.290060,0.409497,0.102374,531.000000,497.000000,34.000000,48.000000,0.000000,0.000000,0.647151,0.731549,0.290060,0.409497,0.102374,531.000000,497.000000,34.000000,48.000000,0.000000,0.000000:
00000000
00000000
00000000
00000000
,
00000000
00000000
00000000
00000000
,
01000000
00100000
10000000
00020000
00000000
00130000
00001000
00020000
,
00000000
00030100
00001000
00000010
00000000
00000100
00000001
00002000
,
00000000
00003100
00001000
00000100
00010000
00001000
00010000
00001000
,
00000000
00100000
00010000
01000000
00000000
20200000
00000000
30300000
,
10000000
01000000
00100000
00020000
00000000
00130000
00001000
00020000
,
00000000
00030010
00001000
00000100
00000000
00000010
00000001
00001000
,
00000000
00000100
00010000
00000000
00001000
00100000
00010000
01000000
,
00000000
10000000
01000000
00000000
00010000
00001000
00000000
00000100
,
00000000
00000010
00000000
00000001
00001001
00000000
00000000
00000000
,
00000002
00000100
00000100
00000103
,
00002000
00000000
00000100
00000000
00003100
00010000
00001000
00010000
,
00002000
01000000
01000000
01003000
,
00020000
00000000
10000000
00000000
10030000
00100000
01000000
00010000
,
00000000
00001000
00010000
00000100
00000000
00010000
00000100
00001000
,
00000000
00000010
00000100
00001000
00000000
00010000
00001000
00000100
,
00000000
00010000
00001000
00010000
00001000
01000000
00010000
10000000
,
00000000
10000000
01000000
00100000
00010000
00100000
01000000
00010000
,
00000000
00001000
00010000
00001000
00010000
00001000
00010000
00000100
,
00001000
00000100
00000010
00000001
00000000
00001000
00000100
00010000
,
00000000
00001000
00010000
00001000
00010000
00001000
00100000
00010000
,
00000000
01000000
00100000
10000000
00000000
01000000
00100000
00010000
,
00000000
00001000
00010000
00001000
00010000
00000100
00000000
00001100
,
00000000
00000010
00000001
00000100
00000010
00001000
00000100
00020000
,
00000000
00031000
00100000
00010000
00100000
00001000
00010000
00000100
,
00000000
00001000
00001000
00000000
00000110
00000000
00001001
00000000
,
00000001
00000100
00001000
00010000
00100000
10000000
02000000
00010000
,
03001000
00022000
00000000
00000000
00000000
00033000
00220000
00000000
,
00330000
00000000
00000000
00000000
00002200
00000000
00000000
00000000
00003300
00000000
00000000
00000000
00000100
00001000
00000100
00000000
,
00001000
00000000
00000000
00000000
00000001
00000100
00000001
00000000
00000100
00000000
00000000
00000000
00000020
00000000
00000000
00000000
,
00001030
00000100
00002200
00000000
00003300
00001100
00000000
00000100
,
00010000
00000000
00001000
00000000
01000000
00000000
00000000
00000000
10010000
00000000
00000000
00000000
10000000
01000000
00000000
00000000
,
01000000
00100000
00000000
00000000
00100000
00010000
00000000
00000000
00100000
00000000
00001000
00000000
00010000
00000000
00100000
00000000
,
00010000
00000000
10000000
00000000
01000000
00000000
00100000
00000000
00010000
00000000
00000000
00000000
00010000
00100000
00000000
00000000
,
00100000
01000000
00000000
00000000
01000000
10000000
00000000
00000000
00100000
00000000
10000000
00000000
00000000
00000000
01000000
00000000
,
00100000
00001000
00000000
00010000
00001000
00000200
00000000
00001000
,
00001300
00000000
00000001
00000010
00000100
00002000
00000000
00000100
,
00003100
00000000
00000100
00010000
00001000
00020000
00000000
00001000
,
00031000
00000000
00100000
00010000
01000000
00200000
00000000
10300000
,
01000000
00000000
10000000
00000000
00010000
00000000
00100000
00010000
00100000
00000000
01000000
00000000
00100000
00000000
00001000
00000000
,
00100000
00010000
00000000
00001000
00000100
00000001
00000000
00000010
,
00000020
00000000
00000031
00000100
00000010
00001000
00000100
00000000
,
00010000
00020000
00000000
00031000
00100000
00010000
00000000
01000000
,
01100000
00000000
00000000
00000000
10000000
00000000
00100000
01000000
00100000
00000000
10000000
00000000
00020000
00000000
00000000
00000000
,
00130000
01000000
20000000
00000000
31000000
00100000
00010000
01000000
,
00001000
00010000
00000100
00001000
00000010
00000100
00000001
00000000
,
00000110
00000000
00001000
00000000
00011000
00000000
00010000
00001000
,
00100000
00020000
00000000
01030000
01010000
00000000
10010000
00000000
,
10000000
01000000
00100000
01000000
00100000
00001000
00010000
00000200
,
00000000
00000310
00000001
00000000
00001001
00000000
00000100
00000010
,
00000001
00000010
00000001
00000100
00001000
00000200
00000000
00010300
,
00001000
00200000
00000000
00310000
01000000
10000000
00100000
00000000
,
10010000
00000000
10000000
01000000
00100000
00020000
00000000
00030100
,
00001000
00000000
00000010
00000000
00001000
00000000
00000100
00000000
00000010
00000000
00000001
00000000
00000000
00000000
00000001
00001000
,
00000001
00000000
00001000
00000000
00000100
00000000
00010000
00000000
00001000
00000000
02000000
00000000
00000000
00000000
03100000
01000000
,
00100000
00000000
10000000
01000000
10000000
00000000
00010000
00100000
00010000
00000000
01000000
00000000
00000000
00000000
10000000
00000000
,
01000000
00100000
00000000
00001000
00010000
00000010
00000000
00000001
,
00000100
00001000
00000000
00001000
00010000
00100000
00000000
00100000
,
00010000
01000000
00000000
10010000
00000000
00100000
10000000
00100000
,
01000000
00000000
00100000
00000000
10000000
00000000
01000000
00000000
00100000
00000000
00010000
00000000
00000000
00000000
00100000
00010000
,
00100000
00000000
01000000
10000000
01000000
00000000
00100000
00000000
00001000
00000000
00010000
00000000
00000000
00000000
00000100
00001000
,
00000100
00000000
00001000
00000010
00001000
00000000
00000001
00000000
00001000
00000000
00001100
00000000
00000000
00000000
00000001
00000000
,
00000100
00001000
00010000
00100000
01000000
10000000
00100000
01000000
,
00010000
00100000
00000000
01000000
01100000
00000000
10010000
00000000
,
10000000
01000000
00100000
01000000
10000000
00010000
00100000
00001000
,
00100000
00010000
00000000
00001000
00011000
00000000
00001100
00000000
,
00000010
00000001
00000100
00000010
00001000
00000100
00010000
00001000
,
01000000
00010000
00000000
10000000
01000000
00100000
00020000
00000000
,
01000000
00000000
10030000
00000000
00000000
01100000
00000000
10000000
,
01000000
00100000
00010000
01010000
00000000
00000000
10000000
01000000
,
00100000
00000000
00020000
00000000
00000000
00000000
00130000
00010000
00100000
00000000
00002000
00000000
00000000
00000000
00013000
00000100
,
00010000
00000010
00000000
00001000
00000100
00000020
00000000
00000031
,
00000100
00001000
00000100
00000001
00000100
00001000
00000000
00010000
,
00100000
10000000
00000000
02200000
00000000
03300000
10000000
00100000
,
01000000
00020000
00000000
00130000
00010000
00002000
00000000
00013000
,
00000100
00000000
00002000
00000000
00000000
00000000
00003001
00000000
00000010
00000000
00000200
00000000
00000000
00000000
00000310
00000001
,
00000010
00000000
00000100
00001000
00000100
00000000
00001000
00000000
00000100
00000000
00010000
00000000
00000000
00000000
00001000
00000000
,
00100000
00000000
00010000
01000000
00000000
10100000
00000000
01010000
,
00000000
00100000
00001000
00000000
00010000
00010100
00000000
00001100
,
00000000
00000000
00000110
00000000
00000110
00000000
00000000
00000000
00000000
00000000
00000000
00001000
00000100
00001000
00000000
00000000
,
00000000
00000000
00000000
00022000
00000000
00000000
00000000
00000000
,
00000000
00000000
00000000
00000000
,
00000000
00000000
00000000
00000000
,
00000000
00000000
00000000
00000000
,
00000000
00000000
00000000
00033000
;

//---------------dance-double - ----------------
#NOTES:
     dance-double:
     :
     Medium:
     10:
     0.467996,0.512084,0.290060,0.127968,0.000000,384.000000,350.000000,34.000000,15.000000,0.000000,0.000000,0.467996,0.512084,0.290060,0.127968,0.000000,384.000000,350.000000,34.000000,15.000000,0.000000,0.000000:
// measure 0
00000000
00000000
00000000
00000000
,  // measure 1
00000000
00000000
00000000
00000000
,  // measure 2
10000000
00100000
10000000
00100000
00000000
00100000
00010000
00100000
,  // measure 3
00000000
00001000
00010000
00001000
00000000
00010000
00010000
00010000
,  // measure 4
00000000
00000100
00001000
00000000
00001000
00000100
00000010
00000001
,  // measure 5
00000000
00000100
00000010
00001000
00000000
00001001
00000000
00000000
,  // measure 6
00000001
00000100
00000001
00000100
00000000
00001000
00000100
00001000
,  // measure 7
00000000
00000100
00010000
00001000
00000000
00010000
00001000
00010000
,  // measure 8
00000000
00001000
00001000
00000000
00100000
00010000
00000000
01100000
,  // measure 9
00000000
10000000
00010000
00000000
10000000
01000000
00000000
00100000
,  // measure 10
00000000
00001000
00000000
00010000
00010000
00000000
00000000
00000000
,  // measure 11
00020000
00000100
00000100
00030100
,  // measure 12
00002000
00000010
00000010
00003010
,  // measure 13
00000002
00001000
00001000
00001003
,  // measure 14
00000200
00010000
00010000
00010300
,  // measure 15
00001000
00100000
01000000
10000000
,  // measure 16
01000000
00000000
00010000
00000000
00001000
00000000
00000100
00000010
,  // measure 17
00000000
00001000
00000100
00000010
00000001
00000000
00000100
00000010
,  // measure 18
00000000
00000000
00001000
00000000
00000100
00000000
00001000
00000100
,  // measure 19
00000000
00010000
00001000
01000000
,  // measure 20
00100000
00000000
10000000
00010000
00000000
10000000
00010000
10000000
,  // measure 21
00000000
00010000
00100000
00001000
,  // measure 22
00010000
00000000
00001000
00000000
00000100
00000000
00000010
00000001
,  // measure 23
00000000
00000100
00000010
00000000
00000100
00000010
00000000
00001000
,  // measure 24
00000000
00000100
00001000
00000100
00001000
00000000
00001000
00010000
,  // measure 25
00000000
00100000
00010000
01000000
,  // measure 26
00000000
00100000
00100000
00000000
10010000
00000000
00000000
00000000
,  // measure 27
20000000
00000000
31000000
00200000
00000000
00310000
00002000
00000000
,  // measure 28
00003100
00000020
00000000
00000000
00000000
00000030
00000101
00000000
,  // measure 29
00000000
00001100
00000000
00000001
,  // measure 30
00000100
00001000
00010000
00200000
,  // measure 31
00000000
01000000
02000000
00000000
03300000
01100000
00000000
10000000
,  // measure 32
00010000
10000000
00010000
00000000
00000000
00000000
01100000
00000000
,  // measure 33
10010000
00000000
01100000
00000000
10000000
01000000
00000000
00100000
,  // measure 34
00010000
00100000
00000000
00000000
00000000
00000000
00011000
00000000
,  // measure 35
00011000
00000000
00011000
00000000
00000000
00010000
00000000
00001000
,  // measure 36
00000000
00000100
00000000
00000010
00000000
00000002
00000000
00000000
,  // measure 37
00000100
00000000
00000103
00000001
00000000
00001001
00000000
00000001
,  // measure 38
00001000
00000000
00000100
00000000
00010000
00001000
00000000
00001000
,  // measure 39
01000000
00000000
00010000
00100000
00000000
01000000
00000000
10000000
,  // measure 40
01000000
00100000
00001000
00010000
,  // measure 41
00010000
00000100
00000000
00001000
00000100
00001000
00000000
00001000
,  // measure 42
00000100
00000000
00000010
00000001
00000010
00000001
00000010
00000000
,  // measure 43
00000001
00000100
00000000
00000100
00000010
00000100
00000000
00000010
,  // measure 44
00001000
00000100
00010000
00002000
,  // measure 45
00000000
01000000
01003000
00000000
00000000
00010000
01000000
00000000
,  // measure 46
10000000
01000000
00010000
00100000
,  // measure 47
00110000
00000000
10000000
00000000
11000000
00000000
00100000
01000000
,  // measure 48
00100000
01000000
00000000
00000000
10010000
00000000
01100000
00000000
,  // measure 49
00000000
10000000
01000000
00010000
,  // measure 50
00001000
00000000
00000100
00000010
00000100
00000000
00001001
00000000
,  // measure 51
00000000
00000001
00000100
00001000
,  // measure 52
00010000
00000000
00100000
01000000
00100000
00000000
10010000
00000000
,  // measure 53
00000000
00000000
00100000
10000000
00000000
01010000
00000000
00000000
,  // measure 54
10000000
00000000
01000000
00000000
00100000
00010000
00000000
00010000
,  // measure 55
00100000
00000000
01000000
10000000
00000000
10000000
00000000
01000000
,  // measure 56
00100000
00000000
00001000
00010000
00000000
00000100
00000000
00001000
,  // measure 57
00000100
00000010
00000000
00000001
00000000
00001000
00000000
00000100
,  // measure 58
00000010
00000001
00000000
00001000
00000000
00000100
00000000
00000000
,  // measure 59
00000100
00010000
00000000
00001000
00000000
00001000
00010000
00000000
,  // measure 60
00000000
00100000
00010000
00000000
01000000
00000000
10000000
00000000
,  // measure 61
01000000
00100000
01000000
00001000
,  // measure 62
00010000
00000000
00000010
00000000
00000100
00000001
00000000
00000000
,  // measure 63
00001000
00000000
00000100
00000000
00000010
00000000
00000001
00000100
,  // measure 64
00000001
00000100
00000000
00000000
00001100
00000000
00011000
00000000
,  // measure 65
00000000
00000000
00100000
00000000
00010000
00000000
01000000
00100000
,  // measure 66
01000000
10000000
10100000
01010000
,  // measure 67
00000000
00000000
00100000
00000000
00001000
00000000
00010000
00001000
,  // measure 68
00010000
00000000
00000100
00000000
00001000
00000010
00002000
00000000
,  // measure 69
00000000
00000000
00003001
00000000
00000000
00000110
00000000
00000000
,  // measure 70
00000000
00000000
00000000
00000000
00000000
00000000
00000001
00000010
,  // measure 71
00000001
00000010
00000000
00000100
00001000
00000100
00000000
00010000
,  // measure 72
00001000
00010000
00000000
00100000
00010000
00100000
00000000
00010000
,  // measure 73
01000000
00000000
10000000
01000000
00000000
00100000
00000000
00001000
,  // measure 74
00000000
00010000
00000000
00011000
00000000
00000000
00100000
00010000
,  // measure 75
00100000
00010000
00000000
10000000
01000000
10000000
00000000
00010000
,  // measure 76
00100000
00010000
00000000
10000000
01000000
00100000
00000000
00100000
,  // measure 77
00010000
00000000
00001000
00000000
00000000
00011000
00000000
00001000
,  // measure 78
00000100
00000000
00000010
00000001
00000000
00001001
00000000
00001100
,  // measure 79
00000000
00000000
00011000
00000000
00000000
00110000
00000000
01010000
,  // measure 80
00000000
10010000
00000000
00000000
,  // measure 81
00000000
00000000
00000000
00022000
00000000
00000000
00000000
00000000
,  // measure 82
00000000
00000000
00000000
00000000
,  // measure 83
00000000
00000000
00000000
00000000
,  // measure 84
00000000
00000000
00000000
00000000
,  // measure 85
00000000
00000000
00000000
00033000
;

//---------------dance-double - ----------------
#NOTES:
     dance-double:
     :
     Easy:
     7:
     0.346122,0.402352,0.238873,0.102374,0.000000,284.000000,256.000000,28.000000,12.000000,0.000000,0.000000,0.346122,0.402352,0.238873,0.102374,0.000000,284.000000,256.000000,28.000000,12.000000,0.000000,0.000000:
// measure 0
00000000
00000000
00000000
00000000
,  // measure 1
00000000
00000000
00000000
00000000
,  // measure 2
10000000
01000000
00100000
01000000
,  // measure 3
10000000
01000000
00010000
00000000
,  // measure 4
00001000
00000100
00001000
00000001
,  // measure 5
00000010
00000000
00001000
00000000
00000000
00001001
00000000
00000000
,  // measure 6
00000001
00000100
00000001
00000010
,  // measure 7
00001000
00000100
00010000
00000000
,  // measure 8
00001000
00010000
00100000
00000000
,  // measure 9
10000000
00000000
01000000
00000000
10010000
00000000
00000000
00001000
,  // measure 10
00000000
00010000
00000000
00000000
00011000
00000000
00000000
00000000
,  // measure 11
00100000
00100000
00100000
00000000
,  // measure 12
01000000
01000000
01000000
00000000
,  // measure 13
10000000
10000000
10000000
00000000
,  // measure 14
00010000
00010000
00010000
00000000
,  // measure 15
00100000
00010000
00001000
00000000
,  // measure 16
00010000
00001000
00000100
00000000
,  // measure 17
00001000
00000001
00000010
00000100
,  // measure 18
00002000
00000001
00003001
00000000
,  // measure 19
00000001
00000100
00001000
00000100
,  // measure 20
00000001
00000001
00001000
00001000
,  // measure 21
00000100
00010000
00100000
00010000
,  // measure 22
00001000
00001000
01000000
01000000
,  // measure 23
10000000
01000000
00010000
00000000
,  // measure 24
00001000
00000100
00000001
00000000
,  // measure 25
00000010
00000010
00001000
00001000
,  // measure 26
00000100
00000100
00000001
00000000
,  // measure 27
00000002
00000000
00000003
00002000
00000000
00003000
00020000
00000000
,  // measure 28
00030000
20000000
00000000
00000000
30000000
00000000
11000000
00000000
,  // measure 29
00000000
00110000
00000000
10000000
,  // measure 30
01000000
00100000
00001000
00020000
,  // measure 31
00000000
00002000
00033000
00000000
,  // measure 32
00011000
00011000
00000000
00010000
,  // measure 33
00001000
00000100
00000000
00000010
,  // measure 34
00000001
00000100
00000000
00000100
,  // measure 35
00001000
00010000
00000000
00100000
,  // measure 36
10000000
01000000
00100000
00010000
,  // measure 37
01000000
01000000
10000000
00100000
,  // measure 38
00100000
00001000
00010000
00000100
,  // measure 39
00000100
00001000
00000010
00000001
,  // measure 40
00000100
00001000
00000100
00000001
,  // measure 41
00000001
00000010
00001000
00010000
,  // measure 42
00010000
00000000
10000000
01000000
,  // measure 43
01000000
00010000
00010000
00001000
,  // measure 44
00001000
00000000
00010000
00010100
,  // measure 45
00000000
00101000
00000000
00010000
,  // measure 46
00100000
01000000
10000000
00100000
,  // measure 47
00000000
01000000
00000000
01100000
,  // measure 48
01100000
10010000
00000000
10010000
,  // measure 49
00000000
10000000
01000000
00010000
,  // measure 50
00000000
00011000
00000000
00001001
,  // measure 51
00000000
00000001
00000100
00001000
,  // measure 52
00000000
00001001
00000000
00011000
,  // measure 53
00000000
00100000
00010000
01000000
,  // measure 54
00000000
00001000
00010000
00000100
,  // measure 55
00001000
00000100
00001000
00000001
,  // measure 56
00000010
00000100
00001000
00000000
,  // measure 57
00011000
00000000
00100000
00000000
,  // measure 58
01010000
00000000
00100000
10000000
,  // measure 59
01000000
00010000
00100000
00002000
,  // measure 60
00000000
00013000
00010000
00000100
,  // measure 61
00001000
00000010
00000010
00000001
,  // measure 62
00000100
00001000
00001000
00010000
,  // measure 63
00010000
00100000
10000000
01000000
,  // measure 64
00010000
00100000
10000000
10010000
,  // measure 65
00000000
00100000
00001000
00010000
,  // measure 66
00000100
00001000
00000000
00001001
,  // measure 67
00000000
00000100
00010000
00001000
,  // measure 68
01000000
00100000
10000000
20020000
,  // measure 69
00000000
00000000
30030000
00000000
00000000
10010000
00000000
00000000
,  // measure 70
00000000
00000000
00000000
00100000
,  // measure 71
10000000
01000000
00100000
00001000
,  // measure 72
00010000
00000100
00000010
00000001
,  // measure 73
00000100
00001000
00010000
00100000
,  // measure 74
00010000
00000000
00000000
00011000
00000000
00000000
00001000
00000000
,  // measure 75
00000100
00000010
00000100
00000001
,  // measure 76
00000100
00001000
00000100
00010000
,  // measure 77
00001000
00000000
01000000
00000000
00000000
10010000
00000000
10000000
,  // measure 78
10000000
00000000
00010000
00010000
00000000
01000000
00000000
01000000
,  // measure 79
00000000
00000000
10010000
00000000
00000000
00001000
00000000
00001000
,  // measure 80
00000000
00011000
00000000
00000000
,  // measure 81
00000000
00000000
00000000
00022000
00000000
00000000
00000000
00000000
,  // measure 82
00000000
00000000
00000000
00000000
,  // measure 83
00000000
00000000
00000000
00000000
,  // measure 84
00000000
00000000
00000000
00000000
,  // measure 85
00000000
00000000
00000000
00033000
;
