#TITLE:tablets;
#SUBTITLE:;
#ARTIST:sampling masters MEGA;
#TITLETRANSLIT:;
#SUBTITLETRANSLIT:;
#ARTISTTRANSLIT:;
#GENRE:;
#CREDIT:;
#BANNER:[Round 2] - tablets-bn.png;
#BACKGROUND:[Round 2] - tablets-bg.png;
#LYRICSPATH:;
#CDTITLE:cdtitle.png;
#MUSIC:[Round 2] - tablets.ogg;
#OFFSET:-0.382000;
#SAMPLESTART:21.724001;
#SAMPLELENGTH:13.500000;
#SELECTABLE:YES;
#BPMS:0.000000=180.000000
;
#STOPS:
;
#BGCHANGES:;
#KEYSOUNDS:;
#ATTACKS:;

//---------------dance-single - ----------------
#NOTES:
     dance-single:
     :
     Hard:
     6:
     0.339208,0.463542,0.279348,0.000000,0.000000,221.000000,195.000000,26.000000,0.000000,0.000000,0.000000,0.339208,0.463542,0.279348,0.000000,0.000000,221.000000,195.000000,26.000000,0.000000,0.000000,0.000000:
0000
0000
0000
0000
,
0000
0000
0000
0000
,
0000
0000
0000
0000
,
0000
0000
0000
0000
,
0001
0000
0000
0001
0000
0000
1000
0000
,
0000
1000
0000
0000
0010
0000
0100
0000
,
0001
0000
0000
0001
0000
0000
1000
0000
,
0000
1000
0000
0000
0100
0000
0000
0000
,
1000
0000
0000
0010
0000
0000
0001
0000
,
0000
0100
0000
0000
1000
0000
1000
0000
,
0010
0000
0000
0001
0000
0000
0100
0000
,
0000
1000
0000
1000
0010
0000
0100
0000
,
0001
0000
0000
0010
0000
0000
1000
0000
,
0000
0100
0000
0000
0001
0000
0001
0000
,
0010
0000
0000
1000
0000
0000
0010
0000
,
0010
0000
0001
0000
,
1000
1000
0010
0010
,
0001
0001
0100
0100
,
1000
1000
0010
0010
,
0001
0001
0010
1000
,
0001
0000
0000
0010
0000
0010
0000
0010
,
0000
0000
0100
1000
0000
1100
0000
0000
,
1000
0000
0000
0010
0000
0010
0000
0010
,
0000
0000
0100
0001
0000
0101
0000
0000
,
1000
0000
0000
0001
0000
0001
0000
0001
,
0000
0000
0010
0100
0000
0110
0000
0000
,
0001
0000
0000
0001
0000
0000
1000
0000
,
0000
1000
0000
0000
1000
0000
0000
0000
,
0001
0000
0000
0101
0000
0000
1000
0000
,
0000
1010
0000
0000
0100
0000
0100
0000
,
0010
0000
0000
0011
0000
0000
0100
0000
,
0000
1100
0000
0000
0010
0000
0010
0000
,
0100
0000
0000
0110
0000
0000
0001
0000
,
0000
1001
0000
0000
1000
0000
1000
0000
,
0001
0000
0000
0011
0000
0000
1000
0000
,
0000
1010
0000
0000
0010
0000
0010
0000
,
0100
0000
0000
0100
0000
0001
0000
1000
,
0000
0000
0001
0010
0000
0100
0000
0000
,
0010
0000
0000
0010
0000
0001
0000
1000
,
0000
0000
0001
0100
0000
0010
0000
0000
,
1000
0000
0000
1000
0000
0001
0000
0100
,
0000
0000
0001
1000
0000
0100
0000
0000
,
0010
0000
0000
0011
0000
0000
0001
0000
,
1000
0000
0000
1100
0000
0000
0000
0000
,
0010
0000
0100
0001
0000
0001
1000
0000
,
0000
0000
0001
0000
,
0010
0000
0100
1000
0000
1000
0001
0000
,
0000
0001
0000
0000
0001
0000
0000
0000
,
1000
0000
0000
0010
0000
0000
0001
0000
,
0000
0100
0000
0000
1000
0000
1000
0000
,
0010
0000
0000
0001
0000
0000
0100
0000
,
0000
1000
0000
0010
0100
0000
0001
0000
,
1000
0000
0000
0100
0000
0000
0001
0000
,
0000
0010
0000
0000
1000
0000
1000
0000
,
0100
0000
0000
0001
0000
0000
0100
0000
,
0100
0000
0000
0000
,
1000
0000
0000
0010
0000
0010
0000
0010
,
0000
0000
0100
0001
0000
0101
0000
0000
,
0001
0000
0000
0010
0000
0010
0000
0010
,
0000
0000
0100
1000
0000
1100
0000
0000
,
0010
0000
0000
0100
0000
0100
0000
0100
,
0000
0000
0001
1000
0000
1001
0000
0000
,
1100
0000
0000
1100
0000
0000
1001
0000
,
0101
0000
0000
0101
0000
0000
0000
0000
,
0000
0000
0000
0001
,
0011
0000
0000
0011
0000
0000
1001
0000
,
1010
0000
0000
1010
0000
0000
0000
0000
;

//---------------dance-single - ----------------
#NOTES:
     dance-single:
     :
     Medium:
     4:
     0.253255,0.356571,0.150418,0.000000,0.000000,165.000000,151.000000,14.000000,0.000000,0.000000,0.000000,0.253255,0.356571,0.150418,0.000000,0.000000,165.000000,151.000000,14.000000,0.000000,0.000000,0.000000:
0000
0000
0000
0000
,
0000
0000
0000
0000
,
0000
0000
0000
0000
,
0000
0000
0000
0000
,
0001
0000
0001
0000
,
1000
0000
1000
1000
,
0010
0000
0010
0000
,
0100
0000
0100
0001
,
1000
0000
0000
1000
0000
0000
0001
0000
,
0000
0001
0000
0000
0010
0000
0000
0000
,
0001
0000
0000
0001
0000
0000
1000
0000
,
0000
1000
0000
0000
0010
0000
0000
0000
,
1000
0000
0000
1000
0000
0000
0001
0000
,
0000
0001
0000
0000
0100
0000
0000
0000
,
0001
0000
0000
0001
0000
0000
1000
0000
,
0001
0000
0000
0000
,
1000
0000
0100
0000
,
0001
0000
0010
0010
,
1000
0000
0100
0000
,
0001
0000
0010
0010
,
1000
0000
0100
0000
,
0010
0000
0000
0001
0000
0001
0000
0000
,
1000
0000
0010
0000
,
0100
0000
0000
0001
0000
0001
0000
0000
,
0010
0000
0100
0000
,
1000
0000
0000
0001
0000
0001
0000
0000
,
0000
0000
0000
0000
,
0000
0000
0000
0000
,
1000
0000
0000
0010
0000
0000
0001
0000
,
0000
0100
0000
0000
1000
0000
1000
0000
,
0010
0000
0000
0001
0000
0000
0100
0000
,
0000
1000
0000
0000
0010
0000
0010
0000
,
0001
0000
0000
0100
0000
0000
1000
0000
,
0000
0010
0000
0000
0001
0000
0001
0000
,
0100
0000
0000
1000
0000
0000
0010
0000
,
0000
0001
0000
0000
0100
0000
0100
0000
,
1000
0000
0000
0001
0000
0001
0000
0001
,
0000
0000
0000
1000
0000
1000
0000
0000
,
0010
0000
0000
0100
0000
0100
0000
0100
,
0000
0000
0000
0010
0000
0010
0000
0000
,
1000
0000
0000
0001
0000
0001
0000
0001
,
0000
0000
0000
1000
0000
1000
0000
0000
,
0011
0000
0000
0011
0000
0000
0000
0000
,
1100
0000
0000
1100
0000
0000
0000
0000
,
0001
0000
0000
0001
0000
0000
0101
0000
,
0000
0000
0000
0000
,
1000
0000
0000
1000
0000
0000
1100
0000
,
0000
0000
0000
0000
,
0001
0000
0000
0001
0000
0000
0010
0000
,
0000
0010
0000
0000
0100
0000
0100
0000
,
1000
0000
0000
1000
0000
0000
0010
0000
,
0000
0010
0000
0000
0100
0000
0000
0000
,
0001
0000
0000
0001
0000
0000
1000
0000
,
0000
1000
0000
0000
0100
0000
0100
0000
,
0010
0000
0000
0010
0000
0000
0001
0000
,
1000
0000
0000
0000
,
0001
0000
0010
0000
,
1000
0000
0000
0010
0000
0010
0000
0000
,
0001
0000
0100
0000
,
1000
0000
0000
0100
0000
0100
0000
0000
,
0001
0000
0010
0000
,
0100
0000
0000
1000
0000
1000
0000
0000
,
1010
0000
0000
1010
0000
0000
0000
0000
,
0101
0000
0000
0101
0000
0000
0000
0000
,
0000
0000
0000
1000
,
1100
0000
0000
1100
0000
0000
0000
0000
,
0011
0000
0000
0011
0000
0000
0000
0000
;

//---------------dance-single - ----------------
#NOTES:
     dance-single:
     :
     Easy:
     2:
     0.153488,0.212734,0.096697,0.000000,0.000000,100.000000,91.000000,9.000000,0.000000,0.000000,0.000000,0.153488,0.212734,0.096697,0.000000,0.000000,100.000000,91.000000,9.000000,0.000000,0.000000,0.000000:
// measure 0
0000
0000
0000
0000
,  // measure 1
0000
0000
0000
0000
,  // measure 2
0000
0000
0000
0000
,  // measure 3
0000
0000
0000
0000
,  // measure 4
0001
0000
0001
0000
,  // measure 5
0001
0000
0000
0000
,  // measure 6
1000
0000
1000
0000
,  // measure 7
1000
0000
0000
0000
,  // measure 8
0001
0000
0001
0000
,  // measure 9
0010
0000
0000
0000
,  // measure 10
0100
0000
0100
0000
,  // measure 11
1000
0000
0001
0000
,  // measure 12
1000
0000
1000
0000
,  // measure 13
0010
0000
0000
0000
,  // measure 14
0100
0000
0100
0000
,  // measure 15
0001
0000
0000
0000
,  // measure 16
1000
0000
0100
0000
,  // measure 17
0001
0000
0010
0000
,  // measure 18
1000
0000
0100
0000
,  // measure 19
0001
0000
0010
0000
,  // measure 20
1000
0000
1000
0000
,  // measure 21
0001
0000
0000
0000
,  // measure 22
0001
0000
0001
0000
,  // measure 23
1000
0000
0000
0000
,  // measure 24
1000
0000
1000
0000
,  // measure 25
0001
0000
0000
0000
,  // measure 26
0010
0000
0000
0000
,  // measure 27
0000
0000
0000
0000
,  // measure 28
1000
0000
0100
0000
,  // measure 29
0001
0000
0000
0000
,  // measure 30
1000
0000
0100
0000
,  // measure 31
0001
0000
0000
0000
,  // measure 32
1000
0000
0010
0000
,  // measure 33
0001
0000
0000
0000
,  // measure 34
1000
0000
0010
0000
,  // measure 35
0001
0000
0100
0000
,  // measure 36
1000
0000
1000
0000
,  // measure 37
1100
0000
0000
0000
,  // measure 38
0001
0000
0001
0000
,  // measure 39
0101
0000
0000
0000
,  // measure 40
1000
0000
1000
0000
,  // measure 41
1100
0000
0000
0000
,  // measure 42
0110
0000
0000
0000
,  // measure 43
1001
0000
0000
0000
,  // measure 44
0010
0000
0010
0000
,  // measure 45
0000
0000
0000
0000
,  // measure 46
0100
0000
0100
0000
,  // measure 47
0000
0000
0000
0000
,  // measure 48
0001
0000
0001
0000
,  // measure 49
0100
0000
0000
0000
,  // measure 50
1000
0000
1000
0000
,  // measure 51
0100
0000
0000
0000
,  // measure 52
0001
0000
0001
0000
,  // measure 53
0010
0000
0000
0000
,  // measure 54
1000
0000
1000
0000
,  // measure 55
0010
0000
0000
0000
,  // measure 56
0010
0000
0010
0000
,  // measure 57
0010
0000
0000
0000
,  // measure 58
0100
0000
0100
0000
,  // measure 59
0100
0000
0000
0000
,  // measure 60
0001
0000
0001
0000
,  // measure 61
1000
0000
1000
0000
,  // measure 62
1001
0000
0000
0000
,  // measure 63
1001
0000
0000
0000
,  // measure 64
0000
0000
0000
0000
,  // measure 65
0110
0000
0000
0000
,  // measure 66
0110
0000
0000
0000
;
