#TITLE:VALLIS-NERIA;
#SUBTITLE:;
#ARTIST:DJ YOSHITAKA;
#TITLETRANSLIT:;
#SUBTITLETRANSLIT:;
#ARTISTTRANSLIT:;
#GENRE:;
#CREDIT:mf32892;
#BANNER:[Round 2] - VALLIS-NERIA-bn.png;
#BACKGROUND:[Round 2] - VALLIS-NERIA-jacket.jpg;
#LYRICSPATH:;
#CDTITLE:cdtitle.png;
#MUSIC:[Round 2] - VALLIS-NERIA.ogg;
#OFFSET:0.929000;
#SAMPLESTART:104.148598;
#SAMPLELENGTH:14.000000;
#SELECTABLE:YES;
#BPMS:0.000000=185.000000
;
#STOPS:
;
#BGCHANGES:2.000=[Round 2] - VALLIS-NERIA.mp4=1.000=0=0=1=====,
99999=-nosongbg-=1.000=0=0=0 // don't automatically add -songbackground-
;
#KEYSOUNDS:;
#ATTACKS:;

//---------------dance-single - ----------------
#NOTES:
     dance-single:
     :
     Hard:
     8:
     0.613985,0.647332,0.546865,0.354307,0.077023,441.000000,71.000000,46.000000,0.000000,0.000000,0.000000,0.613985,0.647332,0.546865,0.354307,0.077023,441.000000,71.000000,46.000000,0.000000,0.000000,0.000000:
0000
0000
0000
0000
,
0000
0000
0000
0000
,
0000
0000
0000
0000
,
0000
0000
0000
0000
,
0000
0000
0000
0000
,
0020
0000
0000
0000
,
2000
0000
0030
0000
,
0002
0000
0000
0000
,
0000
0000
3003
0000
,
2002
0000
0000
0000
,
0000
0000
3003
1100
,
1001
2020
0000
3030
,
0000
0000
0011
1100
,
1001
0000
0001
0000
0001
0000
1000
0001
,
0010
0000
0010
0000
0010
0000
0001
0100
,
0010
1000
0010
1000
0001
0010
0001
0010
,
0100
0000
1000
0100
0000
1000
0000
0001
0020
0000
0000
0000
0130
0000
0000
0000
,
1000
0100
1000
0100
0010
0001
1000
0010
,
0000
0000
1010
0000
0000
0000
0101
0000
0000
0000
0001
1000
0010
0000
0000
0000
,
0101
0000
1000
0002
0000
0013
0000
1100
,
0000
0110
0000
0011
0000
1001
0000
0001
,
1000
0100
0010
0100
1000
0100
0010
0011
,
0000
0001
0100
0000
0110
0010
1000
1001
,
0000
0002
0010
0000
1000
0000
0100
0000
,
1003
0000
1000
0000
0001
1000
0001
1000
,
0100
0010
0100
0010
0001
1000
0010
0110
,
0000
0200
0000
0310
1000
0100
0010
0110
,
2000
0000
3010
0200
0010
0000
0310
0100
,
0001
0000
0000
0010
0000
0000
0100
0000
0000
0000
2000
0000
3001
0000
0000
0000
,
1000
0100
0000
1100
0000
0011
0000
0201
,
0000
0000
0010
0000
0300
1000
0010
0000
,
0001
0010
0000
0011
0000
1100
0000
1020
,
0000
0000
0000
0000
0100
0000
0000
0000
0030
0000
1000
0001
0100
0000
0000
0000
,
0001
0001
0010
0100
,
1000
1000
0010
0100
,
0001
0000
0100
0000
0001
0000
0000
0010
0000
0100
0000
0000
1000
0000
0200
0000
,
0000
0310
0001
0100
0010
1000
0100
1000
,
0001
0100
0000
0101
0000
1010
0000
1200
,
0000
0000
0010
0000
0300
0001
0010
0000
,
1000
0010
0000
1010
0000
0101
0000
0021
,
0000
0000
0000
0000
0100
0000
0000
0000
0030
0000
0001
1000
0100
0000
0000
0000
,
1000
1000
0100
0010
,
0001
0001
0100
0010
,
2000
0000
0000
0000
0000
0000
3100
0000
1000
0000
0000
0001
0000
0000
0001
0000
,
0002
0000
0000
1003
,
0001
0100
0010
1000
0001
0010
0100
1000
,
0001
0100
0010
1000
0001
0000
1001
0000
,
1000
0100
0010
0001
1000
0010
0100
0001
,
1000
0100
0010
0001
1000
0000
1001
0000
,
0001
0010
0100
0010
0001
0010
0100
1000
,
0010
0100
1000
0100
0010
0000
0110
0000
,
1000
0100
0010
0100
1000
0100
0010
0001
,
0100
0010
0001
0010
0100
0000
0110
0000
,
0101
0000
0001
0000
0001
0000
1000
0100
,
0010
0010
0011
1100
,
0101
0000
0100
0000
0100
0000
0100
0010
,
1000
1000
1001
1100
,
1010
0000
0010
0000
0010
0000
0010
0100
,
0001
0001
0101
1001
,
0011
0100
1000
0010
1000
0200
0310
0200
,
1300
0000
0010
0100
0000
0010
0000
1000
0002
0000
0000
0000
0013
0000
0000
0000
,
0210
0000
0000
0000
,
2000
0000
0300
0000
,
0002
0000
3000
0000
,
0200
0003
0020
0300
,
1030
0100
1000
0100
0010
0001
0010
0001
,
1000
0010
0100
0001
0010
0100
1000
0001
,
2000
0000
0000
0000
,
0002
0000
3000
0013
,
0001
0100
0001
0100
0010
1000
0001
0010
,
0000
0000
0011
0000
0000
0000
1100
0000
0000
0000
1000
0001
0010
0000
0000
0000
,
1100
0000
0001
2000
0000
3010
0000
0101
,
0000
0110
0000
1010
0000
1001
0000
1000
,
0001
0100
0010
0100
0001
0100
0010
1010
,
0000
1000
0100
0000
0110
0010
0001
1001
,
0000
2000
0010
0000
0001
0000
0100
0000
,
3001
0000
0001
0000
1000
0001
1000
0001
,
0100
0010
0100
0010
1000
0001
0010
0110
,
0000
0200
0000
0310
0001
0100
0010
0110
,
0002
0000
0013
0200
0010
0000
0310
0100
,
1000
0000
0000
0010
0000
0000
0100
0000
0000
0000
0002
0000
1003
0000
0000
0000
,
0001
0100
0000
0101
0000
1010
0000
1200
,
0000
0000
0010
0000
0300
0001
0010
0000
,
1000
0010
0000
1010
0000
0101
0000
0021
,
0000
0000
0000
0000
0100
0000
0000
0000
0030
0000
0001
1000
0100
0000
0000
0000
,
1000
1000
0010
0100
,
0001
0001
0010
0100
,
1000
0000
0100
0000
1000
0000
0000
0010
0000
0100
0000
0000
0001
0000
0200
0000
,
0000
0310
1000
0100
0010
0001
0100
0001
,
1000
0100
0000
1100
0000
0011
0000
0201
,
0000
0000
0010
0000
0300
1000
0010
0000
,
0001
0010
0000
0011
0000
1100
0000
1020
,
0000
0000
0000
0000
0100
0000
0000
0000
0030
0000
1000
0001
0100
0000
0000
0000
,
0001
0001
0100
0010
,
1000
1000
0100
0010
,
0002
0000
0000
0000
0000
0000
0103
0000
0001
0000
0000
1000
0000
0000
1000
0000
,
2002
0000
3000
0103
,
0020
0000
0000
0000
,
0000
0000
0000
0000
0000
0000
0000
0030
;

//---------------dance-single - ----------------
#NOTES:
     dance-single:
     :
     Challenge:
     10:
     0.848356,0.799645,0.623888,0.369711,0.442883,642.000000,81.000000,48.000000,0.000000,0.000000,0.000000,0.848356,0.799645,0.623888,0.369711,0.442883,642.000000,81.000000,48.000000,0.000000,0.000000,0.000000:
// measure 0
0000
0000
0000
0000
,  // measure 1
0000
0000
0000
0000
,  // measure 2
0000
0000
0000
0000
,  // measure 3
0000
0000
0000
0000
,  // measure 4
0000
0000
0000
0000
,  // measure 5
0002
0000
0000
0000
,  // measure 6
2000
0000
0003
0000
,  // measure 7
0200
0000
0000
0000
,  // measure 8
0000
0000
3300
0000
,  // measure 9
2002
0000
0000
0000
,  // measure 10
0000
0000
3003
0101
,  // measure 11
1001
0022
0000
0033
,  // measure 12
0000
0000
1100
1001
,  // measure 13
1010
0000
0010
0000
0010
0000
0100
0001
,  // measure 14
1000
0000
1000
0000
1000
0000
0100
0010
,  // measure 15
0001
0000
0100
0000
0010
0000
1000
0000
0001
0010
0001
0010
0100
1000
0100
1000
,  // measure 16
0010
0000
1000
0100
0000
1000
0000
0001
0200
0000
0000
0000
0310
1000
0000
1000
,  // measure 17
0001
0000
0010
0100
0010
0000
0001
0000
0100
0000
1000
0000
0100
0000
0101
0000
,  // measure 18
0000
0000
1010
0000
0000
0000
1100
0000
1000
0000
0001
1000
0010
0000
1000
0000
,  // measure 19
0002
0000
1003
0010
0100
0100
0000
1010
,  // measure 20
0000
1100
0000
0101
0000
0011
1000
0001
,  // measure 21
0100
0000
0010
1000
0001
0000
0010
0000
1000
0000
0010
0000
0001
0000
0110
0000
,  // measure 22
0000
0100
0001
0100
1100
1000
0000
1020
,  // measure 23
0000
0100
0230
0000
0310
1000
1000
0100
,  // measure 24
1000
0000
0001
0000
0010
0000
1000
0000
0010
0000
0100
0010
0100
0000
0010
0000
,  // measure 25
0001
0000
0100
0010
0100
0000
1000
0000
0100
0000
0001
0000
0100
0000
0120
0000
,  // measure 26
0000
1030
0000
1000
1100
0100
0010
0011
,  // measure 27
2000
0000
0000
0000
3010
0000
0200
0000
0001
0000
0000
0000
0310
0000
1000
0100
,  // measure 28
1000
0000
0001
0000
0010
0000
1000
0000
0010
0000
0001
0100
0001
0000
1000
0000
,  // measure 29
1010
0110
0000
1010
0000
1100
0000
1002
,  // measure 30
0013
0100
0010
0000
0001
0000
0100
0010
0000
1000
0010
0000
0100
0000
0001
0000
,  // measure 31
0011
0000
0110
0000
0000
0000
0011
0000
0000
0000
1100
0000
0000
0000
1000
0001
,  // measure 32
0020
0000
0000
0130
0000
0000
1000
0000
0020
0000
0130
0001
1000
0000
1000
0000
,  // measure 33
0001
0000
0010
0100
0010
0000
1000
0000
0010
0100
0010
0000
0001
0000
1000
0000
,  // measure 34
0100
0001
0100
1000
0010
0001
0010
1000
,  // measure 35
0001
0010
0100
0010
0001
0000
1000
0010
0000
0100
0000
0001
1000
0000
0200
0000
,  // measure 36
0000
0000
0310
0001
0010
0000
0100
0000
1000
0000
0001
1000
0010
1000
0001
0000
,  // measure 37
0011
0110
0000
0011
0000
0101
0000
2001
,  // measure 38
3010
0100
0010
0000
1000
0000
0100
0010
0000
0001
0010
0000
0100
0000
1000
0000
,  // measure 39
1010
0000
0110
0000
0000
0000
1010
0000
0000
0000
0101
0000
0000
0000
0001
1000
,  // measure 40
0020
0000
0000
0130
0000
0000
0001
0000
0020
0000
0130
1000
0001
0000
0001
0000
,  // measure 41
1000
0000
0010
0100
0010
0000
0001
0000
0010
0100
0010
0000
1000
0000
0001
0000
,  // measure 42
0100
1000
0100
0001
0010
1000
0010
0001
,  // measure 43
2000
0000
0000
0000
0010
0000
3001
0010
0100
0000
0000
1000
0000
0000
0001
0000
,  // measure 44
0200
0000
0000
0010
0000
0000
1300
0000
0100
0000
0001
1000
0100
0000
1000
0000
,  // measure 45
0001
0000
1000
0100
1000
0000
0010
0000
0100
0001
0100
0000
0010
0000
1000
0100
,  // measure 46
1000
0000
0001
0000
0010
0100
0010
0000
0001
0000
1000
0001
1000
0000
0001
0000
,  // measure 47
1000
0000
0001
0100
0001
0000
0010
0000
0100
1000
0100
0000
0010
0000
0001
0100
,  // measure 48
0001
0000
1000
0000
0010
0100
0010
0000
1000
0000
0100
1000
0001
0000
1000
0000
,  // measure 49
0001
0000
1000
0001
0100
0000
0010
0000
0100
0001
1000
0000
0100
0000
0010
0100
,  // measure 50
1000
0000
0001
0000
0100
0010
1000
0000
0001
0000
0010
0001
0100
0000
0010
0000
,  // measure 51
1000
0000
0001
0010
0100
0000
0010
0000
0001
1000
0100
0000
0010
0000
0100
1000
,  // measure 52
0010
0000
0100
0000
0001
1000
0010
0000
0100
0000
0001
1000
0100
0000
0010
0000
,  // measure 53
1001
0000
0001
0000
1000
0000
0001
1000
,  // measure 54
0010
0100
0110
1100
,  // measure 55
0101
0000
1000
0000
0001
0000
1000
0001
,  // measure 56
0010
0100
0011
1010
,  // measure 57
0110
0000
1000
0000
0001
0000
1000
0001
,  // measure 58
0010
0000
0001
0000
1100
0000
0110
0001
,  // measure 59
0101
0000
0100
0000
0010
0000
0010
0000
1000
0001
0200
0000
0301
1000
0200
0000
,  // measure 60
0310
0000
0001
0100
0000
0110
0000
0010
1000
0000
0100
1000
0001
0010
0000
0010
,  // measure 61
0200
0000
0000
0000
,  // measure 62
2000
0000
0300
0000
,  // measure 63
0020
0000
3000
0000
,  // measure 64
0002
0030
2000
0003
,  // measure 65
3100
0010
1000
0100
0010
0001
0100
0010
,  // measure 66
1000
0010
1000
0010
0100
0001
0100
0001
1000
0100
1000
0100
0010
0001
0010
0001
,  // measure 67
0200
0000
0000
0000
,  // measure 68
0020
0000
0330
1001
,  // measure 69
1000
0000
0010
0100
0010
0000
1000
0000
0100
0000
0001
0000
0100
0000
1100
0000
,  // measure 70
0000
0000
0011
0000
0000
0000
0101
0000
0001
0000
1000
0001
0010
0000
0001
0000
,  // measure 71
2000
0000
3001
0010
0100
0100
0000
0011
,  // measure 72
0000
0101
0000
1100
0000
1010
0001
1000
,  // measure 73
0100
0000
0010
0001
1000
0000
0010
0000
0001
0000
0010
0000
1000
0000
0110
0000
,  // measure 74
0000
0100
1000
0100
0101
0001
0000
0021
,  // measure 75
0000
0100
0230
0000
0310
0001
0001
0100
,  // measure 76
0001
0000
1000
0000
0010
0000
0001
0000
0010
0000
0100
0010
0100
0000
0010
0000
,  // measure 77
1000
0000
0100
0010
0100
0000
0001
0000
0100
0000
1000
0000
0100
0000
0120
0000
,  // measure 78
0000
0031
0000
0001
0101
0100
0010
1010
,  // measure 79
0002
0000
0000
0000
0013
0000
0200
0000
1000
0000
0000
0000
0310
0000
0001
0100
,  // measure 80
0001
0000
1000
0000
0010
0000
0001
0000
0010
0000
1000
0100
1000
0000
0001
0000
,  // measure 81
0011
0110
0000
0011
0000
0101
0000
2001
,  // measure 82
3010
0100
0010
0000
1000
0000
0100
0010
0000
0001
0010
0000
0100
0000
1000
0000
,  // measure 83
1010
0000
0110
0000
0000
0000
1010
0000
0000
0000
0101
0000
0000
0000
0001
1000
,  // measure 84
0020
0000
0000
0130
0000
0000
0001
0000
0020
0000
0130
1000
0001
0000
0001
0000
,  // measure 85
1000
0000
0010
0100
0010
0000
0001
0000
0010
0100
0010
0000
1000
0000
0001
0000
,  // measure 86
0100
1000
0100
0001
0010
1000
0010
0001
,  // measure 87
1000
0010
0100
0010
1000
0000
0001
0010
0000
0100
0000
1000
0001
0000
0200
0000
,  // measure 88
0000
0000
0310
1000
0010
0000
0100
0000
0001
0000
1000
0001
0010
0001
1000
0000
,  // measure 89
1010
0110
0000
1010
0000
1100
0000
1002
,  // measure 90
0013
0100
0010
0000
0001
0000
0100
0010
0000
1000
0010
0000
0100
0000
0001
0000
,  // measure 91
0011
0000
0110
0000
0000
0000
0011
0000
0000
0000
1100
0000
0000
0000
1000
0001
,  // measure 92
0020
0000
0000
0130
0000
0000
1000
0000
0020
0000
0130
0001
1000
0000
1000
0000
,  // measure 93
0001
0000
0010
0100
0010
0000
1000
0000
0010
0100
0010
0000
0001
0000
1000
0000
,  // measure 94
0100
0001
0100
1000
0010
0001
0010
1000
,  // measure 95
0002
0000
0000
0000
0010
0000
1003
0010
0100
0000
0000
0001
0000
0000
1000
0000
,  // measure 96
0200
0000
0000
0010
0000
0000
0301
0000
0100
0000
1000
0001
0100
0000
1000
0000
,  // measure 97
0200
0000
0000
0000
,  // measure 98
0000
0000
0000
0000
0000
0000
0000
0300
;

//---------------dance-single - ----------------
#NOTES:
     dance-single:
     :
     Medium:
     6:
     0.492949,0.533097,0.508353,0.300391,0.023107,343.000000,66.000000,39.000000,0.000000,0.000000,0.000000,0.492949,0.533097,0.508353,0.300391,0.023107,343.000000,66.000000,39.000000,0.000000,0.000000,0.000000:
0000
0000
0000
0000
,
0000
0000
0000
0000
,
0000
0000
0000
0000
,
0000
0000
0000
0000
,
0000
0000
0000
0000
,
2000
0000
0000
0000
,
3002
0000
0000
0000
,
0020
0000
0000
0000
,
0000
0000
0033
0000
,
2200
0000
0000
0000
,
0000
0000
3300
1100
,
1001
2020
0000
3030
,
0000
0000
0101
1001
,
0011
0000
0010
0000
0010
0000
0100
1000
,
0001
0000
0001
0000
0001
0000
0100
0010
,
1000
0001
0020
0230
,
2300
0000
0000
3001
,
0010
0000
0010
0000
0100
0000
0010
0001
,
0000
0011
0000
1010
0000
1000
0001
0000
,
0100
0000
0100
0000
0010
1000
0000
1010
,
0000
0110
0000
0101
0000
1001
0000
0000
,
0001
0000
0010
0000
0100
0000
1000
0001
,
0000
0000
1000
0000
1010
0000
0000
0102
,
0000
0100
0100
0103
,
0001
0000
1000
0000
0001
1000
0001
1000
,
0100
0000
0100
0000
0010
0000
0001
1000
,
0000
0000
0010
0000
0100
0010
0000
2000
,
0000
0000
0001
0000
0001
0000
3001
1000
,
0001
0000
0000
0010
0000
0000
0100
0000
0000
0000
1000
0000
0001
0000
0000
0000
,
0100
0010
0000
1010
0000
1001
0000
1200
,
0000
0010
0000
0310
,
0100
0010
0000
0011
0000
1001
0000
0201
,
0000
0010
0000
0310
,
1000
1000
0100
0010
,
0001
0001
0100
0010
,
1000
0000
0000
0000
1000
0000
0000
0001
0000
1000
0000
0000
0001
0000
2000
0000
,
0000
3100
0010
0000
0010
0000
0001
0000
,
0010
0100
0000
1100
0000
0101
0000
0210
,
0000
0010
0000
0310
,
0100
0010
0000
0101
0000
1100
0000
0210
,
0000
0010
0000
0310
,
0001
0001
0010
0100
,
1000
1000
0010
0100
,
0001
0001
1000
0001
,
2002
0000
0000
3003
,
1000
0000
1000
0100
1000
0000
0001
0000
,
1000
0100
0010
0000
0100
0000
1001
0000
,
0001
0000
0001
0100
0001
0000
1000
0000
,
0001
0100
0010
0000
0100
0000
1001
0000
,
1000
0000
0001
0010
0100
0000
0010
0000
,
0001
0100
0010
0000
1000
0000
0110
0000
,
0001
0000
1000
0100
0010
0000
0100
0000
,
1000
0010
0100
0000
0010
0000
0110
0000
,
1001
0000
1000
0000
1000
0000
0001
1000
,
0100
0100
0110
1100
,
0101
0000
0100
0000
0100
0000
0010
1000
,
0001
0001
0011
1100
,
1001
0000
1000
0000
1000
0000
0001
1000
,
0100
0100
0110
1100
,
0101
0001
1000
1000
,
0002
0000
1003
0110
,
2000
0000
0000
0000
,
3200
0000
0000
0000
,
0320
0000
0000
0000
,
0032
0000
2003
0000
,
3010
0010
0100
0100
,
0001
0100
0001
0100
0010
1000
0010
1000
,
0200
0000
0000
0000
,
0320
0000
0130
2001
,
3100
0000
0100
0000
0010
0000
0100
1000
,
0000
1100
0000
0101
0000
0001
1000
0000
,
0010
0000
0010
0000
0100
0001
0000
0101
,
0000
0110
0000
1010
0000
1001
0000
0000
,
1000
0000
0100
0000
0010
0000
0001
1000
,
0000
0000
0001
0000
0101
0000
0000
2010
,
0000
0010
0010
3010
,
1000
0000
0001
0000
1000
0001
1000
0001
,
0010
0000
0010
0000
0100
0000
1000
0001
,
0000
0000
0100
0000
0010
0100
0000
0002
,
0000
0000
1000
0000
1000
0000
1003
0001
,
1000
0000
0000
0100
0000
0000
0010
0000
0000
0000
0001
0000
1000
0000
0000
0000
,
0010
0100
0000
0101
0000
1001
0000
0021
,
0000
0100
0000
0130
,
0010
0100
0000
1100
0000
1001
0000
1020
,
0000
0100
0000
0130
,
0001
0001
0010
0100
,
1000
1000
0010
0100
,
0001
0000
0000
0000
0001
0000
0000
1000
0000
0001
0000
0000
1000
0000
0002
0000
,
0000
0013
0100
0000
0100
0000
1000
0000
,
0100
0010
0000
0011
0000
1010
0000
0120
,
0000
0100
0000
0130
,
0010
0100
0000
1010
0000
0011
0000
0120
,
0000
0100
0000
0130
,
1000
1000
0100
0010
,
0001
0001
0100
0010
,
1000
1000
0001
1000
,
2002
0000
0000
3003
,
0220
0000
0000
0000
,
0000
0000
0000
0000
0000
0000
0000
0330
;

//---------------dance-single - ----------------
#NOTES:
     dance-single:
     :
     Easy:
     5:
     0.379614,0.380783,0.061619,0.315795,0.000000,296.000000,8.000000,41.000000,0.000000,0.000000,0.000000,0.379614,0.380783,0.061619,0.315795,0.000000,296.000000,8.000000,41.000000,0.000000,0.000000,0.000000:
0000
0000
0000
0000
,
0000
0000
0000
0000
,
0000
0000
0000
0000
,
0000
0000
0000
0000
,
0000
0000
0000
0000
,
0002
0000
0000
0003
,
2000
0000
0000
3000
,
0020
0000
0000
0000
,
0000
0000
0000
0030
,
0200
0000
0000
0000
,
0000
0000
0300
0001
,
0001
0001
0000
0000
,
0000
0000
1000
1000
,
1000
0100
0010
0001
,
1000
0100
0010
0001
,
1000
1000
0001
0001
,
0200
0000
0000
0310
,
1000
0000
1000
0000
0100
0000
1000
0001
,
0000
0001
0000
0001
0000
0000
0010
0000
,
0100
0000
0100
0000
1000
0001
0000
0100
,
0000
0100
0000
0010
0000
0010
0000
0000
,
1000
0000
1000
0000
0001
0000
0001
0010
,
0000
0000
0010
0000
0100
0000
0000
2000
,
0000
0001
0001
3001
,
0100
0010
1000
0001
,
0010
0000
0010
0000
0100
0000
1000
0001
,
0000
0000
0001
0000
0100
0010
0000
2000
,
0000
0001
0001
3001
,
1000
0100
0010
0001
,
2000
0000
0000
0001
0000
0001
0000
3002
,
0000
1000
0000
1003
,
0002
0000
0000
0100
0000
0100
0000
0203
,
0000
0010
0000
0310
,
1000
0100
1000
0100
,
0010
0001
0010
0001
,
1000
0010
0100
0001
,
1000
0100
0010
0001
,
0200
0000
0000
0010
0000
0010
0000
0320
,
0000
1000
0000
1030
,
2000
0000
0000
0001
0000
0001
0000
3002
,
0000
0010
0000
0013
,
0001
0010
0001
0010
,
0100
1000
0100
1000
,
0001
0100
0010
1000
,
2002
0000
0000
3003
,
1000
0100
1000
0001
,
1000
0010
0100
0110
,
0001
0100
0001
1000
,
0001
0010
0100
0110
,
1000
0100
0010
0001
,
1000
0010
0100
0110
,
0001
0010
0100
1000
,
0001
0100
0010
0110
,
1001
0001
1000
0001
,
0010
0010
0100
0100
,
0100
1000
0001
1000
,
0010
0010
0100
0100
,
0100
0001
1000
0001
,
0010
0100
0010
0010
,
0010
0001
2000
3002
,
0203
0000
0000
0310
,
2000
0000
0000
3000
,
0002
0000
0000
0003
,
0020
0000
0000
0030
,
0200
0300
2000
3000
,
0002
0000
0000
0003
,
0200
0000
0000
0300
,
0020
0000
0000
0030
,
0100
0000
0000
1001
,
0001
0000
0001
0000
0010
0000
0001
1000
,
0000
1000
0000
1000
0000
0000
0100
0000
,
0010
0000
0010
0000
0001
1000
0000
0010
,
0000
0010
0000
0100
0000
0100
0000
0000
,
0001
0000
0001
0000
1000
0000
1000
0100
,
0000
0000
0100
0000
0010
0000
0000
0002
,
0000
1000
1000
1003
,
0010
0100
0001
1000
,
0100
0000
0100
0000
0010
0000
0001
1000
,
0000
0000
1000
0000
0010
0100
0000
0002
,
0000
1000
1000
1003
,
0001
0010
0100
1000
,
0002
0000
0000
1000
0000
1000
0000
2003
,
0000
0001
0000
3001
,
2000
0000
0000
0010
0000
0010
0000
3020
,
0000
0100
0000
0130
,
0001
0010
0001
0010
,
0100
1000
0100
1000
,
0001
0100
0010
1000
,
0001
0010
0100
1000
,
0020
0000
0000
0100
0000
0100
0000
0230
,
0000
0001
0000
0301
,
0002
0000
0000
1000
0000
1000
0000
2003
,
0000
0100
0000
3100
,
1000
0100
1000
0100
,
0010
0001
0010
0001
,
1000
0010
0100
0001
,
2002
0000
0000
3003
,
0200
0000
0000
0000
,
0000
0000
0000
0000
0000
0000
0000
0300
;
