#TITLE:Uh La La La;
#SUBTITLE:;
#ARTIST:Alexia;
#TITLETRANSLIT:;
#SUBTITLETRANSLIT:;
#ARTISTTRANSLIT:;
#GENRE:;
#CREDIT:;
#BANNER:Uh La La La.png;
#BACKGROUND:Uh La La La-bg.png;
#JACKET:Uh La La La-jacket.png;
#LYRICSPATH:;
#CDTITLE:;
#MUSIC:uh la la la.ogg;
#OFFSET:0.000000;
#SAMPLESTART:60.072456;
#SAMPLELENGTH:14.769234;
#SELECTABLE:YES;
#BPMS:0.000000=130.000000
;
#STOPS:
;
#BGCHANGES:;
#KEYSOUNDS:;
#ATTACKS:;

//---------------dance-single - ----------------
#NOTES:
     dance-single:
     JunkoXXX 7 (mid):
     Hard:
     7:
     0.413138,0.478670,0.121884,0.000000,0.631579,261.000000,250.000000,11.000000,0.000000,0.000000,0.000000,0.413138,0.478670,0.121884,0.000000,0.631579,261.000000,250.000000,11.000000,0.000000,0.000000,0.000000:
0000
0000
0000
0000
,
0000
0000
0000
0000
,
0000
0000
1000
0000
0001
1000
0000
0001
0000
1000
0000
0000
0000
0000
0000
0000
,
0010
0100
0001
1000
,
1010
0000
0000
0010
1000
0010
0000
0000
0000
0100
0000
0000
,
0001
0100
0001
0100
,
0001
0000
1000
0000
0001
1000
0000
0001
1000
0000
0000
0000
0000
0000
0000
0000
,
1000
0001
1000
0001
0000
0000
0001
1000
0001
1000
0000
0000
,
0101
0000
0000
0001
0100
0001
0000
0000
0000
0001
0000
0000
,
0010
0100
0010
0001
,
0000
0000
0100
0000
0001
0100
0000
0001
0000
1000
0000
0000
0001
0000
0000
0000
,
0100
1000
0100
0001
,
1001
0000
0000
1000
0001
1000
0000
0000
0000
0001
0000
0000
,
0100
0010
1000
0001
,
0010
0000
0100
0000
0010
0100
0000
0010
0000
0100
0000
0000
0000
0000
0000
0000
,
1001
0000
0000
0000
0000
0000
1000
0001
1000
0001
0000
0000
,
1000
0000
0001
0000
0100
0000
0100
0000
0010
0000
1000
0000
,
0001
0000
0010
0000
0100
0000
0100
0000
0010
0000
0001
0000
,
1000
0000
0100
0000
0010
0000
0001
0000
0010
0000
0100
0000
,
0100
0000
1000
0000
0001
0000
0010
0000
0100
0000
1000
0000
,
0001
0000
1000
0000
0100
0000
0100
0000
0010
0000
0100
0000
,
1000
0000
0001
0000
1000
0000
0100
0000
0001
0000
1000
0000
,
0100
0000
0001
0000
0100
0000
1000
0000
0010
0000
0100
0000
,
0001
0000
0010
0000
0100
0000
1000
0000
0001
0000
1000
0000
,
0001
0100
1000
0100
,
0001
0100
0010
0100
,
0001
0100
1010
1000
,
0110
1001
0110
1001
,
0001
0000
0000
0000
0000
0000
0000
0000
0001
0000
0000
0000
0000
0000
0000
0000
0001
0000
0000
0000
0000
0000
0000
0000
0001
0000
0000
0000
0000
0000
0000
0000
0001
0000
0000
0000
1000
0000
0000
0010
0000
0000
0100
0000
0000
0001
0000
0000
,
0010
0000
0000
1000
0001
1000
0000
0000
0000
0100
0000
0000
,
0010
0001
1000
0010
,
0000
0000
0001
0000
0100
0001
0000
0001
0000
1000
0000
0000
0010
0000
0000
0000
,
0100
0001
0010
0100
,
1001
0000
0000
1000
0001
0100
0000
0000
0000
0001
0000
0000
,
0100
1000
0100
0001
,
1000
0000
0001
0000
0001
0100
0000
0100
0000
0001
0000
0000
1000
0000
0000
0000
,
0010
0100
0001
0100
,
0001
0000
1000
0000
0010
0000
0100
0000
0001
0000
1000
0000
,
0001
0000
0100
0000
0001
0000
1000
0000
0010
0000
0100
0000
,
0001
0000
0010
0000
0100
0000
1000
0000
0010
0000
0100
0000
,
0001
0000
1000
0000
0001
0000
1000
0000
0001
0000
0100
0000
,
0010
0000
1000
0000
0100
0000
0010
0000
0001
0000
0100
0000
,
0010
0000
1000
0000
0100
0000
1000
0000
1000
0000
0001
0000
,
1000
0000
0010
0000
0100
0000
0001
0000
0100
0000
1000
0000
,
0100
0000
0001
0000
0100
0000
0010
0000
1000
0000
0010
0000
,
1000
0000
0010
0000
0100
0000
0001
0000
1000
0000
0010
0000
,
1000
0000
0010
0000
0100
0000
0001
0000
1000
0000
0010
0000
,
0100
0000
0001
0000
1000
0000
0010
0000
0100
0000
0001
0000
,
1001
0000
0000
0000
;

//---------------dance-single - JunkoXXX 5+----------------
#NOTES:
     dance-single:
     junkoXXX 5+:
     Medium:
     5:
     0.330827,0.400970,0.155125,0.000000,0.177285,209.000000,195.000000,14.000000,0.000000,0.000000,0.000000,0.330827,0.400970,0.155125,0.000000,0.177285,209.000000,195.000000,14.000000,0.000000,0.000000,0.000000:
// measure 0
0000
0000
0000
0000
,  // measure 1
0000
0000
0000
0000
,  // measure 2
1000
0010
0100
0001
,  // measure 3
1000
0100
0001
0100
,  // measure 4
1000
0100
1000
0010
,  // measure 5
0100
0001
0010
0001
,  // measure 6
0010
1000
0001
1000
,  // measure 7
0001
0000
1000
0000
,  // measure 8
0101
0100
0010
1000
,  // measure 9
0100
0010
0001
0100
,  // measure 10
1000
0100
0001
0010
,  // measure 11
0100
1000
0001
0100
,  // measure 12
1000
0100
0001
0100
,  // measure 13
0001
0100
0001
0100
,  // measure 14
0010
0100
0010
0100
,  // measure 15
0010
0000
0010
0000
,  // measure 16
0010
0000
0000
0000
0000
0000
0000
0000
0000
0000
0000
0000
0000
0000
0000
0000
0000
0000
0000
0000
0000
0000
0000
0000
1000
0000
0000
0000
0001
0000
0000
0000
0000
0100
0000
0000
0000
0000
0000
0010
0000
0000
0000
0000
0000
0000
0000
0000
,  // measure 17
0000
0100
0000
0000
0001
0000
0000
0000
0100
0000
0000
0000
0010
0000
0000
0000
,  // measure 18
1000
0000
0000
0000
0000
0000
0000
0000
0000
0000
0000
0000
0100
0000
0000
0000
0000
0000
0000
0000
0000
0000
0000
0000
0010
0000
0000
0000
0100
0000
0000
0000
0000
0010
0000
0000
0000
0000
0000
0000
0000
0000
0000
0000
0000
0000
0000
0000
,  // measure 19
0000
0000
0010
1000
,  // measure 20
0010
0000
0000
0000
0000
0000
0000
0000
0000
0000
0000
0000
0100
0000
0000
0000
0000
0000
0000
0000
0000
0000
0000
0000
0001
0000
0000
0000
0100
0000
0000
0000
0000
0001
0000
0000
0000
0000
0000
0000
0000
0000
0001
0000
0000
0000
0000
0000
,  // measure 21
0000
1000
0000
0000
0001
0000
0000
0000
0100
0000
0000
0000
0010
0000
0000
0000
,  // measure 22
1000
0000
0000
0000
0000
0000
0000
0000
0000
0000
0000
0000
0010
0000
0000
0000
0000
0000
0000
0000
0000
0000
0000
0000
1000
0000
0000
0000
0010
0000
0000
0000
0000
1000
0000
0000
0000
0000
0000
0001
0000
0000
0000
0000
0000
0100
0000
0000
,  // measure 23
0000
0000
0000
0010
0000
0000
0000
0000
0000
1000
0000
0000
0000
0000
0000
0000
0000
0000
0000
0000
0000
0000
0000
0000
0010
0000
0000
0000
0000
0000
0000
0000
0010
0000
0000
0000
0000
0000
0000
0000
0010
0000
0000
0000
0000
0000
0000
0000
,  // measure 24
1000
0001
1000
0001
,  // measure 25
1000
0001
0100
0010
,  // measure 26
0100
0010
0100
0001
,  // measure 27
1001
1001
1001
1001
,  // measure 28
1001
0000
0000
0000
,  // measure 29
1001
0100
0010
1000
,  // measure 30
0001
0010
0100
1000
,  // measure 31
0010
1000
0001
0100
,  // measure 32
0001
0010
0001
1000
,  // measure 33
0100
1000
0010
0100
,  // measure 34
0010
1000
0100
0010
,  // measure 35
0001
0100
0010
1000
,  // measure 36
0001
1000
0001
1000
,  // measure 37
0010
0000
0000
0000
1000
0000
0001
1000
0000
0001
0000
1000
0000
0001
0000
0000
,  // measure 38
0000
0100
0010
0000
1000
0000
0010
0000
,  // measure 39
0100
0000
0000
0000
0001
0000
0000
0001
0000
1000
0000
0010
0000
0100
0000
0000
,  // measure 40
0000
0001
1000
0000
0001
0000
1000
0000
,  // measure 41
0001
0000
0000
0000
0100
0000
0000
1000
0000
0001
0000
1000
0000
0000
0001
0000
,  // measure 42
0000
0100
0000
0000
0010
0000
1000
0000
,  // measure 43
0010
0000
0000
0000
0100
0000
0000
0000
0001
0000
1000
0010
0000
0100
0000
0000
,  // measure 44
0000
0001
0010
0100
1000
0000
0000
0000
0010
0000
0000
0000
0100
0000
0000
0000
,  // measure 45
0101
1000
0011
0001
,  // measure 46
1100
0100
0011
1000
,  // measure 47
0110
0001
1010
0100
,  // measure 48
1001
0010
0000
0000
;

//---------------dance-single - ----------------
#NOTES:
     dance-single:
     JunkoXXX 3-:
     Easy:
     3:
     0.136130,0.240582,0.011080,0.000000,0.000000,86.000000,85.000000,1.000000,0.000000,0.000000,0.000000,0.136130,0.240582,0.011080,0.000000,0.000000,86.000000,85.000000,1.000000,0.000000,0.000000,0.000000:
0000
0000
0000
0000
,
0000
0000
0000
0000
,
1000
0000
0000
0000
,
0001
0000
0000
0000
,
1000
0000
0000
0000
,
0001
0000
0000
0000
,
1000
0000
0000
0000
,
0001
0000
0000
0000
,
1000
0000
0000
0000
,
0100
0000
0000
0000
,
1001
0000
0000
0000
,
0001
0000
0000
0000
,
0100
0000
0000
0000
,
0001
0000
0000
0000
,
0100
0000
0000
0000
,
0010
0000
0000
0000
,
1000
0000
0010
0000
,
0100
0000
1000
0000
,
0001
0000
0010
0000
,
0100
0000
1000
0000
,
0001
0000
1000
0000
,
0001
0000
0100
0000
,
0001
0000
0100
0000
,
0001
0000
0100
0000
,
0010
0100
0010
0100
,
0010
0001
1000
0001
,
1000
0001
1000
0010
,
0100
0010
0100
0010
,
0100
0000
0000
0000
,
0001
0000
0000
0000
,
1000
0000
0000
0000
,
0001
0000
0000
0000
,
1000
0000
0000
0000
,
0001
0000
0000
0000
,
0010
0000
0000
0000
,
0100
0000
0000
0000
,
0010
0000
0000
0000
,
0100
0000
0010
0000
,
0100
0000
0010
0000
,
1000
0000
0001
0000
,
1000
0000
0001
0000
,
0100
0000
0001
0000
,
1000
0000
0010
0000
,
1000
0000
0001
0000
,
0010
0000
0001
0000
,
1000
0001
1000
0001
,
1000
0010
0100
0010
,
0100
0010
0001
0010
,
0100
1000
0000
0000
;
