#TITLE:The Revolution;
#SUBTITLE:;
#ARTIST:MAX&DOOM;
#TITLETRANSLIT:;
#SUBTITLETRANSLIT:;
#ARTISTTRANSLIT:;
#CREDIT:;
#BANNER:The Revolution.png;
#BACKGROUND:The Revolution-bg.png;
#LYRICSPATH:;
#CDTITLE:;
#MUSIC:The Revolution.mp3;
#OFFSET:-6.010;
#SAMPLESTART:71.430;
#SAMPLELENGTH:11.990;
#SELECTABLE:YES;
#BPMS:0.000=160.050;
#STOPS:;
#BGCHANGES:;

//---------------dance-single - ----------------
#NOTES:
     dance-single:
     :
     Hard:
     9:
     0.753,0.706,0.447,0.402,0.269:
0001
0100
0010
1000
0001
0010
0100
1000
,
0001
0100
0001
1000
0100
0010
0001
0100
,
0001
0100
0001
0000
1000
0000
0100
0000
1000
0100
1000
0000
0001
0000
1000
0000
,
1100
0000
0000
1001
0000
0000
0202
0000
0303
0000
0000
0001
1000
0000
0001
1000
,
0010
0000
1000
0000
0100
0000
1000
0000
0010
0000
0010
0100
0010
0000
0100
0000
,
0001
0000
0010
0000
0100
0000
0010
0000
0001
0000
1000
0100
1000
0000
0001
0000
,
0100
0000
0010
0000
1000
0000
0100
0000
0010
0000
0010
0001
1000
0000
0001
0100
,
0001
0100
0010
1000
0100
0010
0100
1000
,
1100
0000
0000
0000
1001
0000
0000
0000
0001
0000
1000
0010
0100
0000
0010
0100
,
0001
0000
0001
0000
0100
0000
0000
0000
0010
0000
0100
0010
1000
0000
0001
0010
,
0200
0000
0000
0000
0001
0000
0000
0000
0010
0000
0000
0000
1300
0000
0000
1000
,
0100
0000
0000
0000
0011
0000
0000
0001
0100
0000
0010
0000
1000
0001
1000
0001
,
1000
0020
0000
0130
0001
0020
0000
0130
,
0010
0000
0001
0000
0100
0000
0010
0000
1000
0000
0001
1000
0001
0000
1000
0000
,
0100
2000
0000
3001
0100
0002
0000
1003
,
0010
0100
0001
0010
0100
0010
0001
1000
,
1100
0000
0001
0101
0000
1100
0000
0101
,
0000
0011
0000
0110
0000
0010
0001
1000
,
1200
0000
0000
0000
0310
0000
0000
0000
1002
0000
0000
0000
0103
0000
0000
0001
,
0100
0001
0010
0100
1000
0100
1000
0001
,
0100
0000
0001
0000
0000
0000
1001
0000
0000
0000
1000
0000
0100
0000
0000
0010
,
0001
0000
0100
0000
0000
0000
0110
0000
0000
0000
0010
0000
1000
0000
0000
1000
,
0100
0000
0010
0000
0000
0000
0101
0000
0000
0000
0010
0100
0010
0000
1000
0000
,
0100
0000
1000
0000
0000
0000
0011
0000
0000
0000
0001
0000
0100
0000
0000
0100
,
0020
0000
0000
0000
1000
0000
0000
0000
0100
0000
0000
0000
1030
0000
0000
1000
,
0100
0000
0000
0000
0120
0000
0000
0000
0001
0000
0000
0000
0130
0000
0000
1000
,
0001
0000
2001
0000
3010
1000
0100
0010
,
0001
0100
0001
1000
0010
0100
0001
0010
,
0220
0330
0011
0101
,
2002
3003
2020
3030
,
1000
0100
0010
0001
0011
0000
1100
0000
,
1001
0001
0100
1000
0100
0001
0010
0100
,
2200
3300
1010
0101
,
2002
3003
0022
0033
,
1000
0010
0100
0010
1010
0000
1100
0000
,
0012
0000
0000
0000
0013
0000
0001
0000
2000
0000
0000
0000
3010
0000
0000
1000
,
0001
0000
0100
0001
0100
0000
0010
0000
1000
0000
0100
0000
0010
0000
0001
0000
,
1000
0000
0001
0000
1000
0000
0010
0000
0100
0000
0001
0000
0010
0000
0000
0001
,
1000
0000
1000
0100
1000
0000
0100
0000
0010
0000
0001
0000
0100
0000
0010
0000
,
1000
0000
0100
0000
0001
0000
0100
0000
1000
0000
0001
0000
0100
0000
0000
0010
,
0100
0000
0010
1000
0100
0000
0010
0000
0001
0000
1000
0000
0010
0000
0100
0000
,
1000
0100
0001
0010
0100
0001
0100
1000
,
0001
0100
0010
0000
1000
0000
0100
0000
1000
0100
0010
0000
0001
0000
1000
0001
,
0200
0000
0000
0000
0000
0000
0310
0000
0000
0000
0010
0100
0010
0000
1000
0001
,
1000
0000
0100
0000
1000
0000
0001
0000
0100
0000
0100
0001
0100
0000
0001
0100
,
0001
0000
1000
0000
0100
0000
0010
0000
0001
0000
0100
0010
0100
0000
0010
1000
,
0010
0000
1000
0000
0100
0000
0010
0000
0001
0000
0100
1000
0010
0000
0100
0001
,
0010
0001
0100
0010
1000
0100
1000
0001
,
0101
0000
0000
0000
0100
0000
0000
0000
0010
0000
1000
0100
1000
0000
0001
0100
,
0001
0000
1000
0000
0100
0000
0000
0000
0011
0000
0000
0001
0100
0000
0010
1000
,
0010
1000
0100
0010
0100
1000
0001
0100
,
0101
0000
0000
0000
1001
0000
0000
0000
1000
0000
0100
0000
0010
0001
0010
0001
,
1000
0200
0000
0310
0100
1000
0010
0100
,
0001
2000
0000
3001
0100
0010
0100
0001
,
0010
0200
0000
0310
0001
1000
0010
0100
,
0001
2000
0000
3010
0100
0010
1000
0100
,
0021
0000
0001
0000
0100
0000
0130
0010
,
2002
0000
3003
0000
0202
0000
0303
1000
,
2200
0000
3300
0001
0202
0000
0303
0000
,
1000
0000
0100
0000
1100
0000
1000
0000
0000
0001
1000
0000
0001
0100
0001
0100
,
0001
1000
0100
1000
0010
0100
0010
1000
,
0001
0010
0100
0010
0001
1000
0100
0010
,
0100
1000
0001
0100
0010
0100
1000
0100
,
0010
0000
1000
0001
1000
0000
0000
0001
1000
0000
0100
0000
0010
0100
0010
0100
,
0010
0001
1000
0100
0010
0001
1000
0010
,
0100
0000
0001
0000
0100
0000
0010
0000
1000
0001
1000
0001
1000
0001
1000
0002
,
2000
3003
0220
0330
,
0110
1001
0000
0000
;

//---------------dance-single - ----------------
#NOTES:
     dance-single:
     :
     Medium:
     7:
     0.503,0.553,0.338,0.411,0.027:
1000
0100
1000
0100
,
0010
0100
0010
0001
,
1000
0100
0010
0001
1000
0100
0010
0001
,
1000
0000
0000
0001
0000
0000
2002
0000
0000
0000
0000
0000
3003
0000
0000
0000
,
1000
0010
0000
0010
0100
0000
0001
1000
,
0100
0000
1000
0001
0100
0000
0010
0100
,
0001
1000
0000
1000
0100
0000
0010
0001
,
0100
0000
0010
1000
0100
1000
0010
0000
,
0110
0000
0101
0000
0001
0000
1000
0100
,
0010
0000
1001
0000
0100
0000
0010
1000
,
0200
0010
1000
0310
,
1001
0000
0101
0000
0010
0000
1000
0100
,
0010
0000
0100
0010
0001
0000
1000
0001
,
0100
0001
0100
0001
1000
0000
0100
1000
,
0100
0000
0010
0001
0100
0000
0010
0100
,
0001
1000
0001
0010
0100
0000
0010
0000
,
0011
0000
0001
0100
0000
1000
0000
0100
,
0000
0010
0000
0100
0000
0001
0010
0100
,
2000
3000
0001
1000
,
0220
0000
0000
0330
,
1001
0000
0000
0001
0000
0000
0100
0000
,
0010
0100
0000
0001
0000
1000
0100
0100
,
0010
0000
0000
0001
0000
0000
1000
0001
,
1000
0100
0000
0010
0000
0001
0100
0010
,
0200
0000
0000
0000
0000
0000
0000
0000
0310
0000
0000
0000
0100
0000
0000
0010
,
2000
0000
0000
0000
0020
0000
0000
0000
3030
0000
0000
0000
1000
0000
0000
0001
,
0020
0002
0000
0033
,
2002
0000
0000
3003
,
0001
0100
0101
0100
,
0020
0030
2002
3003
,
1001
1000
1100
0100
,
2002
0000
0000
3003
,
0001
0100
1010
0100
,
0001
0010
2200
3300
,
1000
0010
0102
0010
,
2000
0000
0000
0000
0000
0000
0000
0000
3003
0000
0000
0000
0001
0000
0000
1000
,
0002
1000
0100
0100
,
1000
0000
0000
0000
1000
0000
0000
0000
0010
0000
0000
0000
1003
0000
0000
0010
,
0200
0010
0001
0001
,
0010
0000
0000
0000
1000
0000
0000
0000
0010
0000
0000
0000
0301
0000
0000
0001
,
2000
0001
0010
0010
,
0100
0100
0001
3001
,
1000
0100
0010
0001
1000
0010
0100
0001
,
2000
0000
0000
0002
0000
0000
3003
0000
,
1001
0000
0001
0100
0001
0000
1000
0100
,
0010
0000
0100
0010
0001
0010
0001
0000
,
1000
0000
0001
0100
0010
0000
0100
0001
,
0100
0000
0001
0000
1000
0100
0010
0001
,
0100
0000
0001
0000
0101
0000
0010
1000
,
0100
0000
1000
0000
0011
0000
1000
0001
,
0100
0000
0010
0100
0001
1000
0100
0010
,
0001
0000
0010
0000
0001
0100
0010
1000
,
0020
0000
1000
0000
0130
0010
0100
0001
,
1000
0000
0100
0000
1000
0100
0010
0001
,
0020
0000
0001
0000
0130
0010
0001
1000
,
0001
0000
0100
0000
0010
0100
0001
0000
,
2002
3003
1100
0110
,
0022
0033
2002
3003
,
0202
0303
1010
1100
,
0022
0000
0033
0000
1001
0000
0001
0100
,
0001
0000
1000
0100
0010
0001
0100
0010
,
0100
0000
0001
0100
0001
0000
1000
0100
,
0010
0000
0100
0000
0010
0001
1000
0001
,
0100
0100
0001
1000
0100
0000
1100
0000
,
2002
0000
0000
0000
,
0000
0000
0000
3003
,
0220
0330
2002
3003
,
0110
1001
0000
0000
;

//---------------dance-single - ----------------
#NOTES:
     dance-single:
     :
     Easy:
     4:
     0.374,0.491,0.338,0.429,0.000: // measure 1
1000
0001
1000
0001
,  // measure 2
0100
0010
0100
0010
,  // measure 3
1000
0100
0010
0001
,  // measure 4
2002
0000
0000
3003
0000
0000
0000
0000
,  // measure 5
1000
0100
1000
0000
,  // measure 6
0001
0100
0010
0100
,  // measure 7
0001
0010
0100
0000
,  // measure 8
0010
0001
1000
0100
,  // measure 9
0110
0000
0010
0001
,  // measure 10
1000
0000
0001
1000
,  // measure 11
0020
0000
0000
0030
,  // measure 12
1000
1000
0001
1000
,  // measure 13
1001
0000
0001
0100
,  // measure 14
0010
1000
0100
0010
,  // measure 15
0001
0000
1000
0001
,  // measure 16
1000
0010
1000
0100
,  // measure 17
0110
0000
0010
0001
,  // measure 18
1000
1000
0001
0001
,  // measure 19
1001
0000
0100
0010
,  // measure 20
0220
0000
0000
0330
,  // measure 21
1002
0000
1003
0100
,  // measure 22
0020
0000
0130
0010
,  // measure 23
0002
0000
1003
0010
,  // measure 24
0200
0000
0310
1000
,  // measure 25
0001
0000
1000
0100
,  // measure 26
0110
0110
0010
0001
,  // measure 27
1001
2002
0000
3003
,  // measure 28
0220
0000
0000
0330
,  // measure 29
2002
3003
0001
0100
,  // measure 30
0220
0330
2002
3003
,  // measure 31
0220
0330
0010
1000
,  // measure 32
2002
0000
0000
3003
,  // measure 33
0220
0330
0010
1000
,  // measure 34
2002
3003
0220
0330
,  // measure 35
2002
3003
1000
0100
,  // measure 36
0220
0330
0010
0001
,  // measure 37
2001
0000
0000
0000
,  // measure 38
0000
0000
3001
0100
,  // measure 39
0120
0000
0000
0000
,  // measure 40
0000
0000
0130
0010
,  // measure 41
1000
0100
0010
0001
,  // measure 42
0100
0010
1000
0010
,  // measure 43
1000
0001
0100
0010
,  // measure 44
2002
0000
0000
3003
0000
0000
1000
0000
,  // measure 45
0100
0100
1000
0001
,  // measure 46
0100
0010
0100
0001
,  // measure 47
1000
1000
0001
0010
,  // measure 48
0100
0010
0001
1000
,  // measure 49
1001
0000
0001
0100
,  // measure 50
0010
0000
0100
0010
,  // measure 51
1000
0100
0010
0001
,  // measure 52
1000
0001
0100
0010
,  // measure 53
0110
0000
0100
0001
,  // measure 54
0010
0100
0010
0001
,  // measure 55
1000
0100
0010
0100
,  // measure 56
1000
0001
0100
0001
,  // measure 57
2002
3003
1000
0001
,  // measure 58
1001
0000
0110
0000
,  // measure 59
0220
0330
0010
1000
,  // measure 60
0001
1000
0100
0010
,  // measure 61
0100
0100
0010
0010
,  // measure 62
0001
1000
0001
0100
,  // measure 63
0010
1000
0100
0010
,  // measure 64
0100
1000
0001
1001
,  // measure 65
0220
0000
0000
0000
,  // measure 66
0000
0000
0000
0330
,  // measure 67
2002
3003
2002
3003
,  // measure 68
1001
1001
0000
0000
;

//---------------dance-single - ----------------
#NOTES:
     dance-single:
     :
     Beginner:
     2:
     0.190,0.246,0.210,0.000,0.000:
1000
0000
0001
0000
,
0100
0000
0010
0000
,
1000
1000
0001
0001
,
1000
0000
0000
0000
,
0001
0000
0100
0000
,
0001
0000
0100
0000
,
0001
0000
1000
0000
,
0100
0000
0000
0000
,
0110
0000
0000
0000
,
1001
0000
0000
0000
,
1000
0000
0001
0000
,
1001
1001
0000
0000
,
1001
0000
0001
0000
,
0100
0000
0010
0000
,
0100
0000
0010
0000
,
1000
0000
0000
0000
,
0001
0000
0001
0000
,
1000
0000
0100
0000
,
0010
0000
0100
0000
,
1001
0000
0000
0000
,
1000
0000
0000
0001
,
0001
0000
0000
0100
,
0100
0000
0000
0010
,
0010
0000
0000
1000
,
1000
0000
0001
0000
,
0100
0100
0100
0000
,
0001
0001
0001
0000
,
1001
0000
0000
0000
,
0110
0000
1000
1000
,
1000
0000
0001
0000
,
1001
0000
0010
0010
,
0010
0000
0000
0000
,
1001
0000
0001
0001
,
0001
0000
0010
0000
,
0110
0000
0100
0100
,
0100
0000
1000
0000
,
1001
0000
0000
0000
,
0000
0000
0000
0000
,
0110
0000
0000
0000
,
0000
0000
0000
0000
,
1001
0000
0001
0000
,
0100
0000
0001
0000
,
1000
0000
0001
0000
,
1001
0000
0000
0000
,
1000
0000
0100
0000
,
1000
0000
0001
0000
,
0100
0000
0010
0000
,
0100
0000
0000
0000
,
0100
0000
0010
0000
,
1000
0000
0001
0000
,
0100
0000
0000
0000
,
0110
0110
0000
0000
,
1001
0000
0000
0000
,
0001
0000
1000
0000
,
0100
0000
0010
0000
,
0001
0000
0000
0000
,
1001
0000
1000
1000
,
1000
0000
0001
0000
,
0100
0000
0010
0010
,
0010
0000
0100
0000
,
0001
0000
0001
0000
,
0100
0000
0100
0000
,
0010
0000
1000
0000
,
1001
0000
0000
0000
,
0110
0000
0000
0000
,
0000
0000
0000
0000
,
0001
0000
1000
0000
,
1001
1001
0000
0000
;
