#VERSION:0.81;
#TITLE:Sing;
#SUBTITLE:;
#ARTIST:Pentatonix;
#TITLETRANSLIT:;
#SUBTITLETRANSLIT:;
#ARTISTTRANSLIT:;
#GENRE:;
#ORIGIN:;
#CREDIT:mf32892;
#BANNER:SING.png;
#BACKGROUND:SING-bg.png;
#PREVIEWVID:;
#JACKET:SING-jacket.png;
#CDIMAGE:;
#DISCIMAGE:;
#LYRICSPATH:;
#CDTITLE:;
#MUSIC:Sing.ogg;
#OFFSET:0.842000;
#SAMPLESTART:3.988000;
#SAMPLELENGTH:11.429000;
#SELECTABLE:YES;
#BPMS:0.000=155.000,
124.000=77.500,
128.000=155.000,
216.000=77.500,
224.000=155.000,
296.000=160.000,
304.000=135.000,
307.750=130.000,
311.000=150.000,
312.500=145.000,
314.000=140.000,
315.000=145.000;
#STOPS:;
#DELAYS:;
#WARPS:;
#TIMESIGNATURES:0.000=4=4;
#TICKCOUNTS:0.000=4;
#COMBOS:0.000=1;
#SPEEDS:0.000=1.000=0.000=0;
#SCROLLS:0.000=1.000,
304.000=1.185,
307.750=1.230,
311.000=1.067,
312.500=1.103,
314.000=1.143,
315.000=1.103;
#FAKES:;
#LABELS:0.000=Song Start;
#LASTSECONDHINT:129.960999;
#BGCHANGES:;
#KEYSOUNDS:;
#ATTACKS:
;

//---------------dance-single - ----------------
#NOTEDATA:;
#CHARTNAME:;
#STEPSTYPE:dance-single;
#DESCRIPTION:;
#CHARTSTYLE:;
#DIFFICULTY:Hard;
#METER:7;
#RADARVALUES:0.563888,0.623245,0.130804,0.530912,0.073097,427.000000,17.000000,69.000000,1.000000,0.000000,0.000000,0.000000,0.000000,0.563888,0.623245,0.130804,0.530912,0.073097,427.000000,17.000000,69.000000,1.000000,0.000000,0.000000,0.000000,0.000000;
#CREDIT:;
#NOTES:
// measure 0
0000
0000
0000
0000
,  // measure 1
0000
0000
0000
0000
,  // measure 2
0000
0000
0000
0000
,  // measure 3
0100
0000
0100
0000
0001
1000
0001
1000
,  // measure 4
0100
0000
0100
0000
1000
0001
1000
0001
,  // measure 5
0100
0000
0100
0000
0001
1000
0001
1000
,  // measure 6
0100
0000
0100
0000
1000
0001
1000
0001
,  // measure 7
0101
0000
0000
0000
0000
0001
0010
0100
,  // measure 8
1100
0000
0000
0000
0000
1000
0010
0100
,  // measure 9
0002
0000
0013
0100
0001
0100
1000
0010
,  // measure 10
0100
0001
0000
1002
0000
1003
0010
0100
,  // measure 11
0001
0000
0001
0000
1000
0001
1000
0001
,  // measure 12
0100
0000
0100
0000
0001
1000
0001
1000
,  // measure 13
0100
0000
0100
0000
1000
0001
1000
0001
,  // measure 14
0010
0000
0010
0000
0001
1000
0001
1000
,  // measure 15
1010
0000
0000
0000
0000
1000
0010
0100
,  // measure 16
0101
0000
0000
0000
0000
0001
0010
0100
,  // measure 17
2000
0000
3010
0100
1000
0100
0001
0100
,  // measure 18
0010
1000
0000
2001
0000
3001
0010
0100
,  // measure 19
2000
0010
3020
0100
,  // measure 20
0230
0001
0302
1000
,  // measure 21
2003
3200
0320
0032
,  // measure 22
1003
0100
0010
0001
0100
0010
1000
0000
,  // measure 23
2001
0010
3020
0100
,  // measure 24
0230
0000
0001
0000
0302
0000
1003
0010
,  // measure 25
0000
0010
0100
0010
1000
0100
0010
0002
,  // measure 26
0000
0000
1003
0000
0001
0100
0000
0020
,  // measure 27
0000
0130
0001
0010
0001
0100
0010
2000
,  // measure 28
0000
3100
0010
0100
1000
0001
0100
0000
,  // measure 29
1010
1000
0100
0010
0001
1000
0010
0000
,  // measure 30
0100
0000
0010
0000
0100
0001
0100
0000
0010
0000
1000
0000
0100
0000
0000
0000
,  // measure 31
0011
0000
0000
1000
0001
0000
0000
0010
0000
0000
0010
0000
0100
0000
0000
0000
,  // measure 32
1000
0000
0001
0000
1000
0001
1000
0001
,  // measure 33
0100
0000
0100
0000
0001
1000
0001
1000
,  // measure 34
1100
0000
0000
0000
0000
1000
0100
0010
,  // measure 35
0011
0000
0000
0000
0000
0001
0100
0010
,  // measure 36
2000
0000
3100
0010
0001
0100
0010
1000
,  // measure 37
0001
0010
0000
0210
0000
1300
0100
0010
,  // measure 38
0001
0010
0001
0200
0000
0310
0000
0010
,  // measure 39
1000
0100
1000
0200
0000
0310
0000
0010
,  // measure 40
0001
0100
0001
0200
0000
0310
1000
0100
,  // measure 41
2000
0000
3002
0000
0103
0010
1000
0000
,  // measure 42
0002
0010
0023
0100
,  // measure 43
0230
1000
2300
0001
,  // measure 44
3002
0203
0320
2030
,  // measure 45
3001
0010
0100
1000
0010
0100
0001
0000
,  // measure 46
0020
0001
0032
1000
,  // measure 47
2003
0000
0010
0000
3020
0000
0130
0001
,  // measure 48
0000
0001
0010
0001
0100
0010
1000
0200
,  // measure 49
0000
0000
1300
0000
1000
0001
0000
0020
,  // measure 50
0000
0130
0010
0001
0100
0010
0100
0001
,  // measure 51
0000
0001
0010
0100
1000
0010
0100
0000
,  // measure 52
0101
0001
0100
0001
0010
0100
1000
0000
,  // measure 53
0010
0000
1000
0000
0100
1000
0100
0000
0010
0000
0001
0000
1000
0000
0000
0000
,  // measure 54
0010
0000
0000
1000
0001
0000
0000
0001
0100
0000
0000
0001
1000
0000
0000
1000
,  // measure 55
0100
0000
0000
0100
0010
0000
0000
0010
0001
1000
0001
1000
0010
0100
0010
0100
,  // measure 56
0002
0000
0020
0030
,  // measure 57
2000
0000
3000
0000
0200
0000
0300
0020
,  // measure 58
0003
0130
0010
0001
0010
0100
1000
0002
,  // measure 59
0000
0000
0003
0000
0100
0010
0000
2000
,  // measure 60
0000
3100
0010
0100
1000
0001
0100
0020
,  // measure 61
0000
0130
1000
0100
0001
0100
0010
0000
,  // measure 62
1010
1000
0100
0010
0001
1000
0010
0000
,  // measure 63
0100
0001
1000
0001
0010
0100
1000
0001
,  // measure 64
0201
0010
0320
1000
,  // measure 65
2030
0000
0100
0000
3200
0000
0310
0002
,  // measure 66
0000
0103
0010
1000
0100
0001
0100
2000
,  // measure 67
0000
0000
3001
0000
1000
0010
0000
0200
,  // measure 68
0000
0310
1000
0100
0010
0100
1000
0010
,  // measure 69
0000
0100
0001
0010
0100
0010
0001
0000
,  // measure 70
0101
0100
0010
1000
0100
0010
0001
0000
,  // measure 71
0010
0000
0100
0000
1000
0001
1000
0000
0010
0000
0100
0000
0001
0000
0000
0000
,  // measure 72
0011
0001
0100
0010
1000
0001
0010
0000
,  // measure 73
0200
0000
0000
1300
0001
1000
0001
0000
0010
0000
0100
0000
1000
0000
0001
0000
,  // measure 74
0200
0000
0000
0000
,  // measure 75
0000
0000
0000
0000
0000
0000
0000
0000
0000
0000
0320
0000
0000
2030
0000
0000
,  // measure 76
3002
0000
0000
0000
0000
0000
0020
0000
0003
0000
0000
0000
0230
0000
0000
2000
,  // measure 77
0000
0000
0300
3002
,  // measure 78
0000
2003
0000
0000
3002
0000
0020
0000
,  // measure 79
0000
0003
0230
2000
,  // measure 80
0000
0000
0000
0000
,  // measure 81
3300
0000
0000
0000
;

//---------------dance-single - ----------------
#NOTEDATA:;
#CHARTNAME:;
#STEPSTYPE:dance-single;
#DESCRIPTION:;
#CHARTSTYLE:;
#DIFFICULTY:Medium;
#METER:6;
#RADARVALUES:0.405604,0.467434,0.030778,0.346247,0.019236,320.000000,4.000000,45.000000,0.000000,0.000000,0.000000,0.000000,0.000000,0.405604,0.467434,0.030778,0.346247,0.019236,320.000000,4.000000,45.000000,0.000000,0.000000,0.000000,0.000000,0.000000;
#CREDIT:;
#NOTES:
0000
0000
0000
0000
,
0000
0000
0000
0000
,
0000
0000
0000
0000
,
0001
0000
0001
0000
1000
0001
0000
0001
,
1000
0000
1000
0000
0010
1000
0000
1000
,
0001
0000
0001
0000
0010
0001
0000
0001
,
1000
0000
1000
0000
0010
1000
0000
1000
,
0001
0000
0000
0000
0000
0010
0100
1000
,
0100
0000
0000
0000
0000
1000
0010
0100
,
0002
1000
0000
1000
,
0000
0000
1003
0000
0000
1000
0010
0100
,
0001
0000
0001
0000
1000
0010
0000
0010
,
0100
0000
0100
0000
0001
0010
0000
0010
,
0100
0000
0100
0000
0010
0001
0000
0001
,
1000
0000
1000
0000
0010
1000
0000
1000
,
0001
0000
0000
0000
0000
1000
0010
0100
,
0010
0000
0000
0000
0000
0100
0001
1000
,
0200
0010
0000
0010
,
0000
0000
0310
0000
0000
0010
0001
1000
,
0002
0103
0200
0310
,
0020
1030
2000
3001
,
0002
0023
0032
0203
,
0320
2030
3002
1003
,
0001
0000
0100
0000
0010
1000
0000
0010
,
1000
0000
0100
0000
0010
0001
0000
0010
,
0001
0000
1000
0000
0001
0100
0000
0001
,
0100
0000
0010
0000
1000
0001
0000
1000
,
0001
0000
0010
0000
0100
1000
0000
0100
,
1000
0000
0010
0000
0100
0001
0000
0100
,
0001
0000
0001
0010
0000
0010
0100
0000
,
0100
1000
0000
1000
0010
0000
0100
0000
,
0101
0000
0000
0001
0100
0000
0000
0010
0000
0000
1000
0000
0001
0000
0000
0000
,
0010
0000
0010
0000
0001
1000
0000
0001
,
1000
0000
1000
0000
0010
1000
0000
0001
,
1000
0000
0000
0000
0000
0010
0100
0001
,
0100
0000
0000
0000
0000
0001
0010
0100
,
2000
0001
0000
0001
,
0000
0000
3001
0000
0000
0001
0010
0100
,
1000
0000
1000
0000
0010
1000
0000
1000
,
0100
0000
0100
0000
0010
0001
0000
0001
,
0100
0000
0100
0000
0010
1000
0000
1000
,
0001
0000
0010
0000
0001
0100
0000
0100
,
0020
1030
2000
3001
,
0002
0013
0020
0130
,
0200
2300
3020
2030
,
3200
0320
0032
1003
,
0001
0000
0100
0000
0010
1000
0000
0010
,
1000
0000
0100
0000
0010
0001
0000
0010
,
0001
0000
1000
0000
0001
0100
0000
0001
,
0100
0000
0010
0000
1000
0001
0000
1000
,
0001
0000
0010
0000
0100
1000
0000
0100
,
1000
0000
0010
0000
0100
0001
0000
0100
,
0001
0000
0001
1000
0000
1000
0010
0000
,
0010
0100
0000
0100
0001
0000
1000
0000
,
1001
0000
0000
1000
0001
0000
0000
0000
0010
0000
0000
0010
0100
0000
0000
0000
,
1000
0000
0000
1000
0100
0000
0000
0000
0010
0000
0001
0000
0010
0000
0001
0000
,
2000
0000
0200
0300
,
0002
0000
0003
0000
0020
0000
0030
3002
,
0000
0000
0000
0000
0000
0000
0000
0023
,
0000
0000
0000
0000
0000
0000
0000
0230
,
0000
0000
0000
0000
0000
0000
0000
2300
,
0000
0000
0000
0000
0000
0000
0000
3000
,
0001
0000
0001
0100
0000
0100
0010
0000
,
0010
1000
0000
1000
0001
0000
1000
0000
,
2001
0000
0100
0000
3100
0010
0000
0010
,
0002
0000
0010
0000
0103
0010
0000
0010
,
2000
0000
0100
0000
3001
0010
0000
0010
,
0200
0000
0001
0000
1300
0010
0000
0010
,
0200
0000
1000
0000
0310
1000
0000
1000
,
0002
0000
0010
0000
0103
0010
0000
0010
,
1000
0000
1000
0100
0000
0100
0010
0000
,
0010
0001
0000
0001
1000
0000
0010
0000
,
1010
0000
0010
1000
0000
1000
0001
0000
,
0001
0010
0000
0010
0100
0000
1000
0000
,
0002
0000
0000
0000
,
0000
0000
0000
0000
,
2003
0000
0000
0000
,
3020
0000
0000
0230
,
0000
0000
0000
0302
,
0000
0000
0000
2000
,
0000
0000
0000
0000
,
3003
0000
0000
0000
;

//---------------dance-single - ----------------
#NOTEDATA:;
#CHARTNAME:;
#STEPSTYPE:dance-single;
#DESCRIPTION:;
#CHARTSTYLE:;
#DIFFICULTY:Easy;
#METER:4;
#RADARVALUES:0.289089,0.342785,0.192359,0.346247,0.000000,193.000000,25.000000,45.000000,0.000000,0.000000,0.000000,0.000000,0.000000,0.289089,0.342785,0.192359,0.346247,0.000000,193.000000,25.000000,45.000000,0.000000,0.000000,0.000000,0.000000,0.000000;
#CREDIT:;
#NOTES:
0000
0000
0000
0000
,
0000
0000
0000
0000
,
0000
0000
0000
0000
,
0011
0000
0000
1000
,
1100
0000
0000
0001
,
0101
0000
0000
1000
,
1010
0000
0000
0001
,
1001
0000
0000
0000
,
0110
0000
0000
0000
,
0002
1000
0000
1000
,
0000
1000
0000
1003
,
1001
0001
0010
0000
,
1001
1000
0010
1000
,
1100
0100
0010
0000
,
0101
0100
0010
1000
,
1001
0000
0000
0000
,
0110
0000
0000
0000
,
2000
0001
0000
0001
,
0000
0001
0000
3001
,
0201
0000
0320
0000
,
2030
0000
3200
0000
,
0310
0001
1000
0100
,
0020
0032
2000
3003
,
1020
0000
0230
0000
,
0302
0000
2003
0000
,
3100
0010
0001
0100
,
0020
0030
0100
0100
,
0001
0010
0100
1000
,
0001
0001
0001
0000
,
0011
0000
0000
0010
0000
0000
0100
0000
,
0000
0100
0000
0000
1000
0000
0001
0000
,
1000
0010
0100
0001
,
0101
0001
1000
0000
,
1100
1000
0001
1000
,
1001
0000
0000
0000
,
0110
0000
0000
0000
,
0002
1000
0000
1000
,
0000
1000
0000
1003
,
0010
1000
0200
0300
,
0010
0001
0200
0300
,
0010
1000
0100
1000
,
0010
0100
0010
0100
,
0002
0000
0023
0000
,
0230
0000
2300
0000
,
3001
0100
0010
1000
,
0200
2300
0002
3003
,
0201
0000
0320
0000
,
2030
0000
3002
0000
,
0013
0100
1000
0010
,
0200
0300
0010
0010
,
1000
0100
0010
0001
,
1000
1000
1000
0000
,
1100
0000
0000
0100
0000
0000
0010
0000
,
0000
0010
0000
0000
0001
0000
1000
0000
,
1001
0000
1000
0000
,
0001
0000
1000
0000
0001
1000
0001
1000
,
0020
0000
0000
0000
,
0000
0000
0000
0030
,
0200
0000
0000
0300
,
0002
0000
0000
0003
,
2000
0000
0000
3000
,
0200
0000
0000
0300
,
0010
0000
0000
0010
0000
0000
0001
0000
,
0000
0001
0000
0000
1000
0000
0010
0000
,
1020
0000
0230
0000
,
0302
0000
2003
0000
,
3100
0010
0001
0100
,
0020
0030
0100
0100
,
0001
0010
0100
1000
,
0001
0001
0001
0000
,
0011
0000
0000
0010
0000
0000
0100
0000
,
0000
0100
0000
0000
1000
0000
0010
0000
,
1010
0000
0000
0010
0000
0000
0100
0000
,
0000
0100
0000
0000
0001
0000
1000
0000
,
0002
0000
0000
0000
,
0000
0000
0000
0000
,
0023
0000
0030
0000
,
0200
0000
0300
2000
,
0000
0000
3000
0002
,
0000
0000
0000
0200
,
0000
0000
0000
0000
,
0303
0000
0000
0000
;

//---------------dance-single - ----------------
#NOTEDATA:;
#CHARTNAME:;
#STEPSTYPE:dance-single;
#DESCRIPTION:;
#CHARTSTYLE:;
#DIFFICULTY:Beginner;
#METER:1;
#RADARVALUES:0.109920,0.115416,0.000000,0.038472,0.000000,95.000000,0.000000,5.000000,0.000000,0.000000,0.000000,0.000000,0.000000,0.109920,0.115416,0.000000,0.038472,0.000000,95.000000,0.000000,5.000000,0.000000,0.000000,0.000000,0.000000,0.000000;
#CREDIT:;
#NOTES:
0000
0000
0000
0000
,
0000
0000
0000
0000
,
0000
0000
0000
0000
,
1000
0000
0000
0001
,
0001
0000
0000
1000
,
1000
0000
0000
0001
,
0001
0000
0000
1000
,
1000
0000
0000
0000
,
0100
0000
0000
0000
,
2000
0000
0000
0000
,
3000
0000
0000
0000
,
0001
0000
0000
1000
,
1000
0000
0000
0001
,
0001
0000
0000
1000
,
1000
0000
0000
0001
,
0001
0000
0000
0000
,
0010
0000
0000
0000
,
0002
0000
0000
0000
,
0003
0000
0000
0000
,
1000
0000
1000
0000
,
0010
0000
0010
0000
,
0100
0000
0100
0000
,
0001
0000
0001
0000
,
1000
0000
0000
0000
,
0001
0000
0000
0000
,
1000
0000
1000
0000
,
1000
0000
0000
0000
,
0001
0000
0000
0000
,
1000
0000
0000
0000
,
0001
0000
0000
0000
,
0000
0000
0100
0000
,
0010
0000
0000
0000
,
1000
0000
0000
0001
,
0001
0000
0000
1000
,
1000
0000
0000
0000
,
0100
0000
0000
0000
,
2000
0000
0000
0000
,
3000
0000
0000
0000
,
0001
0000
0000
1000
,
1000
0000
0000
0001
,
0001
0000
0000
0000
,
1000
1000
1000
0000
,
0001
0000
0001
0000
,
0010
0000
0010
0000
,
0100
0000
0100
0000
,
1000
0000
1000
0000
,
0001
0000
0000
0000
,
1000
0000
0000
0000
,
0001
0000
0001
0000
,
0001
0000
0000
0000
,
1000
0000
0000
0000
,
0001
0000
0000
0000
,
1000
0000
0000
0000
,
0000
0000
0010
0000
,
1000
0000
0001
0000
,
1000
0000
0001
0000
,
2000
0000
3000
0000
,
0000
0000
0000
0000
,
0001
0000
0000
0000
,
0010
0000
0000
0000
,
0001
0000
0000
0000
,
1000
0000
0000
0000
,
0010
0000
0000
0000
,
0000
0000
0010
0000
,
1000
0000
0000
0000
,
0001
0000
0000
0000
,
1000
0000
1000
0000
,
1000
0000
0000
0000
,
0001
0000
0000
0000
,
1000
0000
0000
0000
,
0001
0000
0000
0000
,
0000
0000
1000
0000
,
0001
0000
0000
0000
,
0000
0000
0001
0000
,
2000
0000
0000
0000
,
3000
0000
0000
0000
;
