#TITLE:Secret;
#SUBTITLE:;
#ARTIST:Jun Abe;
#TITLETRANSLIT:;
#SUBTITLETRANSLIT:;
#ARTISTTRANSLIT:;
#CREDIT:;
#BANNER:;
#BACKGROUND:;
#LYRICSPATH:;
#CDTITLE:;
#MUSIC:Fruits_Basket_-_secret_(mp3.pm).mp3;
#OFFSET:-1.078;
#SAMPLESTART:74.249;
#SAMPLELENGTH:12.000;
#SELECTABLE:YES;
#BPMS:0.000=81.998,66.000=90.001,66.500=140.001,67.000=220.001,67.500=300.001,68.000=380.000,68.500=459.999,69.000=599.996,69.500=699.995,70.000=499.996,70.500=400.002,71.000=300.003,71.500=150.004,72.000=82.001,138.000=90.001,138.500=140.001,139.000=220.001,139.500=300.001,140.000=380.000,140.500=459.999,141.000=599.997,141.500=699.996,142.000=499.999,142.500=400.000,143.000=300.001,143.500=150.001,144.000=82.001;
#STOPS:;
#BGCHANGES:;

//---------------dance-single - ----------------
#NOTES:
     dance-single:
     :
     Hard:
     6:
     0.310,0.373,0.196,0.280,0.000: // measure 1
0000
0000
0000
0000
,  // measure 2
0000
0000
0000
0000
,  // measure 3
0000
0000
0000
0000
,  // measure 4
0000
0000
0000
0000
,  // measure 5
1000
0001
0100
0010
2000
0000
0000
0000
,  // measure 6
3001
1000
0100
0010
0002
0000
1003
0000
,  // measure 7
1000
0010
0100
0001
1000
0000
1001
0000
,  // measure 8
0001
0010
0100
1000
0020
0000
0000
0030
,  // measure 9
1010
1000
0010
0100
0002
0000
0000
0003
,  // measure 10
0011
0001
0100
0010
2000
0000
3100
0000
,  // measure 11
1100
1000
0100
0010
0002
0000
0000
0003
,  // measure 12
0101
0001
0100
0010
2000
0000
3001
0000
,  // measure 13
0101
0001
0010
0100
2000
0000
0000
3000
,  // measure 14
1100
1000
0010
0100
0002
0000
1003
0000
,  // measure 15
1010
1000
0100
0010
0001
0000
0001
0000
,  // measure 16
0011
0001
0100
0010
2000
0000
0000
3000
,  // measure 17
2000
3200
0302
0023
2030
0000
0000
0000
,  // measure 18
0000
0000
0000
0000
,  // measure 19
3001
0100
1000
0001
1000
0100
0001
0010
,  // measure 20
1000
0010
0001
0100
0010
0000
1001
0000
,  // measure 21
1000
0010
0001
1000
0001
0010
1000
0100
,  // measure 22
0001
0100
1000
0010
0100
0000
1001
0000
,  // measure 23
1100
1000
0010
0100
0101
0001
0010
0100
,  // measure 24
1001
1000
0100
0010
1001
0000
0110
0000
,  // measure 25
0011
0001
0100
0010
1000
0000
1100
0000
,  // measure 26
1010
1000
0010
0100
0002
0000
0000
0000
,  // measure 27
0013
1000
0010
0001
0020
0000
0000
0000
,  // measure 28
0130
1000
0100
0001
0200
0000
1300
0000
,  // measure 29
0010
1000
0100
0001
0020
0000
0000
0030
,  // measure 30
0010
0001
0100
1000
0020
0000
1030
0000
,  // measure 31
0100
1000
0010
0001
0020
0000
0000
0030
,  // measure 32
0010
1000
0100
0001
0200
0000
1300
0000
,  // measure 33
1000
0001
1000
0100
1000
0000
1001
0000
,  // measure 34
0001
0010
0001
1000
0002
0000
0000
0000
,  // measure 35
0203
2300
3020
0032
0203
0000
0000
0000
,  // measure 36
0000
0000
0000
0000
,  // measure 37
0310
0001
0100
1000
,  // measure 38
0100
0001
0010
0220
,  // measure 39
0330
0000
0000
0000
;

//---------------dance-single - ----------------
#NOTES:
     dance-single:
     :
     Medium:
     5:
     0.243,0.266,0.112,0.168,0.000:
0000
0000
0000
0000
,
0000
0000
0000
0000
,
0000
0000
0000
0000
,
0000
0000
0000
0000
,
1000
0000
0001
0100
0001
0000
0000
0000
,
1000
0000
0100
0001
0010
0000
1000
0000
,
0001
0000
1000
0100
1000
0000
1000
0000
,
0010
0000
0001
0100
1000
0000
0000
0000
,
1002
0000
0013
0100
1000
0000
0000
0000
,
2001
0000
3100
0001
0010
0000
1000
0000
,
2001
0000
3010
0100
0001
0000
0000
0000
,
0012
0000
0103
1000
0010
0000
0001
0000
,
2001
0000
3001
0001
0100
0000
0000
0000
,
2001
0000
0000
3000
1000
0000
0010
0000
0001
0000
0000
0000
1000
0000
0000
0000
,
2001
0000
3100
0010
0001
0000
0001
0000
,
1001
0000
0001
0100
0010
0000
0000
0000
,
1000
0100
0001
0010
2000
0000
0000
0000
,
0000
0000
0000
0000
,
3001
0100
0010
1000
0001
0000
0000
0000
,
1000
0100
0010
0001
1000
0000
1001
0000
,
0001
0010
0100
1000
0001
0000
0000
0000
,
1000
0010
0100
0001
0010
0000
0010
0000
,
0001
0100
1000
0100
0001
0000
0000
0000
,
0001
0100
0001
0010
0001
0000
1001
0000
,
0001
0010
1000
0010
0001
0000
1001
0000
,
1000
0010
1000
0100
1000
0000
0000
0000
,
2000
0000
3100
0001
0010
0000
0000
0000
,
0020
0000
0031
0100
1000
0000
0010
0000
,
0002
0000
0013
1000
0100
0000
0000
0000
,
0002
0000
0013
1000
0001
0000
1001
0000
,
0020
0000
1030
0100
0001
0000
0000
0000
,
0002
0000
0103
1000
0010
0000
0001
0000
,
0200
0000
0301
0010
1000
0000
1000
0000
,
2000
0000
3100
0010
0001
0000
0000
0000
,
0001
0100
1000
0010
0002
0000
0000
0000
,
0000
0000
0000
0000
,
0013
0001
0100
1000
,
0100
0001
1000
0020
,
0030
0000
0000
0000
;

//---------------dance-single - ----------------
#NOTES:
     dance-single:
     :
     Beginner:
     1:
     0.052,0.088,0.000,0.037,0.000:
0000
0000
0000
0000
,
0000
0000
0000
0000
,
0000
0000
0000
0000
,
0000
0000
0000
0000
,
1000
0000
0000
0000
,
0100
0000
0000
0000
,
0001
0000
0000
0000
,
0100
0000
0000
0000
,
1000
0000
0000
0000
,
0100
0000
0000
0000
,
0001
0000
0000
0000
,
0010
0000
0000
0000
,
1000
0000
0000
0000
,
0100
0000
0000
0000
,
0001
0000
0000
0100
,
0000
0000
0000
0000
,
2000
0000
0002
0000
,
0000
0000
0000
0000
,
3003
0000
0000
0000
,
1000
0000
0000
0000
,
0100
0000
0000
0000
,
0010
0000
0000
0000
,
0001
0000
0001
0000
,
0100
0000
0100
0000
,
1000
0000
1000
0000
,
0010
0000
0010
0000
,
1000
0000
0000
0000
,
0100
0000
0000
0000
,
0001
0000
0000
0000
,
0010
0000
0000
0000
,
1000
0000
0000
0000
,
0100
0000
0000
0000
,
0001
0000
0000
0000
,
0100
0000
0000
0000
,
2000
0000
0002
0000
,
0000
0000
0000
0000
,
30M3
00M0
00M0
00M0
,
00M0
00M0
00M0
00M0
;

//---------------dance-double - ----------------
#NOTES:
     dance-double:
     :
     Easy:
     3:
     0.159,0.265,0.000,0.084,0.000:
00000000
00000000
00000000
00000000
,
00000000
00000000
00000000
00000000
,
00000000
00000000
00000000
00000000
,
00000000
00000000
00000000
00000000
,
00010000
01000000
10000000
00000000
,
10000000
01000000
00010000
00000000
,
00001000
00000100
00000001
00000001
,
00000001
00000010
00001000
00000000
,
00010000
01000000
10000000
00000000
,
10000000
01000000
00010000
00000000
,
00001000
00000100
00000001
00000000
,
00000001
00000010
00000100
00000100
,
00010000
00001000
00010000
00000000
,
01000000
10000000
01000000
00000000
,
00010000
00001000
00010000
00000000
,
00000100
00000010
00000100
00000000
,
00000100
00010000
00002000
00000000
,
00000000
00000000
00000000
00000000
,
00013000
01000000
10000000
01000000
,
00010000
01000000
10000000
10000000
,
01000000
00010000
00001000
00010000
,
01000000
00010000
00001000
00001000
,
00000010
00000001
00000010
00001000
,
00000010
00000001
00000010
00000010
,
00000001
00000100
00001000
00001000
,
00010000
01000000
10000000
00000000
,
10000000
01000000
00010000
00000000
,
00001000
00000100
00000001
00000000
,
00000001
00000100
00001000
00000000
,
00010000
00100000
10000000
01000000
,
00010000
00001000
00000100
00000000
,
00000100
00001000
00010000
01000000
,
10000000
01000000
00100000
00100000
,
00001000
00010000
00000100
00000000
,
00000100
00010000
00002000
00000000
,
00000000
00000000
00000000
00000000
,
00203000
00000000
00000000
00300000
00200000
00000000
00000000
00300000
00200000
00000000
00000000
00300000
00200000
00000000
00000000
00300000
,
00200000
00000000
00000000
00300000
00200000
00000000
00000000
00300000
00200000
00000000
00000000
00300000
00100000
00000000
00000000
00000000
;

//---------------dance-double - ----------------
#NOTES:
     dance-double:
     :
     Medium:
     5:
     0.234,0.249,0.037,0.103,0.000:
00000000
00000000
00000000
00000000
,
00000000
00000000
00000000
00000000
,
00000000
00000000
00000000
00000000
,
00000000
00000000
00000000
00000000
,
00010000
00000000
01000000
10000000
01000000
00000000
00000000
00000000
,
00010000
00000000
00001000
00010000
00001000
00000000
00010000
00000000
,
00001000
00000000
00000100
00000001
00000100
00000000
00000100
00000000
,
00001000
00000000
00010000
01000000
10000000
00000000
00000000
00000000
,
00020000
00000000
10030000
01000000
00010000
00000000
00000000
00000000
,
00010000
00000000
00001000
00010000
00001000
00000000
00011000
00000000
,
00020000
00000000
00001000
00000100
00030001
00000000
00000000
00000000
,
00000020
00000000
00000031
00000100
00000010
00000000
00010010
00000000
,
00002000
00000000
00013000
00100000
10000000
00000000
00000000
00000000
,
00200000
00000000
00301000
00010000
00001000
00000000
00011000
00000000
,
00020000
00000000
00031000
00000010
00000001
00000000
00000001
00000000
,
00000200
00000000
00000310
00010000
00001000
00000000
00000000
00000000
,
00010000
01000000
10000000
00100000
00020000
00000000
00000000
00000000
,
00000000
00000000
00000000
00000000
,
00031000
00010000
00000100
00001000
00000010
00000000
00000000
00000000
,
00000010
00000100
00000001
00000010
00001000
00000000
00010000
00000000
,
00001000
01000000
00010000
10000000
00100000
00000000
00000000
00000000
,
00100000
10000000
01000000
00010000
00001000
00000000
00000100
00000000
,
00000001
00000100
00000010
00010000
00001000
00000000
00000000
00000000
,
00001000
01000000
00010000
10000000
00010000
00000000
01000000
00000000
,
00100000
10000000
01000000
00100000
00001000
00000000
00001000
00000000
,
00010000
00000100
00001000
00000001
00000010
00000000
00000000
00000000
,
00000001
00000100
00001000
00010000
01000000
00000000
10000000
01000000
,
00010000
00001000
00000100
00000000
00000100
00000000
00000001
00000100
,
00001000
00010000
01000000
00000000
00000000
00000000
00000000
00000000
,
10000000
00100000
00010000
00001000
00000010
00000000
00000001
00000000
,
00000100
00001000
00000100
00000001
00000100
00000000
00001000
00010000
,
01000000
00010000
00001000
00000000
00010000
00000000
01000000
10000000
,
01000000
00010000
01000000
00000000
01000000
00000000
10000000
00100000
,
01000000
00010000
00100000
00000000
00000000
00000000
00000000
00000000
,
00001000
00000100
00000001
00000010
00002000
00000000
00000000
00000000
,
00000000
00000000
00000000
00000000
,
00013000
01000000
10000000
00100000
,
00010000
01000000
00001000
00022000
,
00033000
00000000
00000000
00000000
;

//---------------dance-double - ----------------
#NOTES:
     dance-double:
     :
     Hard:
     6:
     0.280,0.284,0.065,0.206,0.000:
00000000
00000000
00000000
00000000
,
00000000
00000000
00000000
00000000
,
00000000
00000000
00000000
00000000
,
00000000
00000000
00000000
00000000
,
00010000
01000000
10000000
00010000
00100000
00000000
00000000
00000000
,
00100000
00001000
00000100
00000001
00001000
00000000
00000100
00000000
,
00000010
00000001
00000100
00001000
00010000
00000000
00010000
00000000
,
01000000
10000000
01000000
00010000
00001000
00000000
00000000
00000000
,
00000010
00000001
00000100
00001000
00020000
00000000
00000000
00000000
,
00130000
10000000
01000000
00010000
00001000
00000000
00010000
00000000
,
01000000
10000000
00100000
00010000
00001000
00000000
00000000
00000000
,
00000100
00000001
00000010
00001000
00010000
00000000
01000000
00000000
,
10000000
00100000
00010000
00100000
10000000
00000000
10000000
01000000
,
00010000
01000000
10000000
00000000
00010000
00000000
00001000
00000100
,
00000001
00000100
00001000
00000000
00001001
00000000
00001000
00000010
,
00000001
00000010
00001000
00000000
00000000
00000000
00000000
00000000
,
00002000
00003200
00000302
00000023
00002030
00000000
00000000
00000000
,
00000000
00000000
00000000
00000000
,
00013000
01000000
10000000
00010000
00100000
01000000
10000000
00100000
,
00010000
00001000
00000100
00000001
00000010
00000000
00000110
00000000
,
00000001
00000100
00001000
00000001
00000010
00010000
01000000
10000000
,
00100000
10000000
01000000
00010000
00001000
00000000
00011000
00000000
,
00001000
00000100
00000001
00000100
00001000
00010000
01000000
10000000
,
01000000
00010000
00001000
00000010
00000001
00000000
00001001
00000000
,
00000001
00000100
00000010
00010000
00001000
00000000
00011000
00000000
,
01010000
00010000
10000000
00100000
02000000
00000000
00000000
00000000
,
03010000
01000000
00001000
00010000
00000020
00000000
00000000
00000000
,
00001030
00000100
00001000
00010000
00200000
00000000
01300000
00000000
,
00100000
01000000
10000000
00010000
00200000
00000000
00000000
00000000
,
00301000
00010000
00000100
00001000
00000020
00000000
00000130
00000000
,
00001000
00000100
00001000
00000001
00000020
00000000
00000000
00000000
,
00001030
00010000
01000000
10000000
00200000
00000000
10300000
00000000
,
00100000
00000000
01000000
00000000
00001000
00000000
00010000
00000000
00000020
00000000
00000000
00000030
00000010
00000000
00000000
00000000
,
00001000
00000000
00000100
00000000
00010000
00000000
00001000
00000000
00200000
00000000
00000000
00000000
00000000
00000000
00000000
00300000
,
00200000
00320000
02030000
23000000
30200000
00000000
00000000
00000000
,
00000000
00000000
00000000
00000000
00000000
00000000
00000000
00300000
,
10000000
00100000
00010000
00001000
,
00000100
00000001
00000100
00022000
,
00033000
00000000
00000000
00000000
;

//---------------dance-solo - ----------------
#NOTES:
     dance-solo:
     :
     Hard:
     6:
     0.284,0.284,0.075,0.224,0.000:
000000
000000
000000
000000
,
000000
000000
000000
000000
,
000000
000000
000000
000000
,
000000
000000
000000
000000
,
010000
001000
100000
000001
000100
000000
000000
000000
,
000010
001000
000001
100000
000200
000000
100300
000000
,
010000
001000
000001
100000
000100
000000
000100
000000
,
010000
001000
100000
000001
000010
000000
000000
000000
,
000010
000001
001000
000001
000020
000000
000000
000000
,
000031
001000
000010
100000
000100
000000
100001
000000
,
010000
001000
100000
000001
020000
000000
000000
000000
,
030100
001000
000001
100000
000010
000000
001001
000000
,
000001
100000
001000
000100
000002
000000
000000
000000
,
100003
001000
100000
000001
020000
000000
031000
000000
,
000010
001000
100000
000001
000010
000000
000010
000000
,
000001
001000
000100
100000
000002
000000
000000
000000
,
200003
302000
003002
000203
200300
000000
000000
000000
,
000000
000000
000000
000000
,
300001
001000
100000
000001
100000
001000
000001
000100
,
001000
100000
001000
000100
000001
000000
100001
000000
,
000001
000100
100000
000001
100000
000100
000001
001000
,
000100
100000
001000
000100
000010
000000
000101
000000
,
000001
001000
100000
001000
000010
001000
010000
001000
,
000001
000100
001000
100000
000001
000000
100001
000000
,
000001
100000
001000
000100
000001
000000
000001
000000
,
010000
000000
001000
000000
000001
000000
001000
000000
200000
000000
000000
000000
000000
000000
000000
300000
,
100000
001000
100000
000001
200000
000000
000000
000000
,
300001
001000
000100
100000
000001
000000
001001
000000
,
000010
100000
001000
000100
000002
000000
000003
000000
,
000100
001000
100000
000001
010000
000000
011000
000000
,
010000
001000
100000
000010
000200
000000
000000
000000
,
000310
001000
000001
100000
000020
000000
001030
000000
,
000100
001000
000001
100000
000100
000000
000100
000000
,
010000
001000
100000
000001
000200
000000
000000
000000
,
000302
002003
203000
300200
000302
000000
000000
000000
,
000000
000000
000000
000000
,
000103
000010
000001
001000
,
100000
010000
000100
002200
,
003300
000000
000000
000000
;

//---------------dance-solo - ----------------
#NOTES:
     dance-solo:
     :
     Medium:
     5:
     0.230,0.231,0.000,0.187,0.000:
000000
000000
000000
000000
,
000000
000000
000000
000000
,
000000
000000
000000
000000
,
000000
000000
000000
000000
,
100000
000000
001000
000001
001000
000000
000000
000000
,
100000
000000
001000
010000
000100
000000
100000
000000
,
000001
000000
001000
100000
001000
000000
001000
000000
,
000001
000000
000100
010000
100000
000000
000000
000000
,
000002
000000
001003
100000
001000
000000
000000
000000
,
000002
000000
001003
000010
000100
000000
001000
000000
,
200000
000000
300100
000001
000100
000000
000000
000000
,
000002
000000
001003
100000
000010
000000
001000
000000
,
000002
000000
000103
100000
000100
000000
000000
000000
,
000002
000000
001003
000010
000100
000000
001000
000000
,
200000
000000
301000
000001
001000
000000
001000
000000
,
100000
000000
000010
100000
000001
000000
000000
000000
,
100000
001000
000010
000100
020000
000000
000000
000000
,
000000
000000
000000
000000
,
030100
100000
001000
010000
000100
000000
000000
000000
,
010000
001000
100000
000001
010000
000000
001000
000000
,
000100
001000
100000
000001
000100
000000
000000
000000
,
000010
001000
000001
100000
020000
000000
031000
000000
,
000100
001000
000001
100000
000100
000000
000000
000000
,
010000
001000
100000
000001
010000
000000
001000
000000
,
000100
001000
100000
000001
000100
000000
000100
000000
,
000010
001000
000001
100000
000200
000000
000000
000300
,
200000
000000
301000
000001
000100
000000
000000
000000
,
000200
000000
000301
001000
100000
000000
000100
000000
,
000002
000000
000103
100000
001000
000000
000000
000000
,
000002
000000
001003
100000
000010
000000
001000
000000
,
000002
000000
000103
010000
100000
000000
000000
000000
,
200000
000000
300100
000010
000001
000000
001000
000000
,
200000
300000
001000
000001
000100
000000
000100
000000
,
020000
000000
031000
100000
000010
000000
000000
000000
,
000010
010000
100000
001000
000200
000000
000000
000000
,
000000
000000
000000
000000
000000
000000
000000
000000
000000
000000
000000
000000
000000
000000
000000
000300
,
000100
100000
001000
000001
,
001000
100000
000100
000002
,
000003
000000
000000
000000
;

//---------------dance-solo - ----------------
#NOTES:
     dance-solo:
     :
     Easy:
     3:
     0.171,0.284,0.028,0.093,0.000:
000000
000000
000000
000000
,
000000
000000
000000
000000
,
000000
000000
000000
000000
,
000000
000000
000000
000000
,
100000
001000
000001
000000
,
000001
001000
100000
000010
,
100000
000100
000001
000001
,
000001
001000
100000
000000
,
000100
001000
000001
000000
,
000001
001000
100000
001000
,
000100
001000
000001
000000
,
000100
001000
010000
000001
,
000100
001000
100000
000000
,
000010
001000
000001
001000
,
000100
001000
000001
000001
,
010000
001000
100000
000000
,
100000
001000
000200
000000
,
000000
000000
000000
000000
,
000301
001000
100000
001000
,
000001
100000
000001
100001
,
000001
000100
100000
000100
,
000010
001000
000100
010010
,
000100
100000
001000
000001
,
001000
100000
000001
100001
,
100000
001000
000100
000100
,
000010
001000
000001
000000
,
000001
001000
100000
000000
,
100000
001000
000001
010000
,
000001
000100
100000
000000
,
000010
001000
100000
000001
,
100000
001000
000001
000000
,
000001
001000
100000
000001
,
100000
000100
000001
000001
,
000001
001000
100000
000000
,
000001
001000
000200
000000
,
000000
000000
000000
000000
000000
000000
000000
000000
000000
000000
000000
000000
000000
000000
000000
000300
,
000200
000000
000000
000300
000200
000000
000000
000300
000200
000000
000000
000300
000200
000000
000000
000300
,
000200
000000
000000
000300
000200
000000
000000
000300
000200
000000
000000
000300
000200
000000
000000
000300
;

//---------------dance-single - ----------------
#NOTES:
     dance-single:
     :
     Easy:
     3:
     0.194,0.284,0.047,0.234,0.000:
0000
0000
0000
0000
,
0000
0000
0000
0000
,
0000
0000
0000
0000
,
0000
0000
0000
0000
,
1000
0100
0001
0000
,
0001
0100
1000
0001
,
1000
0010
0001
0001
,
0001
0100
1000
0000
,
2000
0100
0002
3003
,
0002
0100
1003
1001
,
2000
0010
0002
3003
,
0002
0103
2000
3010
,
0002
0100
2000
3003
,
2000
0100
3001
1001
,
0002
0010
1000
1003
,
2000
0100
3001
0000
,
1000
0100
0020
0000
,
0000
0000
0000
0000
,
0031
0100
1000
0100
,
0001
0010
0001
1001
,
0001
0010
1000
0010
,
0001
0100
0001
1001
,
1000
0100
0010
0100
,
1000
0010
0100
0110
,
0100
0001
0010
0010
,
0100
1000
0010
0000
,
0010
0100
0020
0000
,
1030
0100
1000
1000
,
0010
0000
0100
0000
0020
0000
0000
0030
,
0010
0001
0100
1000
,
0001
0100
0002
0000
,
1003
0100
1000
1000
,
0010
1000
0010
0010
,
0001
0100
1000
0000
,
0001
1000
0020
0000
,
0000
0000
0000
0000
0000
0000
0000
0000
0000
0000
0000
0000
0000
0000
0000
0030
,
0020
0000
0000
0030
0020
0000
0000
0030
0020
0000
0000
0030
0020
0000
0000
0030
,
0020
0000
0000
0030
0020
0000
0000
0030
0020
0000
0000
0030
0020
0000
0000
0030
;

//---------------dance-solo - ----------------
#NOTES:
     dance-solo:
     :
     Beginner:
     1:
     0.057,0.088,0.000,0.019,0.000:
000000
000000
000000
000000
,
000000
000000
000000
000000
,
000000
000000
000000
000000
,
000000
000000
000000
000000
,
100000
000000
000000
000000
,
001000
000000
000000
000000
,
000001
000000
000000
000000
,
001000
000000
000000
000000
,
100000
000000
000000
000000
,
001000
000000
000000
000000
,
000001
000000
000000
000000
,
000100
000000
010000
000000
,
100000
000000
000000
000000
,
001000
000000
000000
000000
,
000001
000000
000000
000000
,
001000
000000
000000
000000
,
100000
100000
200000
000000
,
000000
000000
000000
000000
000000
000000
000000
300000
,
100000
000000
000100
000000
,
100000
000000
001000
000000
,
000001
000000
000100
000000
,
000001
000000
001000
000000
,
100000
000000
000100
000000
,
100000
000000
001000
000000
,
000100
000000
000000
000000
,
000010
000000
000000
000000
,
100000
000000
000000
000000
,
001000
000000
000000
000000
,
000001
000000
000000
000000
,
000100
000000
010000
000000
,
100000
000000
000000
000000
,
001000
000000
000000
000000
,
000001
000000
000000
000000
,
001000
000000
000000
000000
,
100000
000000
000200
000000
,
000000
000000
000000
000000
000000
000000
000000
000300
,
000M00
000M00
000M00
000M00
,
000M00
000M00
000M00
000M00
;
