#VERSION:0.83;
#TITLE:Neo Generator Seven;
#SUBTITLE:;
#ARTIST:L.E.D.-G;
#TITLETRANSLIT:;
#SUBTITLETRANSLIT:;
#ARTISTTRANSLIT:;
#GENRE:;
#ORIGIN:;
#CREDIT:;
#BANNER:[Round 2] - Neo Generator Seven.png;
#BACKGROUND:[Round 2] - Neo Generator Seven-bg.png;
#PREVIEWVID:;
#JACKET:[Round 2] - Neo Generator Seven-jacket.png;
#CDIMAGE:;
#DISCIMAGE:;
#LYRICSPATH:;
#CDTITLE:;
#MUSIC:[Round 2] - Neo Generator Seven.ogg;
#OFFSET:-0.020000;
#SAMPLESTART:34.299999;
#SAMPLELENGTH:10.600000;
#SELECTABLE:YES;
#BPMS:0.000=91.000,
16.000=182.000,
48.000=91.000,
52.000=182.000,
67.000=364.000,
72.000=182.000,
82.000=91.000,
84.000=182.000,
131.000=364.000,
134.000=182.000,
148.000=91.000,
180.000=182.000,
196.000=364.000,
202.000=182.000,
220.000=364.000,
223.000=182.000,
227.000=91.000,
232.000=182.000,
264.000=364.000,
268.000=182.000,
298.000=91.000;
#STOPS:71.000=0.041,
71.250=0.041,
71.500=0.041,
71.750=0.041,
115.500=0.330,
131.000=0.041,
131.250=0.041,
131.500=0.041,
131.750=0.041,
203.000=2.308,
222.000=0.041,
222.250=0.041,
222.500=0.041,
222.750=0.041;
#DELAYS:;
#WARPS:;
#TIMESIGNATURES:0.000=4=4;
#TICKCOUNTS:0.000=4;
#COMBOS:0.000=1;
#SPEEDS:0.000=1.000=0.000=0;
#SCROLLS:0.000=1.000;
#FAKES:;
#LABELS:0.000=Song Start;
#LASTSECONDHINT:119.000000;
#BGCHANGES:;
#KEYSOUNDS:;
#ATTACKS:
;

//---------------dance-single - ----------------
#NOTEDATA:;
#CHARTNAME:;
#STEPSTYPE:dance-single;
#DESCRIPTION:;
#CHARTSTYLE:;
#DIFFICULTY:Beginner;
#METER:3;
#RADARVALUES:0.160894,0.248439,0.057969,0.082813,0.000000,136.000000,129.000000,7.000000,10.000000,42.000000,0.000000,0.000000,0.000000,0.000000,0.160894,0.248439,0.057969,0.082813,0.000000,136.000000,129.000000,7.000000,10.000000,42.000000,0.000000,0.000000,0.000000,0.000000;
#CREDIT:;
#NOTES:
// measure 0
0000
0000
0000
0000
,  // measure 1
0000
0000
0000
0000
,  // measure 2
0000
0000
0000
0000
,  // measure 3
0000
0000
0000
0000
,  // measure 4
10MM
0000
1000
0000
,  // measure 5
0100
0000
0100
0000
,  // measure 6
0010
0000
0010
0000
,  // measure 7
0001
0000
0001
0000
,  // measure 8
0100
0000
0100
0000
,  // measure 9
0001
0000
0001
0000
,  // measure 10
1000
0000
1000
0000
,  // measure 11
0010
0000
0010
0000
,  // measure 12
M11M
0000
0000
0000
,  // measure 13
10MM
0000
0100
0000
,  // measure 14
1000
0000
0010
0000
,  // measure 15
0100
0000
0001
0000
,  // measure 16
0001
0000
0010
MM10
,  // measure 17
0000
0000
0000
0M0M
,  // measure 18
0010
0000
0100
0000
,  // measure 19
0100
0000
1000
0000
,  // measure 20
0001
0000
1MM1
0000
,  // measure 21
M01M
0000
0100
0000
,  // measure 22
0001
0000
0010
0000
,  // measure 23
0010
0000
0100
0000
,  // measure 24
1000
0000
0010
0000
,  // measure 25
1000
0000
0100
0000
,  // measure 26
0001
0000
0100
0000
,  // measure 27
1000
0000
0001
0000
,  // measure 28
0010
0000
0000
0000
0110
0000
0000
M00M
,  // measure 29
0000
0100
0000
0100
,  // measure 30
0000
0010
0000
0001
,  // measure 31
0000
0100
0000
0100
,  // measure 32
0000
0010
0000
1000
,  // measure 33
00MM
0000
00MM
0000
,  // measure 34
0100
0000
0010
0010
,  // measure 35
0010
0000
0001
0000
,  // measure 36
0100
0000
0010
0000
,  // measure 37
10MM
0000
0000
0000
,  // measure 38
0000
0000
0000
0000
,  // measure 39
0001
0000
1000
0000
,  // measure 40
0100
0000
0010
0000
,  // measure 41
0001
0001
0001
0000
,  // measure 42
0010
0010
0010
0000
,  // measure 43
0100
0100
0100
0000
,  // measure 44
1000
1000
1000
0000
,  // measure 45
02MM
0000
0000
0000
,  // measure 46
2300
0000
0000
0000
,  // measure 47
3020
0000
0000
0000
,  // measure 48
0032
0000
0000
0000
,  // measure 49
1MM3
0000
0000
0000
,  // measure 50
0000
0000
0000
M00M
,  // measure 51
0010
0000
0100
0000
,  // measure 52
1000
0000
0001
0000
,  // measure 53
0100
0000
0010
0000
,  // measure 54
1000
0000
0001
0000
,  // measure 55
M10M
0000
M00M
0000
,  // measure 56
0000
0100
0000
M11M
,  // measure 57
0010
0010
0010
0010
,  // measure 58
M01M
0000
0100
0000
,  // measure 59
0001
0000
1001
0000
,  // measure 60
0010
0000
0100
0000
,  // measure 61
1000
0000
1001
0000
,  // measure 62
2000
0000
0000
0000
,  // measure 63
3200
0000
0000
0000
,  // measure 64
0320
0000
0000
0000
,  // measure 65
0032
0000
0000
0000
,  // measure 66
1MM3
0000
0000
0000
,  // measure 67
M00M
0000
0100
0000
,  // measure 68
0010
0000
0001
0000
,  // measure 69
0001
0000
1000
1000
,  // measure 70
0000
0010
0010
0000
,  // measure 71
0100
0000
0001
0000
,  // measure 72
0010
0000
1000
0000
,  // measure 73
1000
0000
0010
0000
,  // measure 74
0001
0000
2MM2
0000
,  // measure 75
3003
0000
0000
0000
;

//---------------dance-single - ----------------
#NOTEDATA:;
#CHARTNAME:;
#STEPSTYPE:dance-single;
#DESCRIPTION:;
#CHARTSTYLE:;
#DIFFICULTY:Medium;
#METER:8;
#RADARVALUES:0.500427,0.527933,0.207032,0.157345,0.066250,423.000000,398.000000,25.000000,19.000000,42.000000,0.000000,0.000000,0.000000,0.000000,0.500427,0.527933,0.207032,0.157345,0.066250,423.000000,398.000000,25.000000,19.000000,42.000000,0.000000,0.000000,0.000000,0.000000;
#CREDIT:;
#NOTES:
0000
0000
0000
0000
,
0000
0000
0000
0000
,
0000
0000
0000
0000
,
0000
0000
0000
0000
,
10MM
1000
0100
0100
,
0010
0010
0001
0001
,
0100
0001
0010
0100
,
1000
0000
0010
0000
0100
0020
0000
0000
,
1030
0100
1000
0000
0001
0100
0001
0000
,
1000
0010
1000
0000
0001
0010
0001
0000
,
0010
0100
1000
1000
0010
0100
0001
0001
,
0010
0100
1000
0100
0001
0100
0010
0000
,
1MM1
0000
0000
0000
,
1MM0
0100
1000
0000
0001
0100
0001
0000
,
0010
0001
0010
0000
0100
1000
0100
0100
,
0100
0010
0001
0000
1000
0010
1000
0000
,
1000
0100
0010
0001
0100
0000
M22M
0000
,
0000
0000
0330
1MM1
,
1000
0100
0010
0001
0000
0001
0100
0000
,
0001
1000
0001
0000
1000
0010
0001
0010
,
1000
0010
0001
0010
1M0M
0000
0000
1001
,
MM10
0100
1000
0100
0001
0100
0010
0000
,
0001
0100
1000
0100
0010
0000
0110
0000
,
0010
0100
0001
1000
0100
1000
0001
0000
,
1000
0100
0001
0100
0010
0000
1001
0000
,
1000
0010
0100
0001
0100
0010
1000
0000
,
0010
1000
0100
1000
0010
0000
0100
0100
,
0100
0001
0010
0000
0100
1000
0010
0000
,
0100
0001
1000
0100
0010
0001
1000
0M2M
,
0130
0100
0100
0000
1001
0000
0100
1000
,
0001
0100
0010
0000
1010
0000
1000
0100
,
0001
0100
1000
0001
0100
0000
1000
0100
,
0001
1000
0010
0000
0110
0000
0001
0000
,
2MM0
0000
0000
0000
31MM
0010
0100
0010
,
0000
0001
1000
0001
1000
0000
1100
0000
,
0010
0001
0100
0100
0010
1000
0100
0100
,
1000
0020
0031
0020
1030
0100
0010
0000
,
M22M
0000
0000
0000
,
0330
0000
0000
0000
,
0010
0100
1000
0100
0001
0100
1000
0010
,
0100
0001
1000
0100
0010
0001
1000
0000
,
1100
0000
0000
0000
0010
0000
0001
0001
0000
0001
0000
0000
1000
0000
0000
0000
,
0101
0000
0000
0000
0010
0000
1000
1000
0000
1000
0000
0000
0001
0000
0000
0000
,
0110
0000
0000
0000
1000
0000
0100
0100
0000
0010
0000
0000
0001
0000
0000
0000
,
1001
0000
0000
0000
0010
0000
1000
1000
0000
0001
0000
0001
0000
0100
0000
0100
,
M01M
0100
0001
0100
0010
0100
0001
0000
,
0010
0100
1000
0100
0010
0100
1000
0000
,
0100
1000
0010
0100
0001
0100
0010
1000
,
0100
0010
0001
0010
0100
1000
0001
0000
,
2MM2
0000
0000
0000
,
0000
0000
0000
3MM3
,
0010
0000
0100
1000
0001
0000
0001
0100
,
1000
0000
1000
0100
0001
0000
1002
0000
,
0013
0000
0010
0001
1000
0000
1000
0010
,
0001
0000
0001
0010
1000
0000
1001
0000
,
0MM2
0000
0000
0000
1MM3
0000
1000
0100
,
1000
0000
0100
0000
0000
0000
0010
0000
0001
0000
0010
0000
MM01
0000
0000
0001
,
1000
0000
0000
1000
0010
0000
0000
0010
0100
0000
0000
0100
0001
0000
0000
0001
,
1MM0
0000
1000
0010
0100
0000
0100
0001
,
1000
0000
1000
0100
1000
0000
0101
0000
,
0001
0000
0001
0010
0100
0000
0100
1000
,
0001
0000
0001
0100
0001
0010
0100
0010
,
0200
1000
1000
1000
,
0320
0001
0001
0031
,
0010
0001
0100
0001
0010
0100
1000
0010
,
1000
0100
0010
0100
0010
0000
1001
0000
,
M11M
0000
0000
0000
,
M10M
0000
0001
0000
0100
0010
1000
0000
,
0100
1000
0010
0100
0001
0010
0001
0010
,
0001
0010
0100
0000
1000
0100
0000
0100
,
1000
0010
0200
0000
0301
0100
0010
1000
,
0001
0200
0000
0300
0001
1000
0100
1000
,
0001
0010
0100
0000
1000
0010
1000
0010
,
1000
0010
0100
0000
0110
0000
0000
1010
,
0000
0101
2MM2
0000
,
3003
0000
0000
0000
;

//---------------dance-single - ----------------
#NOTEDATA:;
#CHARTNAME:;
#STEPSTYPE:dance-single;
#DESCRIPTION:;
#CHARTSTYLE:;
#DIFFICULTY:Easy;
#METER:5;
#RADARVALUES:0.318238,0.403713,0.240158,0.115938,0.000000,269.000000,240.000000,29.000000,14.000000,42.000000,0.000000,0.000000,0.000000,0.000000,0.318238,0.403713,0.240158,0.115938,0.000000,269.000000,240.000000,29.000000,14.000000,42.000000,0.000000,0.000000,0.000000,0.000000;
#CREDIT:;
#NOTES:
0000
0000
0000
0000
,
0000
0000
0000
0000
,
0000
0000
0000
0000
,
0000
0000
0000
0000
,
MM01
0001
0100
0100
,
0010
0010
1000
1000
,
0100
0100
1000
1000
,
0010
0010
0100
0000
,
0001
1000
0001
1000
,
0010
0100
0010
0100
,
0001
0010
0100
1000
,
0010
1000
0100
0010
,
MM01
0000
0000
0000
,
10MM
0100
0001
0100
,
1000
0001
0001
1000
,
0001
0010
1000
0010
,
0001
1000
1000
0MM2
,
0000
0000
0000
1MM3
,
1000
0100
0000
0100
,
1000
0001
0101
0011
,
1100
0000
1010
0000
M02M
0000
0000
0130
,
M01M
1000
0100
1000
,
0001
0100
0010
1001
,
0010
0001
0100
0001
,
1000
0100
0010
0110
,
0001
0100
0001
0010
,
0100
1000
0010
1000
,
0100
1000
0100
0001
,
1000
0000
0010
0000
0001
0000
1001
0MM0
,
1001
0100
0001
1000
,
0100
0010
0110
0010
,
0100
1000
0001
0100
,
0010
1001
1000
0001
,
2MM2
0000
3MM3
1000
,
0000
0001
0001
0100
,
0010
0010
0100
0100
,
0001
0010
0100
1000
,
2MM2
0000
0000
0000
,
3003
0000
0000
0000
,
0010
0100
0001
1000
,
0100
1000
0010
0100
,
1001
0000
0000
0100
0000
0100
0000
0000
,
0110
0000
0000
0001
0000
0001
0000
0000
,
1001
0000
0000
0010
0000
0010
0000
0000
,
0110
0000
0000
1000
0000
1000
0001
0000
,
M1M0
0001
0100
0001
,
1000
0100
1000
0100
,
0010
0001
0010
0001
,
1000
0010
1000
0010
,
M11M
0000
0000
0000
,
0000
0000
0000
M00M
,
1000
1000
0100
0100
,
1000
0001
0100
0001
,
0010
0010
0100
0100
,
0001
0100
0010
0001
,
2MM2
0000
3MM3
0100
,
0010
0100
0001
MM10
,
0011
1100
1010
0101
,
0MM1
0001
0100
0100
,
0001
1000
0100
1000
,
0010
0010
0100
0100
,
1000
0100
0010
1000
,
1002
0000
0203
0000
,
0320
0000
2030
0000
,
3100
0001
1000
0010
,
0001
1000
0010
0100
,
M11M
0000
0000
0000
,
M11M
0000
0001
0001
,
0001
0000
1000
1000
,
1000
0000
0010
0100
,
0010
1001
0100
0001
,
0010
0000
0100
1000
,
0010
1000
0001
0001
,
1000
1000
1010
0000
,
0101
0000
2MM2
0000
,
3003
0000
0000
0000
;

//---------------dance-single - ----------------
#NOTEDATA:;
#CHARTNAME:;
#STEPSTYPE:dance-single;
#DESCRIPTION:;
#CHARTSTYLE:;
#DIFFICULTY:Hard;
#METER:10;
#RADARVALUES:0.666053,0.807427,0.198751,0.273283,0.492737,563.000000,539.000000,24.000000,33.000000,42.000000,0.000000,0.000000,0.000000,0.000000,0.666053,0.807427,0.198751,0.273283,0.492737,563.000000,539.000000,24.000000,33.000000,42.000000,0.000000,0.000000,0.000000,0.000000;
#CREDIT:;
#NOTES:
0000
0000
0000
0000
,
0000
0000
0000
0000
,
0000
0000
0000
0000
,
0000
0000
0000
0000
,
10MM
0100
1000
0100
0001
0100
0001
0100
,
1000
0000
0010
0000
1000
0000
0001
1000
0010
0000
0000
0000
0110
0000
0000
0000
,
0001
0100
0001
0100
1000
0100
1000
0100
,
0001
0000
0010
0000
0100
0000
1000
0001
2000
0000
0020
0000
0000
0000
3030
0000
,
1000
0100
0100
1000
0001
0100
0100
0001
,
0010
0001
0001
0010
0100
1000
1000
0100
,
1000
0010
0001
0010
1000
0100
0001
0100
,
1000
0000
0010
0100
0001
0000
0010
0100
1000
0000
0100
0010
0001
0000
0100
0010
,
1M0M
0000
0000
0000
,
MM01
0000
0010
0000
0100
0010
0100
0010
0001
0000
2000
0000
0000
0000
3100
0000
,
1000
0000
0010
0000
0000
0000
0010
1000
0001
0000
0020
0000
0130
0000
0000
0000
,
1000
0020
0031
0020
1030
0020
0130
0001
,
0010
0000
0010
0001
0010
0000
0100
1000
0001
0000
0100
0000
2MM2
0000
0000
0000
,
0000
0000
0000
0000
0000
0000
0000
0000
3003
0000
0000
0000
0MM1
1000
0001
1000
,
0001
1000
0100
0010
0000
0001
1000
0000
,
0010
0000
1000
0010
0100
0000
0000
0000
0001
0000
0010
0000
0010
0000
0100
0000
,
0100
0000
1000
0000
1000
0000
0000
0000
1MM0
0001
1000
0010
0100
0010
0110
0000
,
M01M
0100
0001
0100
1000
0100
0010
0100
,
0001
0000
1000
0000
0100
1000
0100
1000
0010
0000
0000
0100
0000
0000
0001
0000
,
0010
0100
1000
0100
0001
0100
0010
0100
,
1000
0000
0001
1000
0100
1000
0100
1000
0010
0000
0000
1000
0000
0000
0001
0000
,
0100
0100
0100
0000
0001
0100
0010
0000
,
0100
0000
0001
0000
1000
0100
1000
0100
0010
0000
0000
0100
0000
0000
1000
0000
,
0001
0100
1000
0100
0001
0010
1000
0010
,
0001
0000
0001
0000
1000
0000
1000
0000
0100
0000
1000
0100
1000
0000
0MM2
0000
,
0103
0100
0100
0000
0010
0000
0100
0001
,
1000
0001
1000
0001
0010
0000
0000
0100
0000
0000
1000
0000
0010
0000
0100
0000
,
0001
0000
0100
0000
1000
0000
0100
0000
0010
0000
0100
0000
0001
0000
1000
0001
,
0100
0001
0100
0001
0010
0000
0100
0000
1000
0000
0000
0000
0001
1000
0001
1000
,
0M2M
0000
0000
0000
M13M
0100
0100
0100
,
0000
0000
0001
0000
0001
0000
0001
0000
0011
0000
0000
1010
0000
0000
1100
0000
,
0100
1000
0001
0100
0010
1000
0001
0010
,
0001
0000
0010
0100
1000
0000
0010
0100
0001
1000
0001
0010
0100
0010
0001
0000
,
2MM0
0000
0000
0000
,
3000
0000
0000
0000
,
0010
0100
0001
1000
0010
0100
0001
0010
,
0100
1000
0001
1000
0010
0100
0001
0000
,
1000
0000
0000
0100
0000
0000
0100
0000
0010
0000
0000
0000
0011
0000
0011
0000
0000
0000
0011
0000
0000
0000
0001
0000
0100
0000
0000
0000
0000
0000
0000
0000
,
0001
0000
0000
0100
0000
0000
0100
0000
0010
0000
0000
0000
1010
0000
1010
0000
0000
0000
1010
0000
0000
0000
1000
0000
0100
0000
0000
0000
0000
0000
0000
0000
,
0010
0000
0000
0001
0000
0000
1000
0000
0100
0000
0000
0000
1100
0000
0110
0000
0000
0000
0011
0000
0000
0000
0001
0000
0100
0000
0000
0000
0000
0000
0000
0000
,
0010
0000
0000
0100
0000
0000
0001
0000
0010
0000
0000
0000
0100
0000
1000
0000
0000
0000
1000
0000
0000
0000
0001
0000
0100
0000
0001
0000
0000
0000
1000
0000
,
01MM
1000
0100
1000
0001
0100
0001
0100
,
0010
0000
1000
0000
0010
0000
1000
0000
0001
0000
0010
0001
1000
0000
0010
1000
,
0001
0001
0010
0010
0100
0100
1000
1000
,
0001
0100
0001
0100
0010
1000
0010
1000
0100
0010
0100
0010
0001
1000
0001
1000
,
0M2M
0000
0000
0000
,
0000
0000
0000
M03M
,
0001
0000
0000
0001
0100
0000
0010
0000
1000
0000
0000
1000
0100
0000
0010
0000
,
0001
0000
0000
0001
1000
0000
0100
0000
1000
0000
0001
0000
1000
0000
0010
0000
,
0100
0000
0100
0000
0100
0000
0000
0000
0001
0000
0000
0001
0100
0000
0010
0000
,
1000
0000
0000
1000
0001
0000
0010
0000
0100
0000
0100
0000
1000
0000
0001
0000
,
M20M
0000
0000
0000
0000
0000
0000
0000
M31M
0100
0010
0100
0010
0000
1000
0000
,
0100
0000
0000
0000
0010
0000
0000
0000
0000
0000
0000
0000
0100
0000
0000
0000
0010
0000
0000
0000
0001
0000
0000
0000
M1M0
0000
0000
0001
0000
0000
0001
0000
,
0100
0000
0000
0010
0000
0000
0010
0000
1000
0000
0000
0100
0000
0000
0100
0000
0010
0000
0000
0001
0000
0000
0010
0000
0100
0000
0000
1000
0000
0000
0010
0000
,
1M0M
0000
0000
1000
0010
0000
0100
0000
0001
0000
0000
0001
0010
0000
0100
0000
,
0010
0000
0000
0010
0001
0000
1000
0000
1100
0000
0000
1001
0000
0000
0101
0000
,
0010
0000
0000
0010
1000
0000
0001
0000
0100
0000
0000
0100
0001
0000
1000
0000
,
0001
0000
0000
0001
0010
0000
0100
0000
1000
0001
0000
1000
0001
0000
0100
0000
,
0002
0100
2003
0010
,
3200
1000
0320
0001
,
0130
0000
0000
0101
0000
0000
0001
0000
0011
0000
0000
0010
0000
0000
0110
0000
,
0100
1000
0100
1000
0001
1000
0001
1000
0010
0100
0010
0100
0001
0100
0001
0100
,
M02M
0000
0000
0000
,
M13M
0000
0001
0000
0100
0000
0000
0000
0100
0000
0010
0000
0100
0000
0001
1000
,
0010
0010
0100
0000
0001
0020
1030
0020
,
0031
0000
0020
0000
0130
0000
0000
0000
1000
0000
0010
1000
0010
0000
0010
0000
,
0100
0000
0001
0000
0220
0000
0330
0000
0100
0000
1000
0001
1000
0001
1000
0001
,
0010
0022
0000
0033
0001
0100
0000
0100
,
0020
1030
0000
2000
3100
0020
1030
0020
,
0031
0000
0020
0000
0130
0000
1000
0000
0010
1000
0000
1000
0100
0000
0010
0001
,
0000
0001
0100
0000
0010
0000
0000
0000
2MM2
0000
0000
0000
0000
0000
0000
0000
,
3003
0000
0000
0000
;
