#TITLE:M1DY is Sexy;
#SUBTITLE:;
#ARTIST:M1dy;
#TITLETRANSLIT:;
#SUBTITLETRANSLIT:;
#ARTISTTRANSLIT:;
#GENRE:;
#CREDIT:;
#BANNER:banner.png;
#BACKGROUND:BACKGROUND.png;
#LYRICSPATH:;
#CDTITLE:;
#MUSIC:[Speedcore _ J-Core] m1dy - m1dy is Sexy.ogg;
#OFFSET:-0.075000;
#SAMPLESTART:99.925003;
#SAMPLELENGTH:12.000000;
#SELECTABLE:YES;
#BPMS:0.000000=200.000000
;
#STOPS:
;
#BGCHANGES:;
#KEYSOUNDS:;
#ATTACKS:;

//---------------dance-single - JunkoXXX 7-----------------
#NOTES:
     dance-single:
     :
     Medium:
     7:
     0.456779,0.684042,0.372048,0.037744,0.002696,593.000000,524.000000,69.000000,7.000000,0.000000,0.000000,0.456779,0.684042,0.372048,0.037744,0.002696,593.000000,524.000000,69.000000,7.000000,0.000000,0.000000:
// measure 0
0000
0000
0000
0000
,  // measure 1
0000
0000
0000
0000
,  // measure 2
0000
0000
0000
0000
,  // measure 3
1000
0001
1000
0001
,  // measure 4
1000
0001
1000
0001
,  // measure 5
0010
0100
0010
0100
,  // measure 6
0010
0000
0100
0000
0010
0000
0100
0200
,  // measure 7
0000
0000
0000
0000
,  // measure 8
0300
0000
0000
0000
,  // measure 9
0000
0000
0000
0000
0000
0000
0000
0001
,  // measure 10
1000
0000
0000
0000
,  // measure 11
1000
0000
0000
0001
0000
0000
0000
0000
,  // measure 12
1001
0000
0000
0000
0000
0110
0000
0110
,  // measure 13
0000
0000
0000
0000
,  // measure 14
1001
0000
0000
0000
0000
0110
0000
1001
,  // measure 15
0000
0000
0000
0000
,  // measure 16
0101
0000
0000
0000
0000
1010
0000
1010
,  // measure 17
0000
0000
0000
0000
,  // measure 18
1001
0000
0000
0000
0000
0101
0000
0101
,  // measure 19
0000
0000
0000
0000
0001
0100
0000
0000
,  // measure 20
0010
0010
0010
0010
,  // measure 21
0010
0010
0010
0010
,  // measure 22
0100
0100
0100
0100
,  // measure 23
0100
0100
0100
0100
,  // measure 24
0001
0100
0001
0100
0001
0100
0001
0100
,  // measure 25
0001
1000
0001
1000
0001
1000
0001
1000
,  // measure 26
0002
2000
0000
0000
0000
0000
0000
0000
0000
0000
0000
0000
0000
0000
3003
0000
,  // measure 27
0000
0000
0000
1000
,  // measure 28
0000
0000
0001
0100
0001
0000
0000
0100
,  // measure 29
0000
0010
0000
0000
0000
0000
0000
0000
,  // measure 30
0000
0000
0001
1000
0001
0000
0000
0100
,  // measure 31
0000
0000
0000
0000
,  // measure 32
1000
0000
0001
0100
0001
0000
0000
0010
,  // measure 33
1000
0000
0000
0000
,  // measure 34
1000
0000
0001
0000
0000
1000
0001
1000
,  // measure 35
0000
0001
0010
0001
0010
0020
0000
0030
,  // measure 36
1000
0000
1000
0001
1000
0000
0010
0000
,  // measure 37
0100
0000
0000
0000
,  // measure 38
0000
0000
0100
0001
0010
0000
1000
0000
,  // measure 39
0001
0000
0000
0000
,  // measure 40
0000
0000
1000
0100
1000
0000
0001
0000
,  // measure 41
0100
0000
0000
0000
,  // measure 42
0010
0000
1000
0000
0001
0100
0010
0000
,  // measure 43
1000
0001
0100
0010
2000
0000
0000
0000
,  // measure 44
3001
0010
0100
1000
0100
0010
0001
0010
,  // measure 45
0100
1000
0010
0000
0000
0000
0100
0010
,  // measure 46
1000
0000
0000
0000
0000
0000
0000
1000
,  // measure 47
0010
0100
0010
0100
1000
0001
0100
0020
,  // measure 48
1030
0000
1001
0000
,  // measure 49
1001
0000
1001
0000
,  // measure 50
1001
0000
1001
0000
,  // measure 51
1001
0000
1001
0000
,  // measure 52
0011
0000
0000
0000
0000
1100
0000
1100
,  // measure 53
0000
0000
0000
0000
,  // measure 54
1100
0000
0000
0000
0000
0011
0000
0011
,  // measure 55
0000
0000
0000
0000
,  // measure 56
1001
0000
0000
0000
0000
0110
0000
0110
,  // measure 57
0000
0000
0000
0000
,  // measure 58
0110
0000
0000
0000
0000
1001
0000
1001
,  // measure 59
0000
0000
0000
0000
,  // measure 60
0101
0000
0000
0000
0000
1010
0000
1010
,  // measure 61
0000
0000
0000
0000
,  // measure 62
1100
0000
0000
0000
0000
0011
0000
0011
,  // measure 63
0000
0000
0000
0000
0000
0001
1000
0000
,  // measure 64
0110
0000
0000
0000
0000
0110
0000
1001
,  // measure 65
0000
0000
0000
0000
,  // measure 66
0011
0000
0000
0000
0000
1100
0000
0011
,  // measure 67
0000
0000
0000
0000
,  // measure 68
1000
0000
0010
0100
0010
0000
0000
0001
,  // measure 69
0100
0000
0000
0000
,  // measure 70
0000
0000
0001
1000
0001
0000
0000
0110
,  // measure 71
0000
0000
0000
0000
,  // measure 72
1000
0000
0010
0001
0010
0000
1000
0000
,  // measure 73
0010
0000
0000
0000
,  // measure 74
1000
0000
0001
0000
0100
0010
0100
0000
,  // measure 75
1000
0001
1000
0001
1000
0000
0000
0000
,  // measure 76
0010
0000
1000
0001
1000
0000
0001
0010
,  // measure 77
0001
0000
0000
0000
,  // measure 78
0000
0000
1000
0010
1000
0000
0011
0000
,  // measure 79
0011
0000
0000
0000
,  // measure 80
1000
0000
0001
0010
0001
0000
1000
0010
,  // measure 81
1000
0000
0000
0000
,  // measure 82
1001
0000
1001
0000
1000
0010
0100
0000
,  // measure 83
1000
0100
0010
0001
0100
0000
0000
0000
,  // measure 84
1000
0100
0010
0001
,  // measure 85
0100
0010
1000
0010
,  // measure 86
0100
0001
0010
0001
,  // measure 87
0010
1000
0100
1000
,  // measure 88
0001
0010
0001
1000
,  // measure 89
0100
1000
0010
0100
,  // measure 90
0010
0001
0010
0001
,  // measure 91
0100
0001
0100
1000
,  // measure 92
0010
0000
0000
0000
0000
0000
0000
1010
,  // measure 93
0000
0000
0000
0000
0000
0000
0000
1010
,  // measure 94
0000
0000
0000
0000
0000
0000
0000
1010
,  // measure 95
0000
0000
0000
0000
0000
0000
0000
1010
,  // measure 96
0000
0000
0000
0000
0000
0000
0000
1010
,  // measure 97
0000
0000
0000
0000
0000
0000
0000
1001
,  // measure 98
0000
0000
0000
0000
0000
0000
0000
1001
,  // measure 99
0000
0000
0000
0000
,  // measure 100
1001
0000
0000
0000
0000
0110
0000
1001
,  // measure 101
0000
0000
0000
0000
,  // measure 102
0110
0000
0000
0000
0000
1001
0000
0110
,  // measure 103
0000
0000
0000
0000
,  // measure 104
0011
0000
0000
0000
0000
1100
0000
0011
,  // measure 105
0000
0000
0000
0000
,  // measure 106
1010
0000
0000
0000
0000
0101
0000
1010
,  // measure 107
0000
0000
0000
0000
0010
1000
0000
0000
,  // measure 108
1000
0100
1000
0001
0010
0001
1000
0100
,  // measure 109
0010
0001
0100
0001
1000
0010
1000
0100
,  // measure 110
0010
0001
0100
0001
0100
0001
0100
0010
,  // measure 111
1000
0010
1000
0100
0010
0001
0010
0001
,  // measure 112
0010
0001
1000
0100
1000
0100
1000
0100
,  // measure 113
0010
0001
0100
0001
1000
0010
1000
0001
,  // measure 114
0010
0001
1000
0100
1000
0010
0100
0001
,  // measure 115
0010
0000
0000
0000
,  // measure 116
0000
0000
0000
0000
,  // measure 117
0000
0000
0000
0010
0100
0001
0000
0000
,  // measure 118
1000
0100
0010
0001
0100
0001
1000
0010
,  // measure 119
1000
0010
0100
0001
0010
0001
1000
0100
,  // measure 120
1000
0010
0100
0010
0001
0100
0001
1000
,  // measure 121
0010
1000
0100
0010
0001
0000
1000
0010
,  // measure 122
1000
0010
1000
0100
0010
0001
0010
0001
,  // measure 123
0010
0001
0010
0100
0010
0100
0010
0100
,  // measure 124
0010
1000
0100
1000
0100
1000
0100
1000
,  // measure 125
0100
1000
0100
0010
0001
0010
0100
1000
,  // measure 126
0010
0000
0001
0100
0001
0000
1000
0000
,  // measure 127
0001
0000
0000
0000
,  // measure 128
1000
0000
0001
0100
0001
0000
0000
1000
,  // measure 129
0001
0000
0000
0000
,  // measure 130
1000
0000
0010
0100
0010
0000
0001
0010
,  // measure 131
0001
0000
0000
0000
,  // measure 132
1000
0001
0100
0000
0010
0001
0100
0000
,  // measure 133
1010
0000
0000
0000
,  // measure 134
1000
0000
0100
0010
0100
0000
0001
0100
,  // measure 135
0001
0000
0000
0000
,  // measure 136
1000
0000
0010
0100
0010
0000
1000
0100
,  // measure 137
1000
0000
0000
0000
,  // measure 138
1001
0000
0010
0100
0010
0000
0001
1000
,  // measure 139
0001
0000
0000
0000
,  // measure 140
1000
0001
1000
0000
0010
0100
0001
0000
,  // measure 141
1000
0001
1000
0001
1000
0000
0010
0000
,  // measure 142
0100
0010
0100
0010
0100
0010
0100
0010
,  // measure 143
0100
0010
0100
0010
0100
0010
0100
0010
,  // measure 144
0100
1000
0100
1000
0100
1000
0100
0010
,  // measure 145
0100
0001
1000
0010
1000
0100
0001
0000
,  // measure 146
1000
0100
0001
0100
1000
0100
0001
0100
,  // measure 147
1000
0100
0001
0100
1000
0100
0001
0100
,  // measure 148
1000
0100
0010
0001
0100
0010
0100
2000
,  // measure 149
0000
3000
0000
0000
;

//---------------dance-single - JunkoXXX 12----------------
#NOTES:
     dance-single:
     JunkoXXX 12:
     Challenge:
     12:
     0.959776,1.328959,0.296560,0.021568,0.517632,1246.000000,1191.000000,55.000000,4.000000,0.000000,0.000000,0.959776,1.328959,0.296560,0.021568,0.517632,1246.000000,1191.000000,55.000000,4.000000,0.000000,0.000000:
0000
0000
0000
0000
,
0000
0000
0000
0000
,
1000
0001
0100
0010
1000
0100
0010
0001
,
0100
0000
0001
0000
0100
0000
0010
0000
1000
0000
0010
0000
1000
0000
0010
1000
,
0010
0100
0001
0010
0100
1000
0010
1000
0001
0100
0001
0010
0100
1000
0010
0100
,
0001
0100
0001
1000
0010
1000
0010
0100
0001
0010
0100
1000
0010
1000
0010
0100
,
0001
0100
0001
0010
0100
1000
0010
1000
0010
0100
0001
0010
0001
0010
0100
0000
,
0000
0000
0000
0000
,
0000
0000
0000
0000
,
0000
0000
0000
0000
0000
0000
0000
0100
,
0010
0000
0000
0000
,
1000
0000
0000
0001
0000
0000
0000
0000
,
1001
0000
1000
0010
0100
0001
0000
1000
,
0001
0100
0010
1000
,
0100
0000
0010
0001
0100
0010
1000
0000
,
0001
0100
0001
1000
0010
1000
0010
0100
0001
0010
0100
1000
0010
0000
0100
0000
,
0000
0000
1000
0100
0001
0100
1000
0010
,
0100
0001
0100
0000
0010
0000
1000
0000
,
0010
1000
0010
1000
0010
0100
0001
0000
,
1000
0010
0100
0001
,
1001
0110
1001
0110
,
1001
0110
1001
0110
,
1010
0101
1010
0101
,
1010
0101
1010
0101
,
1000
0010
0100
0001
0100
0010
1000
0100
,
0010
0001
1000
0001
0100
0010
0100
0010
,
0100
0001
0100
0010
1000
0010
1000
0100
0010
0001
0100
0001
1000
0010
1000
0010
,
1000
0000
0000
0000
0000
0000
0000
0000
0000
0000
0000
0000
0000
0000
0000
0000
0000
0000
0000
0000
0000
0000
0000
0000
0000
0000
0000
0000
0000
0000
0000
0000
0000
0000
0000
0000
1000
0000
0000
0001
0000
0000
1000
0000
0001
0000
1000
0000
,
0001
0100
0001
0010
0100
1000
0010
0100
,
0001
0000
1000
0000
0001
0000
0100
0000
0010
0100
0001
0100
0001
0000
0010
0000
,
0100
1000
0001
0010
0001
0100
0010
0100
,
0001
1000
0010
1000
0001
0100
0010
0100
,
0010
0100
0010
1000
0010
1000
0001
1000
,
0010
1000
0010
1000
0001
0100
0010
0100
,
0001
0100
0010
1000
0001
0001
1000
0010
,
1000
0000
0000
0000
0000
0000
0001
0000
0000
0000
0000
0000
1000
0000
0000
0000
0000
0000
0010
0000
0000
0000
0000
0000
0100
0000
0001
0000
0100
0000
0001
0000
0100
0000
0001
0000
0100
0000
0000
0010
0000
0000
1000
0000
0000
0001
0000
0000
,
0100
0010
1000
0001
1000
0100
1000
0100
,
1000
0100
1000
0010
1000
0001
0010
0100
,
1000
0001
0100
0010
0100
0001
1000
0001
,
0010
0000
1000
0000
0010
0000
0100
0000
0001
0100
0001
0000
0010
0000
0001
0000
,
0010
0001
0010
0100
1000
0010
0100
0001
,
0100
0000
1000
0000
0100
0000
0001
0000
0100
0010
1000
0010
1000
0000
0001
0000
,
0010
0100
1000
0010
0100
0001
1000
0010
,
0100
0000
0010
0000
1000
0010
1000
0000
0100
0000
2000
0000
0000
0000
3000
0000
,
1000
0010
0100
0010
0100
0010
1000
0010
,
0100
0000
0001
0000
1000
0100
0010
0001
0100
0001
1000
0010
1000
0001
0100
0001
,
0010
0100
1000
0010
0100
0010
1000
0010
0100
0001
1000
0100
0010
0001
0000
0000
,
0001
0000
0000
0000
0000
0000
1000
0000
0000
0010
0000
0000
0100
0000
0000
0000
0000
0000
0010
0000
0000
0000
0000
0000
1000
0000
0000
0000
0000
0000
0001
0000
0000
0000
0000
0000
1000
0000
0010
0000
1000
0000
0010
0000
0000
0000
0000
0000
,
1000
0010
0100
0001
0010
0100
1000
0010
,
0100
0000
0010
0000
1000
0100
0010
0001
0100
0001
1000
0010
1000
0010
0100
0001
,
0010
0100
1000
0100
1000
0001
1000
0001
0010
0100
1000
0001
1000
0001
0010
0100
,
1000
0010
0100
0001
1000
0010
0100
0001
1000
0000
0000
0000
1001
0000
0000
0000
,
1000
0100
0010
0001
0010
0001
0010
0001
,
0010
0001
0100
0010
1000
0001
1000
0000
,
0001
0010
0100
1000
0010
1000
0001
1000
,
0001
1000
0100
0001
0100
1000
0001
0000
,
1000
0010
0100
0001
0100
0010
0000
1000
,
0000
0001
0100
1000
0100
0001
1000
0000
,
1000
0001
0010
0100
1000
0010
0100
0001
,
0010
0100
1000
0010
0100
0001
0100
0000
,
1000
0010
1000
0100
0010
0001
0010
0001
,
0000
0100
0010
0000
1000
0100
0001
0000
,
1000
0010
0100
0001
1000
0010
0100
0001
,
0100
0001
0001
0100
1000
0100
0001
0000
,
0010
0100
0001
0010
0100
0001
0100
1000
,
0100
0001
0010
0100
1000
0100
1000
0000
,
1001
0000
0000
0000
0000
1000
0000
1001
,
0000
0000
0000
1001
0000
0000
0000
0000
,
1000
0010
0100
0001
0010
0100
1000
0010
,
1000
0010
1000
0010
0100
0010
0100
0010
,
0100
0010
0100
0010
1000
0100
0010
0001
,
0100
0001
0100
0010
1000
0010
1000
0100
,
0010
0001
1000
0001
0100
1000
0100
0001
,
1000
0000
0010
0000
0100
0000
0001
0000
1000
0001
0100
0000
0010
0000
1000
0000
,
0010
0000
0100
0000
0001
0000
0100
0000
0001
0100
0010
0000
0000
0000
1010
0000
,
1000
0000
0000
0000
0000
0000
0100
0000
0000
0000
0000
0000
0010
0000
0000
0000
0000
0000
0001
0000
0000
0000
0000
0000
0100
0000
0001
0000
0100
0000
0001
0000
0000
0010
0000
0000
0100
0000
0000
1000
0000
0000
0010
0000
0000
0100
0000
0000
,
0001
0100
0010
1000
0100
0010
0001
0100
,
0001
0000
0100
0000
0010
0000
1000
0000
0010
0100
0001
0000
0010
0000
0100
0000
,
1000
0010
0100
1000
0100
0010
1000
0010
,
1000
0000
0100
0000
0010
0000
0001
0000
0100
0000
0001
0100
0001
0000
0010
0000
,
0100
1000
0010
0100
0001
0010
0100
1000
,
0010
0000
1000
0000
0001
0000
0100
0000
0001
0100
0010
0000
1000
0000
0010
0000
,
1000
0000
0000
0010
0000
0000
0100
0000
0000
0001
0000
0000
0010
0000
0000
0100
0000
0000
1000
0000
0010
0000
1000
0000
0010
0000
0000
0000
0000
0000
0000
0000
0000
0000
0000
0000
0010
0000
0000
0000
0000
0000
0100
0000
0000
0000
0000
0000
,
0001
0000
0000
1000
0000
0000
0010
0000
0000
0100
0000
0000
0001
0000
0000
1000
0001
1000
0001
1000
0001
1000
0000
0000
,
0101
0101
0101
0101
,
0101
0101
0101
0101
,
1010
1010
1010
1010
,
1010
1010
1010
1010
,
1001
1001
1001
1001
,
1001
1001
1001
1001
,
0110
0110
0110
0110
,
0110
0110
0110
0110
,
0001
0100
0001
0100
0001
0100
0001
0000
,
1000
0000
0001
0100
0010
1000
0000
0000
,
0010
0100
0010
0100
0010
0100
0000
0001
,
0010
0100
1000
0010
0100
0001
0000
0000
,
1000
0001
0010
0100
1000
0010
1000
0010
,
0000
0010
0100
0001
1000
0010
0100
0001
,
0000
0000
0000
1000
0000
0000
0001
0000
0000
1000
0000
0000
1000
0000
0000
0001
1000
0001
1000
0001
1000
0001
0000
0000
,
0000
0000
0010
0000
0100
0000
0001
0100
0010
1000
0010
0000
0100
0000
0001
0000
,
1000
0001
0100
0010
1000
0010
0100
0000
,
0001
0100
0001
1000
0001
0010
0100
0000
,
0010
0100
0010
0100
0010
0100
0010
0100
,
0010
0100
0010
0001
1000
0001
1000
0000
,
0001
0010
0100
1000
0010
0100
0001
0100
,
0010
1000
0010
0100
0001
0100
1000
0000
,
0001
0100
0001
0100
0010
1000
0001
0010
,
0000
1000
0001
1000
0010
2000
0000
0000
,
3001
1000
0001
1000
0001
1000
0001
1000
,
0001
0000
1000
0000
0010
0000
0100
0000
0010
0000
0100
0000
0010
0100
0010
0100
,
0010
0000
0100
0000
0001
0000
0100
0000
0010
1000
0010
0000
1000
0010
1000
0000
,
0010
0000
0000
0000
0000
0000
0100
0000
0000
0000
0000
0000
0100
0000
0000
0001
0000
0000
0100
0000
0000
0001
0000
0000
0100
0000
0000
0010
0000
0000
1000
0000
0000
0010
0000
0000
0100
0000
0000
0000
0000
0000
0001
0000
0100
0000
0001
0000
,
0100
0010
1000
0010
0100
0001
0100
0001
,
0010
0000
0100
0000
1000
0000
0010
0000
0100
0000
0001
0000
0010
0100
0010
0000
,
0001
1000
0001
1000
0001
1000
0001
1000
0001
0000
1000
0001
1000
0000
1001
0000
,
0000
0000
0000
0000
0000
0001
0000
1000
,
0000
0000
0000
0000
,
0000
0000
0000
0001
1000
0010
0100
0000
,
0001
0100
0001
0100
0001
0100
0001
0100
,
0001
1000
0010
1000
0010
1000
0010
1000
,
0010
0100
0001
1000
0100
0010
0001
0100
,
0010
1000
0100
1000
0001
0010
0001
1000
,
0010
1000
0001
0100
0001
0010
0100
1000
,
0010
0000
0000
0100
0000
0000
0010
0000
0000
0100
0000
0000
0001
0000
0000
1000
0000
0000
0010
1000
0010
1000
0000
0000
,
0010
0100
0010
0100
0010
0000
0000
0000
0001
1000
0002
0000
0003
0000
0000
0000
,
1000
0010
0100
0001
0100
0010
1000
0000
,
1000
0010
0100
0001
0010
0100
1000
0010
,
1000
0000
0001
0000
1000
0000
0001
0000
0001
1000
0001
0000
0010
0000
0100
0000
,
1000
0001
0100
0001
0100
0000
1000
0010
,
0100
0000
0001
0000
1000
0000
0100
0000
0001
0100
0001
0000
1000
0000
0010
0000
,
0100
0001
0100
0010
1000
0100
0010
0001
,
0100
0000
0001
0000
1000
0000
0010
0000
1000
0100
1000
0000
0001
0000
1000
0000
,
0001
0000
0100
0000
0010
0000
1000
0000
0100
0000
0010
0000
0001
0100
0001
0000
,
0001
0000
0000
0000
0000
0000
1000
0000
0000
0000
0000
0000
0010
0000
0000
0000
0000
0000
1000
0000
0000
0000
0000
0000
0001
0000
0100
0000
0001
0000
0100
0000
0000
0010
0000
0000
0100
0000
0000
0001
0000
0000
1000
0000
0000
0001
0000
0000
,
1000
0010
0100
0001
0010
0100
1000
0010
,
0100
0000
0001
0000
1000
0001
1000
0000
1000
0000
0001
0000
0010
0000
0001
0000
,
0010
0001
1000
0001
1000
0001
0100
0010
,
1000
0000
0010
0000
1000
0000
0001
0000
0100
0001
0100
0000
0010
0000
1000
0000
,
0010
0100
0001
1000
0001
1000
0010
0100
,
0001
0000
0100
0000
0001
0000
0100
0000
0001
1000
0001
0000
0100
0000
0010
0000
,
0100
0010
0100
0010
0100
0001
0100
0010
,
1000
0000
0000
0000
0000
0000
0001
0000
0000
0100
0000
0000
0001
0000
0000
0000
0000
0000
0010
0000
0000
0000
0000
0000
0100
0000
0000
0000
0000
0000
1000
0000
0001
0000
1000
0000
0001
0000
1000
0000
0001
0000
1000
0000
0001
0000
1000
0000
,
0001
0100
0010
1000
0010
0100
0001
0010
,
0100
0000
1000
0000
0001
0010
0100
1000
0010
0100
0001
0100
0001
0100
0001
0100
,
0010
0100
0001
1000
0010
0100
0001
0100
0010
1000
0010
0100
0001
0010
0100
1000
,
0010
0000
0000
0000
0000
0000
1000
0000
0000
0010
0000
0000
1000
0000
0000
0000
0000
0000
0010
0000
0000
0000
0000
0000
0100
0000
0000
0000
0000
0000
0001
0000
0000
0000
0000
0000
1000
0000
0001
0000
1000
0000
0001
0000
0000
0000
0000
0000
,
1000
0010
0100
0001
0100
0001
1000
0010
1000
0010
0100
0001
0010
0001
1000
0100
,
1000
0010
0100
0001
0010
0100
1000
0010
0100
0001
0100
0001
1000
0010
1000
0010
,
1000
0010
0100
0001
0100
0010
1000
0100
0010
0001
0010
0100
1000
0001
2000
0000
,
0000
0000
0000
3000
0000
0000
0000
0000
;

//---------------dance-single - JunkoXXX 10-----------------
#NOTES:
     dance-single:
     :
     Hard:
     10:
     0.851936,1.167873,0.296560,0.021568,0.177936,1106.000000,1051.000000,55.000000,4.000000,0.000000,0.000000,0.851936,1.167873,0.296560,0.021568,0.177936,1106.000000,1051.000000,55.000000,4.000000,0.000000,0.000000:
0000
0000
0000
0000
,
0000
0000
0000
0000
,
1000
0001
0100
0010
1000
0100
0010
0001
,
1000
0001
1000
0010
1000
0010
4000
0000
,
3000
0001
0100
0010
1000
0100
0010
0001
,
0010
0001
1000
0010
1000
0010
0100
0001
,
1000
0010
0100
0010
1000
0001
0100
0010
,
0100
0000
0000
0000
,
0000
0000
0000
0000
,
0000
0000
0000
0000
0000
0000
0000
0100
,
0010
0000
0000
0000
,
1000
0000
0000
0001
0000
0000
0000
0000
,
1001
0000
1000
0010
0100
0001
0000
1000
,
0001
0100
0010
1000
,
0100
0000
0010
0001
0100
0010
1000
0110
,
0000
0001
0100
0010
1000
0100
0010
0100
,
0000
0000
1000
0100
0010
0100
1000
0010
,
0100
0001
0100
0000
0010
0000
1000
0000
,
0010
1000
0010
1000
0010
0100
0001
1000
,
0000
0010
0100
0001
,
1001
0110
1001
0110
,
1001
0110
1001
0110
,
1010
0101
1010
0101
,
1010
0101
1010
0101
,
1000
0010
0100
0010
0100
0010
1000
0100
,
0010
0001
0010
0001
1000
0010
1000
0010
,
0100
0001
0100
0001
0100
0001
0100
0001
0100
0001
0100
0001
0100
0001
0100
0000
,
0000
0000
0000
0000
0000
0000
0000
0000
0000
0000
0000
0000
0000
0000
0000
0000
0000
0000
0000
0000
0000
0000
0000
0000
0000
0000
0000
0000
0000
0000
0000
0000
0000
0000
0000
0000
1000
0000
0000
0001
0000
0000
4000
0000
0004
0000
0000
0000
,
3003
0100
0001
0010
0100
1000
0010
0100
,
0001
0000
1000
0000
0001
0000
0100
0000
0010
0100
0001
0100
0001
0000
0100
0000
,
0010
0100
0010
1000
0010
0100
0010
0100
,
0001
1000
0010
1000
0001
0100
0010
0100
,
0001
0100
0010
0001
0010
0001
0100
0010
,
0100
0010
0100
0010
1000
0100
0010
0001
,
0010
0100
0010
0001
1000
0010
1000
0100
,
0010
0000
0001
0000
1000
0000
0010
0100
0000
0000
0001
0000
0000
0000
0000
0000
,
1000
0010
1000
0001
0100
0001
0100
0001
,
0010
0100
1000
0100
1000
0001
0010
0100
,
1000
0001
0100
0010
0100
0001
1000
0001
,
0010
0000
1000
0000
0010
0000
0100
0000
0001
0100
0001
0000
0010
0000
0001
0000
,
0010
0001
0010
0100
1000
0010
0100
0001
,
0100
0000
1000
0000
0100
0000
0001
0000
0100
0010
1000
0010
1000
0000
0001
0000
,
0010
0100
1000
0010
0100
0001
1000
0010
,
0100
0000
0010
0000
1000
0010
1000
0000
0100
0000
0002
0000
0000
0000
0000
0000
,
1003
0010
0100
0010
0100
0010
1000
0010
,
0100
0001
0010
0100
1000
0010
0100
0001
,
0100
0001
0100
0010
1000
0100
0001
0100
,
1000
0000
0001
0010
0100
0000
0010
0000
1000
0000
0001
0000
0001
0000
0010
0000
,
0100
1000
0100
0010
0001
0010
0001
0010
,
0100
0010
0100
0010
1000
0001
0100
0001
,
1000
0001
1000
0001
1000
0001
1000
0001
1000
0001
1000
0001
1000
0001
1000
0001
,
1000
0001
1000
0001
1000
0001
1000
0001
1000
0000
0000
0000
1001
0000
0000
0000
,
1000
0100
0010
0001
0010
0001
0010
0001
,
0010
0001
0000
0010
1000
0001
1000
0000
,
0001
0010
0100
1000
0010
0100
0010
0100
,
0001
1000
0100
0001
0100
1000
0001
0000
,
1000
0100
1000
0100
1000
0010
0000
1000
,
0000
0010
1000
0100
0001
0100
1000
0000
,
0100
0001
0010
0100
1000
0010
0100
0001
,
0010
0100
1000
0010
0100
0010
0100
0000
,
1000
0010
1000
0100
0010
0001
0010
0001
,
0000
0100
0010
0000
1000
0100
0001
0000
,
1000
0010
0100
0001
1000
0010
0100
0010
,
0100
0010
1000
0100
0001
0100
1000
0000
,
0010
0100
0001
0010
0100
1000
0100
0010
,
0100
1000
0010
0100
0001
0100
1000
0000
,
1001
0000
0000
0000
0000
1000
0000
1001
,
0000
0000
0000
1001
0000
0000
0000
0000
,
1000
0010
0100
0001
0010
0100
1000
0010
,
1000
0010
1000
0010
0100
0010
0100
0010
,
0100
0010
0100
0010
1000
0100
0010
0001
,
0100
0001
0100
0010
1000
0010
1000
0100
,
0010
0001
0010
0001
0100
1000
0100
0001
,
1000
0010
0100
0001
1000
0100
0010
0001
,
0010
0001
0010
0001
0001
1000
0010
1000
,
1000
0100
0010
0001
0100
0010
1000
0010
,
0100
0001
0100
0001
0100
0010
1000
0001
,
0010
0100
1000
0001
0010
0001
0010
0100
,
1000
0010
0100
0010
0100
0010
1000
0010
,
1000
0100
0010
0001
0100
0001
0001
0010
,
0100
1000
0010
0100
0001
0010
0100
1000
,
0010
1000
0001
0100
0001
0010
0001
0010
,
0100
1000
0010
0100
0001
1000
0010
0100
,
0001
0000
0000
1000
0000
0000
0010
0000
0000
0100
0000
0000
0001
0000
0000
4000
0004
0000
0000
0000
0003
3000
0000
0000
,
0101
0101
0101
0101
,
0101
0101
0101
0101
,
1010
1010
1010
1010
,
1010
1010
1010
1010
,
1001
1001
1001
1001
,
1001
1001
1001
1001
,
0110
0110
0110
0110
,
0110
0110
0110
0110
,
0001
0100
0010
0100
0010
0100
0000
0000
,
1000
0000
0001
0100
0010
1000
0000
0000
,
0010
0100
0010
0100
0010
0100
0000
0001
,
0010
0100
1000
0010
0100
0001
0000
0000
,
1000
0001
0100
0001
0100
0001
1000
0010
,
0000
0010
0100
0001
1000
0010
0100
0001
,
1000
0000
0000
0001
0000
0000
1000
0000
0000
0001
0000
0000
1000
0000
0000
0001
0000
0000
1000
0000
0000
0001
0000
0000
1000
0000
0000
0000
0000
0000
0004
0000
4000
0000
0000
0000
0000
0000
0000
0000
3000
0000
0003
0000
0000
0000
0000
0000
,
0000
0000
0010
0000
0100
0000
0001
0100
0010
1000
0010
0000
0100
0000
0001
0000
,
1000
0001
0100
0010
0100
0010
0100
0000
,
0001
0010
0001
0010
0001
0010
0100
0000
,
0010
0100
0010
0100
0010
0100
0010
0001
,
1000
0010
0100
0001
1000
0001
1000
0000
,
0001
0010
0100
1000
0010
0100
0010
0100
,
0010
1000
0010
0100
0001
0100
1000
0000
,
0001
0100
0001
0100
0010
1000
0001
0010
,
0000
1000
0001
1000
0010
2000
0000
0000
,
3001
1000
0001
1000
0001
1000
0001
1000
,
0001
0000
1000
0000
0010
0000
0100
0000
0010
0000
0100
0000
0010
0100
0010
0100
,
0010
0000
0100
0000
1000
0000
0100
0000
0100
1000
0100
0000
0100
1000
0100
0000
,
0001
0000
0000
0000
0000
0000
1000
0000
0000
0000
0000
0000
1000
0000
0000
0100
0000
0000
1000
0000
0000
0100
0000
0000
1000
0000
0000
0001
0000
0000
0010
0000
0000
0001
0000
0000
0100
0000
0000
0000
0000
0000
0004
0000
0400
0000
0003
0000
,
0300
0010
1000
0010
0100
0001
0100
0001
,
0010
0000
0100
0000
1000
0000
0010
0000
0100
0000
0001
0000
0010
0100
0010
0000
,
0001
1000
0001
1000
0001
1000
0001
1000
0001
0000
1000
0001
1000
0000
1001
0000
,
0000
0000
0000
0000
0000
0001
0000
1000
,
0000
0000
0000
0000
,
0000
0000
0000
0001
1000
0010
0100
0000
,
0001
0010
0001
0100
0001
0010
0001
0100
,
0001
1000
0100
1000
0001
1000
0100
1000
,
0000
0100
0001
1000
0100
0010
0001
0100
,
0010
1000
0100
1000
0001
0010
0001
1000
,
0010
1000
0001
0100
0001
0010
0100
1000
,
0010
0000
0000
0100
0000
0000
0010
0000
0000
0100
0000
0000
0001
0000
0000
1000
0000
0000
0040
4000
0000
3030
0000
0000
,
0010
0100
0010
0100
0010
0000
0000
0000
0001
1000
0002
0000
0003
0000
0000
0000
,
1000
0010
0100
0010
0100
0010
1000
0000
,
1000
0010
0100
0001
0010
0100
1000
0010
,
1000
0000
0001
0000
0100
0000
1000
0000
0001
1000
0001
0000
0010
0000
0100
0000
,
1000
0001
0010
0001
0100
0000
1000
0010
,
0100
0000
0001
0000
1000
0000
0100
0000
0001
0100
0001
0000
1000
0000
0010
0000
,
0100
0001
0100
0010
1000
0100
0010
0001
,
0100
0000
0001
0000
1000
0000
0010
0000
0100
0010
0100
0000
0010
0000
1000
0000
,
0001
0000
0100
0000
0010
0000
1000
0000
0100
0000
0010
0000
0001
0100
0001
0000
,
0001
1000
0010
1000
0100
0010
0001
0010
,
0100
0010
0100
1000
0010
0100
0001
0010
,
0100
0000
1000
0000
0001
1000
0001
0000
0100
0000
0001
0000
0010
0000
0001
0000
,
0010
0001
1000
0001
1000
0001
0100
0010
,
1000
0000
0010
0000
1000
0000
0001
0000
0100
0001
0100
0000
0001
0000
1000
0000
,
0010
0100
0001
1000
0001
1000
0010
0010
,
0001
0000
0010
0000
0001
0000
0010
0000
0001
1000
0001
0000
1000
0000
0010
0000
,
1000
0010
1000
0010
0100
0001
0100
0010
,
1000
0000
0000
0000
0000
0000
0001
0000
0000
0100
0000
0000
0001
0000
0000
0000
0000
0000
0010
0000
0000
0000
0000
0000
0100
0000
0000
0000
0000
0000
4000
0000
0004
0000
0000
0000
0000
0000
0000
0000
0000
0000
0000
0000
0000
0000
0000
0000
,
3003
0100
0010
1000
0010
0100
0001
0010
,
0100
1000
0010
0100
0001
0010
0100
1000
,
0010
0100
0010
0100
0010
1000
0010
0100
,
0010
1000
0010
1000
0100
1000
0100
0010
,
0001
1000
0100
1000
0001
0010
0001
0010
,
0100
1000
0010
0100
0001
0010
0001
1000
,
0100
0000
1000
0000
0010
0000
0100
0000
0001
0000
1000
0001
1000
0000
0020
0000
,
0000
0000
0000
0030
0000
0000
0000
0000
;

//---------------dance-single - JunkoXXX 5----------------
#NOTES:
     dance-single:
     JunkoXXX 5:
     Easy:
     5:
     0.283465,0.724887,0.301952,0.026960,0.000000,368.000000,312.000000,56.000000,5.000000,0.000000,0.000000,0.283465,0.724887,0.301952,0.026960,0.000000,368.000000,312.000000,56.000000,5.000000,0.000000,0.000000:
0000
0000
0000
0000
,
0000
0000
0000
0000
,
0000
0000
0000
0000
,
0000
0000
0000
0000
,
1000
0001
1000
0001
,
1000
0001
1000
0010
,
0100
0000
0001
0000
0100
0000
0001
0100
,
0000
0000
0000
0000
,
0000
0000
0000
0000
,
0000
0000
0000
0000
,
0000
0000
0000
0000
,
0000
0000
0000
0000
,
1000
0000
0000
0000
0000
0001
0000
1000
,
0000
0000
0000
0000
,
0001
0000
0000
0000
0000
1000
0000
0001
,
0000
0000
0000
0000
,
0010
0000
0000
0000
0000
0100
0000
0010
,
0000
0000
0000
0000
,
1000
0000
0000
0000
0000
0001
0000
0100
,
0000
0000
0000
0000
,
0100
0010
0100
0010
,
0100
0010
0100
0001
,
1000
0002
1003
0001
,
1000
0010
0100
0010
,
0100
0010
0100
0010
0100
0010
0100
0010
,
0100
0010
0100
0010
0100
0010
0100
0010
,
0200
0000
0000
0000
0000
0000
0000
0310
,
0000
0000
0000
0000
,
1000
0000
0000
0000
0000
0001
0000
1000
,
0000
0000
0000
0000
,
0001
0000
0000
0000
0000
1000
0000
0001
,
0000
0000
0000
0000
,
0010
0000
0000
0000
0000
0100
0000
0010
,
0000
0000
0000
0000
,
0100
0000
0000
0000
0000
0010
0000
0100
,
0000
0000
0000
0000
,
0100
0000
0000
0000
0000
0001
0000
0100
,
0000
0000
0000
0000
,
0010
0000
0000
0000
0000
1000
0000
0010
,
0000
0000
0000
0000
,
0100
0000
0000
0000
0000
0010
0000
0100
,
0000
0000
0000
0000
,
0001
0000
0000
0000
0000
1000
0000
0010
,
0000
0000
0000
0000
,
1001
0000
0110
0000
,
1001
0000
0110
0000
,
1001
0000
0110
0000
,
0001
0000
0100
0010
0100
0000
0010
0000
,
1001
0000
0110
0000
,
1001
0000
0110
0000
,
1001
0000
0110
0000
,
1001
0000
0110
0110
,
1000
0000
0000
0000
0000
0001
0000
0100
,
0000
0000
0000
0000
,
0001
0000
0000
0000
0000
1000
0000
0010
,
0000
0000
0000
0000
,
0001
0000
0000
0000
0000
1000
0000
0001
,
0000
0000
0000
0000
,
0001
0000
0000
0000
0000
1000
0000
0001
,
0000
0000
0000
0000
,
0100
0000
0000
0000
0000
0001
0000
0010
,
0000
0000
0000
0000
,
1000
0000
0000
0000
0000
0100
0000
1000
,
0000
0000
0000
0010
0100
0000
0000
0000
,
0001
0000
0000
0000
0000
0100
0000
0010
,
0000
0000
0000
0000
,
1000
0000
0000
0000
0000
0001
0000
0100
,
0000
0000
0000
0000
,
0010
0000
0000
0000
0000
0100
0000
0010
,
0000
0000
0000
0000
,
0001
0000
0000
0000
0000
1000
0000
0001
,
0000
0000
0000
0000
,
0010
0000
0000
0000
0000
0100
0000
0010
,
0000
0000
0000
0000
,
0001
0000
0000
0000
0000
0010
0000
0100
,
0000
0000
0000
0000
,
1000
0000
0000
0000
0000
0010
0000
0100
,
0000
0000
0000
0000
,
0001
0000
0000
0000
0000
0010
0000
0100
,
0000
0000
0000
0000
,
1000
0000
0000
0000
0000
0001
0000
0100
,
0000
0000
0000
0000
,
0010
0000
1000
0010
,
0000
0000
0000
0000
,
1000
0001
1000
0001
,
1000
0000
0001
1000
,
0001
1000
0001
1000
,
0001
1000
0001
1000
,
0001
1000
0001
1000
,
0001
1000
0001
1000
,
0001
1000
0001
1000
,
0001
0000
1000
0000
0010
0100
0000
0000
,
0001
0000
0000
0000
0000
0000
0000
0100
,
0000
0000
0000
0000
,
0010
0000
0000
0000
0000
0000
0000
1000
,
0000
0000
0000
0000
,
0010
0000
0000
0000
0000
0000
0000
0100
,
0000
0000
0000
0000
0000
0000
0000
1001
,
0000
0000
0000
0000
,
1001
0000
0000
0000
,
1000
0000
0000
0000
0000
0010
0000
0100
,
0000
0000
0000
0000
,
0001
0000
0000
0000
0000
0100
0000
0010
,
0000
0000
0000
0000
,
1000
0000
0000
0000
0000
0001
0000
1000
,
0000
0000
0000
0000
,
0001
0000
0000
0000
0000
0001
0000
1000
,
0000
0000
0000
0100
0000
0020
0000
0030
,
1000
0100
0010
0001
,
0100
0001
1000
0010
,
1000
0010
0100
0001
,
0010
0001
0010
0001
,
0010
1000
0100
1000
,
0100
1000
0100
0010
,
0001
0100
0001
1000
,
0010
0000
0000
0000
,
0000
0000
0000
0000
,
0000
0000
1000
0001
,
0101
0101
0101
0101
,
0101
1010
1010
1010
,
1010
1010
1010
1001
,
1001
1001
1001
1001
,
1001
1001
1001
0110
,
0110
0110
0110
0110
,
0100
0010
1000
0000
0001
0100
0000
0000
,
1000
0001
1000
0001
1000
0001
1000
0000
,
1000
0000
0000
0000
0000
0001
0000
0100
,
0000
0000
0000
0000
,
0001
0000
0000
0000
0000
1000
0000
0010
,
0000
0000
0000
0000
,
1000
0000
0000
0000
0000
0010
0000
0100
,
0000
0000
0000
0000
,
0010
0000
0000
0000
0000
0100
0000
0001
,
0000
0000
0000
0000
,
0010
0000
0000
0000
0000
1000
0000
0001
,
0000
0000
0000
0000
,
0010
0000
0000
0000
0000
1000
0000
0001
,
0000
0000
0000
0000
,
0001
0000
0000
0000
0000
0001
0000
0010
,
0000
0000
0000
0000
,
1000
0000
0000
0000
0000
0010
0000
1000
,
0000
0000
0000
0000
,
0011
0000
1100
0000
,
0011
0000
1100
0000
,
0011
0000
1100
0000
,
0011
0000
1100
0000
,
0011
0000
1100
0000
,
0011
0000
1100
0000
,
0011
0000
0000
0000
1100
0000
0000
2200
,
0000
0000
0000
3300
0000
0000
0000
0000
;
