#TITLE:Jack and Mark Get Busy!;
#SUBTITLE:;
#ARTIST:Distant Soundz feat. MC Image;
#TITLETRANSLIT:;
#SUBTITLETRANSLIT:;
#ARTISTTRANSLIT:;
#CREDIT:;
#BANNER:;
#BACKGROUND:;
#LYRICSPATH:;
#CDTITLE:;
#MUSIC:Jack and Mark Get Busy!.mp3;
#OFFSET:-3.600;
#SAMPLESTART:68.080;
#SAMPLELENGTH:14.320;
#SELECTABLE:YES;
#BPMS:0.000=134.000;
#STOPS:;
#BGCHANGES:;

//---------------dance-single - ----------------
#NOTES:
     dance-single:
     :
     Hard:
     9:
     0.609,0.604,0.304,0.000,0.380:
0001
1000
0100
0000
1000
0001
0100
0000
,
0010
0100
0001
0000
0100
0100
0100
0000
,
0010
1000
0001
0000
0010
0100
0010
0000
,
0001
0000
1000
1001
0000
0001
0101
0000
,
0100
0010
1000
0100
0010
0010
0010
0000
,
0001
0001
0001
1000
0010
0000
0100
0010
,
1000
1000
1000
0100
1000
0001
0100
0000
,
0101
0000
0000
0000
1001
0000
0000
0000
1100
0000
0000
1000
0100
0000
0000
0000
,
0001
0100
0001
0000
0100
0000
0010
0000
1000
0000
0100
0000
0010
0000
0000
0000
,
0001
0000
1000
0001
0000
1000
0001
0000
0100
0000
0010
0000
1000
0000
0100
0000
,
0010
0000
0001
0100
0010
0000
0100
0010
0000
1000
0000
0001
1000
0000
0100
0000
,
0010
0000
0000
0011
0000
0000
0001
0000
0100
0010
0000
1010
0000
0000
0000
0000
,
1000
0100
0000
1000
0100
0000
1000
0000
0010
0000
0000
0000
0001
0100
0000
0001
,
0100
0000
0001
0000
0010
0000
0000
0000
1000
0100
0000
1000
0100
0000
1000
0000
,
0010
0000
0100
0001
0010
0100
0010
0001
,
1000
0010
0100
0010
1000
0000
0101
0000
,
0001
1000
0001
1000
0001
0000
1000
0000
0100
0000
0010
0000
0100
0000
0000
0000
,
0010
0000
0001
1000
0000
0010
0100
0000
0001
0000
1000
0000
0110
0000
0000
0000
,
0100
0000
0001
0000
1000
0000
0001
0010
0000
0001
0000
0010
0001
0000
0100
0000
,
0010
0000
0000
1010
0000
0000
1000
0000
0001
0010
0000
0011
0000
0000
0001
0000
,
1000
0100
0000
1000
0100
0000
0010
0000
0011
0000
0000
0000
0001
0100
0000
0001
,
0100
0000
0010
0000
1010
0000
0000
0000
1000
0001
0000
1000
0001
0000
0100
0000
,
0110
0000
0010
1000
0100
0001
0100
1000
,
0001
0000
0100
0000
1100
0000
0000
0000
0000
0100
0000
0000
1001
0000
0000
0000
,
1000
0100
0010
0100
1000
0100
0010
0000
,
0001
0100
0010
0000
1000
0100
0010
0001
,
0100
0001
1000
0001
0010
0100
0010
0000
,
0001
0000
1000
0000
0010
0000
0100
0001
0000
0000
1000
0000
0100
0000
0010
0000
,
0001
0100
0010
0100
0001
1000
0100
0000
,
1000
0100
0010
0100
0001
0100
1000
0001
,
0100
0010
0010
0100
0001
1000
0100
0000
,
1000
0000
0000
0000
0100
0000
0000
0010
0000
0001
0010
0000
0001
0000
0000
0000
,
1000
0100
1000
0000
0001
0100
0001
0000
,
0100
0010
1000
0000
0100
0100
0100
0000
,
1000
0100
0010
0000
0001
0100
0010
0000
,
1000
0000
0000
0000
0001
0000
0000
0000
1000
0000
0000
1000
0001
0000
0000
0000
,
1000
0010
1000
0000
0100
0000
0010
0000
0100
0000
1000
0000
0001
0000
0000
0000
,
1000
0000
0100
1000
0000
0001
0100
0000
0010
0000
0100
0000
0001
0000
0000
0000
,
1000
0000
0100
0010
0100
0000
0010
0001
0000
1000
0000
0001
0100
0000
0010
0000
,
1000
0000
0001
0100
0000
0000
0001
0000
1000
0100
0000
0010
0000
0000
0001
0000
,
1000
0100
0000
0100
1000
0000
0001
0000
0100
0000
0010
0000
0100
0001
0000
0001
,
0100
0000
0001
0000
1000
0000
0100
0000
0010
0100
0000
0100
0010
0000
0001
0000
,
1000
0001
0100
1000
0100
0001
0101
0000
,
0001
0010
1000
0010
0011
0000
1001
0000
,
0001
0010
0100
0010
0001
0000
1000
0100
0000
1000
0000
0001
0100
0000
0010
0000
,
1000
0000
0001
0010
0000
0001
0100
0000
0001
1000
0100
0000
0010
0000
0001
0000
,
0100
0000
0010
0100
0001
0000
1000
0001
0000
1000
0000
0001
1000
0000
0100
0000
,
1100
0000
0000
1100
0000
0000
1000
0000
0001
0100
0000
0101
0000
0000
0001
0000
,
1000
0100
0000
0010
0001
0000
0010
0000
0011
0000
0001
0000
1000
0010
0000
0100
,
0001
0000
1000
0000
1100
0000
0100
0000
0010
0100
0000
0010
0001
0000
1000
0000
,
1010
0010
0100
0001
0011
0100
1001
0000
,
1000
0001
1010
0100
0011
0000
1001
0000
;

//---------------dance-single - ----------------
#NOTES:
     dance-single:
     :
     Medium:
     5:
     0.429,0.394,0.233,0.000,0.000:
1000
0100
1000
0000
0001
0000
0100
0000
,
0010
0100
0001
0000
1000
1000
1000
0000
,
0001
0010
0100
0000
0010
0001
1000
0000
,
0010
0000
0100
0010
0000
0000
1001
0000
,
1000
0001
1000
0000
0001
0000
0100
0000
,
0010
0010
0100
0001
1000
0000
0001
0000
,
1000
0100
0010
0000
0001
0100
0010
0000
,
1000
0001
1001
0000
,
1000
1000
0100
0000
1000
0000
0001
0000
,
0100
0000
0010
0000
0100
0000
0001
0100
,
0001
0001
0100
0000
0001
1000
0001
0000
,
1000
0000
1100
0000
1000
0001
0100
0000
,
0010
0100
0001
0000
0101
0000
0001
1000
,
0100
0000
1100
0000
1000
0001
0010
0100
,
0010
0000
0001
1000
0001
0000
0100
0000
,
0010
0100
0001
0000
1000
0000
1100
0000
,
1000
0001
0100
0000
0010
0000
0100
0000
,
0010
0100
0001
1000
0100
0000
1000
0000
,
0100
0100
1000
0000
0001
0000
0100
0000
,
0010
0000
1001
0000
0010
1000
0001
0000
,
1000
0010
1000
0000
0101
0000
0001
0010
,
0001
0000
1100
0000
0001
1000
0010
0100
,
0010
0000
1000
0001
1000
0000
0001
0000
,
1000
0100
0010
0001
0100
0000
0101
0000
,
0001
1000
0001
0000
1000
0000
0010
0000
,
0100
0010
0100
0001
0100
0000
0001
0000
,
1000
0100
0010
0000
0100
0000
1000
0000
,
0001
0100
0001
0100
0010
0000
0100
0000
,
0001
0000
0100
0000
0001
1000
0100
0000
,
1000
0000
0100
0000
1000
1000
0001
0000
,
0100
0010
0100
0000
0001
1000
0001
0000
,
1000
0000
0100
0000
0010
0001
1000
0000
,
0010
0100
0010
0000
1000
0001
1000
0000
,
0001
0100
0001
0000
1000
1000
1000
0000
,
0001
0010
0100
0000
0010
0001
0100
0000
,
0001
1000
1001
0000
,
0001
0000
0100
0000
0001
1000
0001
0000
,
1000
0100
0010
0001
0100
0000
0001
0000
,
1000
0000
0010
0000
0100
0010
0100
0000
,
0001
0000
1001
0000
1000
0100
0010
0000
,
1001
0000
1000
0001
1000
0000
0110
0000
,
0010
0100
0010
0000
1001
0000
1000
0001
,
1000
0000
0001
0000
0100
0001
0100
0000
,
0010
0000
1000
0100
0010
0000
0110
0000
,
1001
0000
0001
0000
0100
0001
0100
0000
,
0010
0000
1000
0001
1000
0000
0000
0000
,
0100
0000
0010
0000
0001
0100
0010
0000
,
0100
0101
0001
1001
,
1000
0010
0100
0000
0101
0000
0001
0010
,
0100
0000
1100
0000
1000
0001
1000
0001
,
0100
0000
0010
0000
0100
0001
1000
0000
,
0001
0010
0110
1001
;

//---------------dance-single - ----------------
#NOTES:
     dance-single:
     :
     Easy:
     4:
     0.274,0.263,0.101,0.000,0.000: // measure 1
1000
0100
1000
0001
,  // measure 2
0100
0000
0000
0000
0010
0010
0010
0000
,  // measure 3
0100
0001
1000
0100
,  // measure 4
0010
0000
0010
0010
0000
0000
0000
0000
,  // measure 5
1000
0001
0100
0001
,  // measure 6
1000
0100
0010
0000
,  // measure 7
0100
0010
0100
1000
,  // measure 8
0001
1000
1001
0000
,  // measure 9
0001
0001
0100
0001
,  // measure 10
1000
0100
1000
0000
,  // measure 11
0001
0010
0100
0010
,  // measure 12
0001
0001
1000
1000
,  // measure 13
0010
0100
0100
0001
,  // measure 14
0100
0100
0010
1000
,  // measure 15
0001
1000
0100
0010
,  // measure 16
0001
0100
0010
0000
,  // measure 17
1000
0100
1000
0000
,  // measure 18
0001
0100
0001
0000
,  // measure 19
1000
0010
0100
0010
,  // measure 20
1000
0001
1000
0000
,  // measure 21
0001
0100
0001
1000
,  // measure 22
0100
1000
0001
0010
,  // measure 23
0001
1000
0010
0100
,  // measure 24
0010
1000
0000
1001
,  // measure 25
1001
0000
0001
0000
,  // measure 26
1000
0100
0010
0001
,  // measure 27
0100
0000
0010
0000
,  // measure 28
0100
0010
1000
0001
,  // measure 29
1000
1000
0100
0000
,  // measure 30
1000
0000
0001
0100
,  // measure 31
0001
0001
0100
0000
,  // measure 32
0010
1000
0001
0010
,  // measure 33
0110
0000
0100
0000
,  // measure 34
1000
0000
0000
0000
0001
0001
0001
0000
,  // measure 35
0100
0000
0001
0000
,  // measure 36
1000
0001
1001
0000
,  // measure 37
0100
0001
0100
0100
,  // measure 38
0010
1000
0100
0000
,  // measure 39
1000
0100
0010
0010
,  // measure 40
0110
0000
1001
0000
,  // measure 41
1000
0010
0100
0001
,  // measure 42
0010
0100
0010
0001
,  // measure 43
1000
0010
0100
0001
,  // measure 44
1000
1000
0001
0000
,  // measure 45
0100
0010
0100
0100
,  // measure 46
0010
1000
0001
0000
,  // measure 47
1000
0100
0010
0000
,  // measure 48
1001
0000
0110
0000
,  // measure 49
0010
1000
1000
0001
,  // measure 50
0010
0010
0100
0010
,  // measure 51
0010
0001
1000
0010
,  // measure 52
0100
0001
1000
1001
;

//---------------dance-single - ----------------
#NOTES:
     dance-single:
     :
     Beginner:
     1:
     0.146,0.184,0.030,0.000,0.000: // measure 1
1000
0000
0001
0000
,  // measure 2
0100
0000
0000
0000
,  // measure 3
0001
0000
1000
0000
,  // measure 4
0001
0000
0100
0100
,  // measure 5
0100
0000
0001
0000
,  // measure 6
1000
0000
0000
0000
,  // measure 7
1000
0000
0001
0000
,  // measure 8
1000
1000
1000
0000
,  // measure 9
0001
0000
0100
0000
,  // measure 10
0001
0000
0000
0000
,  // measure 11
1000
0000
0100
0000
,  // measure 12
0010
0000
0010
0000
,  // measure 13
0100
0000
0100
0000
,  // measure 14
0010
0000
0010
0000
,  // measure 15
0001
0001
0001
0000
,  // measure 16
1000
0000
0001
0000
,  // measure 17
1001
0000
1000
0000
,  // measure 18
0100
0000
0000
0000
,  // measure 19
1000
0000
0001
0000
,  // measure 20
0100
0000
0100
0000
,  // measure 21
0010
0000
0010
0000
,  // measure 22
1000
0000
1000
0000
,  // measure 23
0001
0001
0001
0000
,  // measure 24
1000
0000
0100
0000
,  // measure 25
1000
0000
0001
0000
,  // measure 26
0100
0000
0000
0000
,  // measure 27
0001
0000
1000
0000
,  // measure 28
0100
0000
0000
0000
,  // measure 29
1000
0000
0100
0000
,  // measure 30
0010
0000
0000
0000
,  // measure 31
0001
0000
0100
0000
,  // measure 32
0010
0000
0000
0000
,  // measure 33
1000
0000
1000
0000
,  // measure 34
0001
0000
0001
0000
,  // measure 35
0100
0000
0001
0000
,  // measure 36
1000
0000
0000
0000
,  // measure 37
1001
0000
0001
0000
,  // measure 38
0100
0000
0000
0000
,  // measure 39
0001
0000
1000
0000
,  // measure 40
0100
0000
0100
0000
,  // measure 41
1000
0000
0001
0000
,  // measure 42
0100
0000
0010
0000
,  // measure 43
1000
0000
0001
0000
,  // measure 44
0010
0000
0000
0000
,  // measure 45
0110
0000
0000
0000
,  // measure 46
0010
0000
0000
0000
,  // measure 47
0001
0000
1000
0000
,  // measure 48
0001
0000
0001
0000
,  // measure 49
0100
0000
0010
0000
,  // measure 50
0100
0000
0010
0010
,  // measure 51
0010
0000
1000
0000
,  // measure 52
0100
0100
0100
0100
;
