#TITLE:IT ONLY TAKES A MINUTE (Extended Remix);
#SUBTITLE:;
#ARTIST:TAVARES;
#TITLETRANSLIT:;
#SUBTITLETRANSLIT:;
#ARTISTTRANSLIT:;
#CREDIT:;
#BANNER:IT ONLY TAKES A MINUTE (Extended Remix).png;
#BACKGROUND:IT ONLY TAKES A MINUTE (Extended Remix)-bg.png;
#LYRICSPATH:;
#CDTITLE:./CDTITLES/DANCEMANIA SUPER CLASSICS 1.PNG;
#MUSIC:IT ONLY TAKES A MINUTE (Extended Remix).ogg;
#OFFSET:0.000;
#SAMPLESTART:9.572;
#SAMPLELENGTH:15.000;
#SELECTABLE:YES;
#DISPLAYBPM:122.000;
#BPMS:0.000=122.148,32.000=123.022,36.000=122.542,47.000=117.303,48.000=122.503,51.000=130.247,52.000=122.825,56.000=122.527,59.000=121.214,64.000=121.703,68.000=122.081,84.000=121.633,92.000=119.545,95.000=122.248,103.000=118.572,104.000=122.564,116.000=122.396,147.000=118.823,148.000=122.903,163.000=126.175,164.000=122.476;
#STOPS:;
#BGCHANGES:;

//---------------dance-couple - ----------------
#NOTES:
     dance-couple:
     :
     Medium:
     6:
     0.531,0.772,0.940,0.000,0.000:
00000000
00000000
00000000
00000000
,
00000000
00000000
00000000
00000000
,
00000000
00000000
00000000
00000000
,
00000000
00000000
00000000
00000000
,
00000000
00000000
00000000
00000000
,
00100000
00000000
00010001
10000000
00010000
01000000
10000001
00000000
,
10000000
01000000
00010001
00000000
10000000
01000000
00010001
00000000
,
00100000
00010000
00100001
00000000
11000000
00000000
10010001
00000000
,
10100000
01100001
01010000
10010001
,
00000010
00000000
10001000
00000001
00001000
00000100
10000001
00000000
,
00000001
00000100
10001000
00000000
00000001
00000100
10001000
00000000
,
00000010
00001000
10000010
00000000
00000101
00000000
10001001
00000000
,
00000011
10000110
00001100
10001001
,
10000000
00010000
10000000
00000000
01000000
00010000
00010000
00000000
,
00000001
00001000
00000001
00000000
00000100
00001000
00001000
00000000
,
00000001
00000010
00000001
00000000
00000001
00001000
00000001
00000000
,
00010000
10000000
00010000
00000000
01000000
10000000
10000000
00000000
,
00001000
00000001
00001000
00000000
00000010
00000001
00000100
00000000
,
10000000
00010000
10000000
00000000
00100000
00010000
01000000
00000000
,
00000001
00000001
00000001
00000000
10000000
10000000
10000000
00000000
,
10000001
00000000
11000101
00000000
00011000
10000001
10000001
00000000
,
10000000
10000000
00010000
00000000
01000000
01000000
10000000
00000000
,
00100000
00000000
00100000
00000000
01000000
10000000
00010000
00000000
,
00000001
00000001
00001000
00000000
00000100
00000100
00000001
00000000
,
00000010
00000000
00000010
00000000
00000100
00000001
00001000
00000000
,
00100000
10000000
00100000
10000000
00100000
10000000
01000000
00000000
,
00000010
00000001
00000010
00000001
00000010
00000001
00000100
00000000
,
00100000
00100000
00100000
00000000
00000100
00000100
00000100
00000000
,
10000001
10000001
10000001
00000000
00011000
00000000
01100110
00000000
,
00000010
00000000
01001000
00000001
00001000
00000100
01000001
00000000
,
00000001
00000001
01001000
00000000
00001000
00001000
01000001
00000000
,
00000010
00001000
01000010
00000000
00000101
00000000
01001001
00000000
,
00000011
00000000
01000110
00000000
00001000
00000100
01000001
00000000
,
00100000
00000000
00010100
10000000
00010000
01000000
10000100
00000000
,
10000000
10000000
00010100
00000000
00010000
00010000
10000100
00000000
,
00100000
00010000
00100100
00000000
11000000
00000000
10010100
00000000
,
10100000
00000000
01100100
00000000
00010000
01000000
10000100
00000000
,
10011001
01100110
10000001
00100010
00011000
01000100
10011001
00000000
,
00000101
00000101
00000101
00000000
11000000
11000000
11000000
00000000
,
00000001
00000100
00001000
00000000
00010000
01000000
10000000
00000000
,
10000000
01000000
00010000
00000000
00001000
00000100
00000001
00000000
,
10010000
11000000
00010000
00000000
00001001
00000101
00001000
00000000
,
01100000
01100000
01100000
00000000
00000110
00000110
00000110
00000000
,
10000001
01000000
10000001
00000000
10000001
00000100
10000001
00000000
,
00011000
00000000
10000001
00000000
01000100
10000001
01000100
00000000
,
00111010
00000000
00000000
00000000
;

//---------------dance-single - ----------------
#NOTES:
     dance-single:
     :
     Hard:
     8:
     0.512,0.498,0.188,0.000,0.266:
0000
0000
0000
0000
,
0000
0000
0000
0000
,
0000
0000
0000
0000
,
0000
0000
0000
0000
,
0000
0000
0000
0000
0000
0000
0000
0001
,
1000
0100
0010
0001
1000
1000
1001
0000
,
0001
0000
0000
0001
0000
0000
0100
0000
0010
0000
0000
0010
0000
0000
1000
0000
,
0100
0100
0100
0000
0110
0000
1001
0001
,
0100
0000
0100
0000
0100
0000
0010
0100
0010
0000
1000
0000
0001
1000
0001
1000
,
0001
0100
0010
1000
0001
0001
1001
0000
,
1000
0000
0000
1000
0000
0000
0100
0000
0010
0000
0000
0010
0000
0000
0100
0000
,
1000
1000
1000
0000
1000
0001
0000
0101
,
0000
0000
0000
1100
0000
0000
0000
0000
0000
1001
0000
0000
0001
0000
0000
1000
0001
1000
0001
1000
0000
0000
0000
0000
,
1000
0100
0010
0100
1000
0100
0001
0000
,
0001
0000
0000
0001
0000
0000
0100
0000
1000
0000
1000
0000
1000
0000
0010
0000
,
1000
0100
0010
0001
1000
1000
0001
0000
,
0100
0000
0000
0010
0000
0000
0010
0000
0010
0000
0010
0000
0100
0000
0010
0000
,
1000
0100
0001
0000
0001
0100
1000
1000
,
0001
0000
0000
0001
0000
0000
0010
0000
0100
0000
0100
0000
1000
0000
0001
0000
,
1000
0010
0001
0010
1000
0100
0010
0001
,
1000
0000
0001
0000
0001
0000
0000
0000
0000
0000
0001
0000
1000
0001
1000
0001
,
1000
1000
0100
0100
1000
0010
0100
0001
,
0010
0000
0000
0010
0000
0000
0001
0100
0010
0000
1000
0000
1000
0000
0001
0000
,
1000
0100
0001
0100
1000
0001
1000
0010
,
0100
0000
0000
0100
0000
0000
0100
0001
1000
0000
1000
0000
1000
0000
0000
0000
,
1100
1000
0001
1000
0010
1000
0001
0000
,
1000
0000
0000
0001
0000
0000
0100
0000
0100
0000
0100
0000
0100
0001
1000
0000
,
0100
0100
0010
0100
1000
0001
1000
0010
,
0100
0000
0001
0000
0001
0000
1000
0001
0010
0000
0010
0000
0010
0100
1000
0000
,
1100
1000
0001
1000
0010
0010
0010
0000
,
1010
0000
1000
0001
0000
0001
0001
0100
,
0010
1000
0100
0000
0100
0010
0100
1000
,
0010
0000
0100
0000
0001
0000
0010
0100
0010
0000
0100
0000
0010
0100
0010
0001
,
0010
0001
0100
1000
0100
0100
0100
0000
,
0001
0000
0000
1000
0000
0000
0001
0000
0010
0000
0000
0001
0000
0000
1000
0000
,
0100
0100
0100
0000
1000
0001
0000
0101
,
0000
0000
0110
0000
0000
0000
1010
0000
0000
0000
1001
0000
0001
1000
0001
0100
,
0001
0100
0010
1000
0100
0100
0110
0000
,
0010
0001
0010
0000
0110
0000
0000
0100
1000
0100
0000
0010
0100
0000
1000
0000
,
0001
0000
0001
0000
0001
0000
0000
0100
0010
0000
0000
0000
0000
0000
1000
0000
,
0100
0000
0100
0000
0100
0000
0000
0010
0000
0010
0000
0001
0100
0010
1000
0000
,
1000
1000
1000
0100
0001
0001
1001
0000
,
0001
1000
0001
0000
0100
0000
0000
0000
1000
0001
0000
0001
1000
0000
0100
0000
,
0010
0000
0010
0000
0010
0000
0000
0000
0001
0000
0100
0000
0001
1000
0100
0000
,
0100
0000
0010
0000
0001
0000
0100
0010
0100
1000
0100
0001
0010
0100
0010
0001
,
0100
0000
0000
0000
;

//---------------dance-single - ----------------
#NOTES:
     dance-single:
     :
     Medium:
     6:
     0.394,0.398,0.166,0.000,0.044:
0000
0000
0000
0000
,
0000
0000
0000
0000
,
0000
0000
0000
0000
,
0000
0000
0000
0000
,
0000
0000
0000
0000
,
1000
0100
1000
0000
0001
0100
0101
0000
,
0001
0000
0000
0001
0000
0000
0001
0000
1000
0000
0000
1000
0000
0000
1000
0000
,
0100
0010
0100
0000
0000
0000
0000
1000
,
0010
1000
0001
0000
0100
0100
0100
0000
,
0001
0010
0001
0000
1000
0010
1010
0000
,
1000
0000
0000
1000
0000
0000
1000
0000
0001
0000
0000
0001
0000
0000
0001
0000
,
0100
0010
0100
0000
0000
0001
0000
0010
,
0000
0100
0000
1000
0100
0010
0100
1000
,
0001
0000
0001
0000
0100
0010
1000
0000
,
0100
0100
0010
0010
,
0001
1000
0001
0000
1000
0001
1000
0000
,
1001
1000
0100
0010
,
0001
0100
0010
0000
0010
0100
0001
0000
,
0010
0100
1000
0010
,
1000
0100
0010
0001
0010
0000
0100
1000
,
0000
1000
0001
0000
0100
0001
0100
0000
,
0001
0100
0001
1000
0001
0010
0001
0000
,
0010
0000
0100
0000
1000
0010
0010
0000
,
1000
0100
0001
0100
1000
0100
0010
0000
,
0001
0001
0100
0100
,
0010
1000
0100
1000
0001
0100
1000
0000
,
0100
0000
0001
0000
0010
0000
0001
0100
,
0001
0010
0100
0010
0001
0000
1000
0001
,
0000
0001
1000
0000
0100
0010
0100
1000
,
0001
1000
0001
0000
0100
0010
0110
0000
,
1010
0000
1000
0100
0000
0010
0001
0000
,
0011
0000
0001
0000
1000
0000
0000
0000
0010
0000
0000
1000
0000
0000
0010
0000
,
0100
0001
1000
0001
0010
0010
0000
0000
,
0010
0001
0100
0000
0010
1000
1100
0000
,
1000
0000
0000
1000
0000
0000
0010
0000
0100
0000
0000
0100
0000
0000
0001
0000
,
1000
0010
0100
0000
0001
0100
0000
0110
,
0000
1010
0000
1100
0000
0100
0010
0001
,
0100
0010
1000
0100
0010
0001
1001
0000
,
1000
1000
1000
0000
0001
0001
0001
0000
,
1001
0001
1000
0000
1000
0010
1000
0000
,
1010
1000
0001
0000
0001
0010
0001
0000
,
0001
0001
0100
0100
0010
0010
1001
0000
,
1000
0100
1000
0000
0001
0100
0001
1000
,
0001
0000
0001
0000
0001
0000
0000
0000
0001
0000
0000
0010
0000
0000
0100
0000
,
1000
0010
0100
0001
0010
0100
1000
0001
,
1001
0000
0000
0000
;

//---------------dance-single - ----------------
#NOTES:
     dance-single:
     :
     Easy:
     3:
     0.243,0.299,0.133,0.000,0.000:
0000
0000
0000
0000
,
0000
0000
0000
0000
,
0000
0000
0000
0000
,
0000
0000
0000
0000
,
0000
0000
0000
0000
,
0010
0010
0100
0100
,
1000
0001
1000
0001
,
1001
1000
0000
0000
,
1001
0001
0000
0000
,
1000
0010
0100
0001
,
0010
0100
1000
0001
,
0011
0000
0001
0000
0000
0001
0000
1000
,
0000
0010
0000
1000
0000
0000
0100
0000
,
0010
0001
1000
0001
,
0010
0000
0010
0000
,
0100
1000
0010
1000
,
0100
0000
0100
0000
,
0010
0001
0100
0001
,
0010
0000
0010
0000
,
0100
0000
1000
0000
0010
0000
0000
0100
,
0000
0001
1000
0001
,
1001
1000
0010
0100
,
0001
0001
0010
0010
,
0100
1000
0100
0010
,
0001
0001
0100
0100
,
1000
0100
0001
0010
,
0100
0100
1000
1000
,
0010
1000
0100
0010
,
1001
0100
1001
0010
,
1000
1000
0100
1100
,
1000
0000
0000
0100
0000
0000
0001
0000
,
0100
1000
0000
1000
,
0010
0100
0001
0001
,
0010
0100
0010
0011
,
0001
0000
1000
0000
,
0010
0000
1000
0000
0000
0100
0000
0001
,
0000
0100
0000
1000
0000
0001
0000
0000
,
0101
0001
1000
0100
,
1100
0000
1000
0001
,
0100
0100
0000
0001
,
0010
0010
0100
0100
,
1000
0001
1000
1001
,
1000
1000
0100
0100
,
0010
0001
0100
0010
,
1000
0100
0001
0100
,
1001
0000
0000
0000
;

//---------------dance-single - ----------------
#NOTES:
     dance-single:
     :
     Beginner:
     1:
     0.131,0.199,0.089,0.000,0.000:
0000
0000
0000
0000
,
0000
0000
0000
0000
,
0000
0000
0000
0000
,
0000
0000
0000
0000
,
0000
0000
0000
0000
,
1000
0000
1000
0000
,
0001
0000
0001
0000
,
1000
1000
0000
0000
,
0001
0001
0000
0000
,
0010
0000
0010
0000
,
0100
0000
0100
0000
,
1000
1000
0000
0000
,
0001
0000
0001
0000
,
1001
0000
0000
0000
,
1000
0000
1000
0000
,
0100
0000
0000
0000
,
0010
0000
0010
0000
,
0001
0000
0000
0000
,
0001
0000
0001
0000
,
0100
0000
0000
0000
,
0100
0000
0010
0000
,
1001
0000
0000
0000
,
1000
0000
1000
0000
,
0100
0000
0000
0000
,
0010
0000
0010
0000
,
0001
0000
0001
0000
,
1000
0000
1000
0000
,
0010
0000
0010
0000
,
1001
0000
1001
0000
,
1001
0000
1000
1000
,
0000
0000
0000
0000
,
0001
0001
0000
0000
,
1000
1000
0000
0000
,
0001
0000
0010
0010
,
0000
0000
0000
0000
,
0100
0100
0000
0000
,
1000
0000
1000
0000
,
1001
0000
1000
1000
,
1000
0000
1000
0000
,
0010
0010
0000
0000
,
0100
0100
0000
0000
,
1001
0000
0001
0001
,
0001
0000
1000
0000
,
0010
0010
0000
0000
,
1000
0000
1000
0000
,
1001
0000
0000
0000
;

//---------------dance-double - ----------------
#NOTES:
     dance-double:
     :
     Hard:
     8:
     0.537,0.597,0.221,0.000,0.315:
00000000
00000000
00000000
00000000
,
00000000
00000000
00000000
00000000
,
00000000
00000000
00000000
00000000
,
00000000
00000000
00000000
00000000
,
00000000
00000000
00000000
00000000
00000000
00000000
00000000
00001000
,
00010000
00001000
01000000
00010000
10000000
10000000
11000000
00000000
,
10000000
00000000
00000000
10000000
00000000
00000000
01000000
00000000
00010000
00000000
00000000
00010000
00000000
00000000
00001000
00000000
,
00000100
00000000
00000100
00000000
00000100
00000000
00000000
00000000
00000001
00000000
00000000
00000010
00000000
00000000
00000001
00000000
,
00000100
00000000
00000100
00000000
00000100
00000000
00001000
00010000
00001000
00000000
00001000
00000000
00010000
00001000
00010000
00001000
,
00010000
01000000
10000000
01000000
00010000
00010000
01010000
00000000
,
00010000
00000000
00000000
00010000
00000000
00000000
01000000
00000000
10000000
00000000
00000000
10000000
00000000
00000000
00100000
00000000
,
01000000
01000000
01000000
00000000
00010000
00100000
00000000
00110000
,
00000000
00000000
00000000
00011000
00000000
00000000
00000000
00000000
00000000
00001010
00000000
00000000
00000000
00000000
00000000
00001000
00000001
00001000
00000001
00001000
00000000
00000000
00000000
00000000
,
00000001
00000100
00001000
00000100
00000001
00000100
00001000
00000000
,
00010000
00000000
00000000
00010000
00000000
00000000
01000000
00000000
10000000
00000000
10000000
00000000
10000000
00000000
00100000
00000000
,
10000000
01000000
00010000
00000000
00000100
00001000
00010000
00000000
,
00001000
00000000
00000000
00001000
00000000
00000000
00000100
00000000
00000001
00000000
00000001
00000000
00000001
00000000
00000100
00000000
,
00001000
00000010
00001000
00000100
00001000
00000010
00001000
00000100
,
00000010
00000000
00000000
00000010
00000000
00000000
00010000
00000000
00100000
00000000
01000000
00000000
10000000
00010000
10000000
00000000
,
10000000
00100000
10000000
01000000
10000000
00100000
10000000
01000000
,
00010000
00000000
00001000
00000000
00001000
00000000
00000000
00000000
00001000
00000000
00010000
00000000
00010000
00001000
00010000
00001000
,
00010000
00100000
10000000
00100000
00010000
00100000
10000000
01000000
,
00010000
00000000
00000000
00010000
00000000
00000000
01000000
10000000
00100000
00000000
00010000
00000000
00001000
00000000
00010000
00000000
,
00001000
00000100
00000010
00000100
00001000
00000100
00000010
00000100
,
00001000
00000000
00000000
00010000
00000000
00000000
00000100
00000010
00000001
00000000
00000100
00000000
00000100
00000000
00000100
00000000
,
00000001
00000010
00001000
00000010
00000001
00000010
00001000
00010000
,
00100000
00000000
00000000
00100000
00000000
00000000
00100000
00000000
10000000
00000000
01000000
00000000
00100000
00001000
00010000
00000000
,
00000100
00000010
00000001
00000010
00000100
00000010
00000001
00000100
,
00001000
00000000
00011000
00000000
00011000
00000000
00010000
00001000
00000010
00000000
00001001
00000000
00000001
00001000
00000001
00000100
,
00001000
00010000
01000000
10000000
01000000
01000000
10010000
00000000
,
10100000
00000000
00010000
00110000
00000000
00011000
00011000
00001000
,
00010000
00000100
00000010
00000000
00001001
00000000
00000000
00010000
,
00001000
00000000
01000000
00000000
00100000
00000000
10000000
01000000
00100000
00000000
00010000
00000000
00100000
00001000
00010000
00000100
,
00001000
00000010
00000100
00000001
00000010
00000010
00001001
00000000
,
00000001
00000000
00000000
00000010
00000000
00000000
00000100
00000000
00010000
00000000
00000000
01000000
00000000
00000000
00100000
00000000
,
00010000
01000000
10000000
00000000
10000000
01000000
00000000
01010000
,
00000000
00000000
00011000
00000000
00000000
00000000
00001100
00000000
00001000
00000000
00000001
00000000
00000100
00000010
00001000
00000001
,
00000100
00001000
00010000
00100000
10000000
10000000
11000000
00000000
,
10000000
00100000
00010000
00000000
00001000
00000000
00000000
00010000
00001000
00010000
00000000
00001000
00000010
00000001
00001000
00000001
,
00000100
00000000
00001000
00000000
00010000
00000000
01000000
10000000
01000000
00000000
00000000
00000000
01000000
00100000
01000000
00000000
,
00010000
00000000
00001000
00000000
00000100
00000000
00000001
00000010
00000001
00001000
00000001
00000100
00000010
00010000
00001000
00010000
,
01000000
10000000
01000000
00010000
00001000
00001000
00011000
00000000
,
00010000
00000100
00001000
00000000
00001000
00000010
00000000
00000100
00000001
00000100
00000000
00000010
00000100
00000000
00001000
00000000
,
00010000
00000000
00010000
00000000
00010000
00000000
00000000
00000000
01000000
00000000
10000000
00000000
00000000
01000000
10000000
00000000
,
00100000
00000000
10000000
00000000
01000000
00000000
00100000
00010000
01000000
00100000
10000000
01000000
00010000
00001000
00000100
00001000
,
00010000
00000000
00000000
00000000
;

//---------------dance-double - ----------------
#NOTES:
     dance-double:
     :
     Medium:
     6:
     0.397,0.398,0.111,0.000,0.089:
00000000
00000000
00000000
00000000
,
00000000
00000000
00000000
00000000
,
00000000
00000000
00000000
00000000
,
00000000
00000000
00000000
00000000
,
00000000
00000000
00000000
00000000
00000000
00000000
00000000
00001000
,
00010000
01000000
10000000
00000000
10000000
01000000
00010000
00000000
,
00001000
00000000
00000000
00001000
00000000
00000000
00001000
00000000
00000100
00000000
00000000
00000100
00000000
00000000
00000100
00000000
,
00000001
00000000
00000010
00000000
00000001
00000000
00000000
00000000
00000100
00000000
00000000
00000010
00000000
00000000
00001000
00000000
,
00000010
00001000
00000010
00000000
00001000
00000000
00001000
00000000
,
00001000
00000100
00000001
00000000
00000001
00000100
00001000
00000000
,
00010000
00000000
00000000
00010000
00000000
00000000
00010000
00000000
01000000
00000000
00000000
01000000
00000000
00000000
01000000
00000000
,
00010000
10000000
00010000
00000000
10000000
01000000
00000000
11000000
,
00000000
01010000
00000000
00011000
00000000
00010000
00000100
00001000
,
00000001
00000100
00000001
00000000
00001000
00000100
00001000
00000000
,
00000100
00000000
00000000
00000100
00000000
00000000
00000000
00000000
00000000
00010000
00000000
00000000
00010000
00000000
00000000
00000000
,
00001000
00010000
00001000
00000000
00100000
00010000
00100000
00000000
,
00100000
00000000
00000000
00100000
00000000
00000000
00000000
00000000
00000000
00001000
00000000
00000000
00001000
00000000
00000000
00000000
,
00010000
00001000
00010000
00000000
00001000
00010000
00001000
00000000
,
00000100
00000000
00000000
00000100
00000000
00000000
00000000
00000000
00000000
00000010
00000000
00000000
00000010
00000000
00000000
00000000
,
00001000
00000001
00001000
00000100
00001000
00000000
00000001
00000100
,
00000000
00000100
00001000
00000000
00001000
00010000
00001000
00010000
,
01000000
10000000
00100000
00000000
01000000
00010000
00100000
00000000
,
00100000
00000000
00000000
00001000
00000000
00000000
00010000
00000000
00000100
00000000
00001000
00000000
00000010
00000000
00000000
00000000
,
00001000
00000100
00000010
00000000
00000001
00000100
00000010
00000000
,
00000010
00000000
00000000
00010000
00000000
00000000
00001000
00000000
01000000
00000000
00010000
00000000
01000000
00000000
00000000
00000000
,
01000000
10000000
00010000
00000000
00010000
10000000
01000000
00000000
,
01000000
00000000
00000000
00001000
00000000
00000000
00010000
00000000
00000010
00000000
00000100
00000000
00000001
00000000
00001000
00000000
,
00000100
00000010
00000100
00001000
00000001
00001000
00000100
00000010
,
00000100
00001000
00001000
00000000
01000000
00010000
00010000
00001000
,
00000100
00001000
00010000
00000000
01000000
00010000
00001000
00000000
,
00011000
00000000
00010000
00000100
00000000
00000100
00000100
00000000
,
00000010
00000001
00000100
00000000
00001000
00000000
00010000
10000000
,
00100000
00010000
01000000
00000000
00100000
10000000
01000000
00000000
,
00010000
00001000
00000010
00000000
00001000
00010000
00100000
00000000
,
10000000
00000000
00000000
00100000
00000000
00000000
01000000
00000000
00001000
00000000
00000000
00000100
00000000
00000000
00000010
00000000
,
00001000
00000001
00001000
00000000
00000001
00000100
00000000
00001001
,
00000000
00001100
00000000
00011000
00000000
00010000
00001000
00000000
,
00010000
01000000
10000000
01000000
00010000
01000000
10000000
00000000
,
10010000
01000000
00010000
00000000
00001000
00000100
00000001
00000100
,
00001000
00001000
00001000
00000000
00010000
00000000
00000000
01000000
,
00010000
00010000
00010000
00000000
01000000
00010000
00100000
00000100
,
00001000
00000100
00000001
00000100
00001000
00000100
00000001
00000000
,
00001001
00000010
00001000
00000000
00010000
00100000
10000000
00000000
,
10000000
01000000
00100000
00000000
00100000
00001000
00000000
00010000
,
00000100
00000010
00000001
00000100
00001000
00010000
01000000
00010000
,
00011000
00000000
00000000
00000000
;

//---------------dance-double - ----------------
#NOTES:
     dance-double:
     :
     Easy:
     3:
     0.231,0.299,0.155,0.000,0.000:
00000000
00000000
00000000
00000000
,
00000000
00000000
00000000
00000000
,
00000000
00000000
00000000
00000000
,
00000000
00000000
00000000
00000000
,
00000000
00000000
00000000
00000000
,
00010000
01000000
10000000
10010000
,
00000000
00000000
00000000
00000000
,
10000000
00010000
00000000
00000000
,
00001000
00000001
00000000
00000000
,
00001000
00000100
00000001
00001001
,
00000000
00000000
00000000
00000000
,
00000001
00000000
00000100
00000000
00000000
00001000
00000000
00000010
,
00000000
00010000
00000000
00001000
00000000
00000000
00011000
00000000
,
00010000
01000000
10000000
00100000
,
01000000
00000000
01000000
01000000
,
00010000
00100000
00001000
00010000
,
00000010
00000000
00000010
00000000
,
00001000
00000001
00001000
00000100
,
00000001
00000000
00000001
00000000
,
00000001
00001000
00000001
00000100
,
00001000
00001100
00100000
00110000
,
00010000
01000000
10000000
01000000
,
00010000
00100000
10000000
00100000
,
00001000
00010000
00000100
00000010
,
00000001
00001000
00000100
00000100
,
00001000
00000010
00000001
00000010
,
00001000
00000100
00000010
00000001
,
00000100
00001000
00010000
01000000
,
10000000
10010000
00010000
10010000
,
10000000
00100000
00010000
10010000
,
00010000
00000000
00000000
10000000
00000000
01000000
01000000
00000000
,
01000000
00001000
00000000
00000000
,
00001000
00010000
00000000
00000000
,
00010000
00000010
00000001
00001001
,
00000000
00000000
00000000
00000000
,
00000001
00000010
00000000
00000000
,
00000010
00001000
00010000
01000000
,
00100000
10000000
01000000
01100000
,
01000000
10010000
00001000
00011000
,
00010000
00000100
00000100
00000000
,
00000010
00000001
00000100
00000010
,
00001000
00000100
00000010
00000110
,
00000001
00000100
00001000
00010000
,
01000000
10000000
00100000
01000000
,
00001000
00010000
00000100
00010000
,
00011000
00000000
00000000
00000000
;

//---------------dance-solo - ----------------
#NOTES:
     dance-solo:
     :
     Hard:
     8:
     0.537,0.573,0.321,0.000,0.282:
000000
000000
000000
000000
,
000000
000000
000000
000000
,
000000
000000
000000
000000
,
000000
000000
000000
000000
,
000000
000000
000000
000000
000000
000000
000000
010000
,
001000
100000
001000
000100
000001
000001
100001
000000
,
000001
000000
000000
000001
000000
000000
001000
000000
000100
000000
000000
000100
000000
000000
010000
000000
,
001000
000000
001000
000000
001000
000000
000000
000000
001000
000000
000000
000100
000000
000000
000010
000000
,
001000
000000
001000
000000
001000
000000
000001
010000
000001
000000
100000
000000
000010
010000
001000
000100
,
000001
001000
000100
001000
000001
000001
100001
000000
,
000001
000000
000000
001000
000000
000000
000100
000000
000100
000000
000000
010000
000000
000000
000010
000000
,
001000
001000
001000
000000
001000
000010
000000
001010
,
000000
000000
000000
011000
000000
000000
000000
000000
000000
100001
000000
000000
000001
000000
000000
100000
000001
100000
000010
100000
000000
000000
000000
000000
,
100000
001000
000100
000001
010000
000010
001000
000100
,
100000
000000
000000
100000
000000
000000
001000
000000
000100
000000
000100
000000
000100
000000
000001
000000
,
001000
000100
100000
001000
000001
001000
100010
000000
,
100000
000000
000000
100000
000000
000000
000100
000000
001000
000000
001000
000000
001000
000000
000001
000000
,
100000
001000
000100
000001
010000
010000
010000
000010
,
001000
000000
000000
001000
000000
000000
000001
000000
100000
000000
000001
000000
010000
000000
001000
000000
,
000001
001000
100000
001000
000010
001000
010000
000000
,
001000
000000
010010
000000
010010
000000
000000
000000
001000
000000
100001
000000
000001
001000
000100
100000
,
000010
001000
000001
000100
001000
010000
000100
100000
,
001000
000000
000000
001000
000000
000000
100000
000001
010000
000000
000010
000000
000100
000000
000010
000000
,
100000
001000
000100
001000
100000
001000
000001
001000
,
100000
000000
000000
100000
000000
000000
001000
100000
010000
000000
010000
000000
001000
000000
000000
000000
,
000001
000100
001000
010000
000100
001000
000010
000100
,
000010
000000
000000
000010
000000
000000
001000
000000
000001
000000
000100
000000
000010
010000
001000
000000
,
000001
001000
100000
001000
000010
001000
010000
000100
,
001000
000000
100001
000000
100001
000000
100000
001000
000100
000000
100001
000000
000001
100000
001000
000000
,
100000
001000
000001
001000
000010
000010
001010
000000
,
001010
000000
001000
001100
000000
100001
100001
100000
,
000010
000000
000010
000000
001000
000000
000000
000000
001000
000000
000000
001000
000000
000000
001000
000000
,
000001
000000
000001
000000
000001
000000
100000
000001
010000
000000
010000
000000
000001
100000
000001
000100
,
001000
100000
001000
000010
000001
000001
001001
000000
,
000001
000000
000000
001000
000000
000000
000100
000000
100000
000000
000000
001000
000000
000000
000100
000000
,
000001
001000
010100
000000
000100
010000
000000
010100
,
000010
000000
000110
000000
000000
000000
000110
000000
000010
000000
100000
000000
001000
000100
000001
001000
,
010000
001000
000010
001000
000100
000100
010010
000000
,
010000
000010
010000
000000
010010
000000
000000
000010
000000
010000
000000
000010
010000
000000
001000
000000
,
010000
000000
000010
000000
000100
000000
000000
000100
001000
000000
000000
000000
001000
100000
000001
000000
,
001000
000000
000100
000000
100001
000000
000001
001000
010000
000000
010000
001000
000010
100000
001000
000100
,
000001
001000
100000
001000
000010
000010
010010
000000
,
010000
000100
000001
000000
000100
000000
000000
100000
000000
001000
000000
000100
000010
000000
100000
000000
,
001000
001000
001000
000000
001000
000100
000000
000110
,
000000
000000
010100
000000
000000
000000
010000
000100
001000
000010
000100
000001
000100
001000
100000
000001
,
100001
000000
000000
000000
;

//---------------dance-solo - ----------------
#NOTES:
     dance-solo:
     :
     Medium:
     6:
     0.420,0.448,0.221,0.000,0.072:
000000
000000
000000
000000
,
000000
000000
000000
000000
,
000000
000000
000000
000000
,
000000
000000
000000
000000
,
000000
000000
000000
000000
,
100000
001000
000100
000000
000001
001000
000100
000000
,
100000
000000
000000
100000
000000
000000
001000
000000
000001
000000
000000
000001
000000
000000
001000
000000
,
010000
010000
010000
000000
000000
000000
000000
001000
,
000010
000010
000010
000000
001000
100000
000001
100000
,
000010
001000
100000
000000
100000
001000
000010
000000
,
000001
000000
000000
000001
000000
000000
000100
000000
100000
000000
000000
100000
000000
000000
001000
000000
,
000100
000100
000100
000000
000100
000001
000000
000101
,
000000
100100
000000
100001
000000
100000
001000
000000
,
001000
100000
000001
000000
001000
000001
100000
000000
,
100000
000000
000000
100000
000000
000000
000000
000000
000000
100000
000000
000000
100000
000000
000000
000000
,
100000
000001
000100
000000
000001
100000
000100
000000
,
100000
000000
000000
100000
000000
000000
000000
000000
000000
100000
000000
000000
100000
000000
000000
000000
,
100000
000010
001000
000000
000001
010000
001000
000000
,
100000
000000
000000
100000
000000
000000
000000
000000
000000
100000
000000
000000
100000
000000
000000
000000
,
100000
001000
000010
000000
000001
001000
010000
010000
,
000000
010000
010000
000000
000000
001000
001000
000000
,
000001
100000
000001
001000
100000
001000
000001
000000
,
100000
000001
100000
001000
000001
001000
100000
000000
,
000001
010000
000001
001000
010000
001000
000001
000000
,
100000
000010
100000
001000
000010
001000
100000
000000
,
000001
100000
000001
000100
100000
000100
000001
000000
,
100000
000001
100000
000100
000001
000100
100000
000001
,
100000
001000
000100
000001
001000
000100
010000
000010
,
010000
000100
000100
001000
000001
000100
000100
001000
,
100000
001000
000001
000000
000001
001000
100000
000000
,
101000
000000
000001
001000
000000
000100
000100
000000
,
100000
000000
000100
000000
001000
000000
000000
000000
001000
000000
000000
001000
000000
000000
001000
000000
,
000001
000100
001000
000000
001000
001000
001000
000000
,
100000
000100
000001
000000
000001
000100
010000
000000
,
010000
000000
000000
010000
000000
000000
001000
000000
000010
000000
000000
000010
000000
000000
001000
000000
,
100000
100000
001000
000000
001000
000001
000000
001001
,
000000
101000
000000
100001
000000
100000
001000
000100
,
000001
001000
100000
001000
000010
000010
010010
000000
,
010010
001000
100001
000000
100001
001000
010010
000000
,
010000
000100
001000
000001
000100
000000
000100
000001
,
001000
100000
001000
000001
100000
100000
001000
100000
,
000001
000100
100000
000100
000010
000010
010010
000000
,
010100
001000
000110
000000
001010
000100
011000
010000
,
000001
000001
001000
000000
001000
000100
000000
001100
,
000000
100001
000000
001000
000001
100000
001000
000100
,
100001
000000
000000
000000
;

//---------------dance-solo - ----------------
#NOTES:
     dance-solo:
     :
     Easy:
     3:
     0.221,0.274,0.111,0.000,0.011: // measure 1
000000
000000
000000
000000
,  // measure 2
000000
000000
000000
000000
,  // measure 3
000000
000000
000000
000000
,  // measure 4
000000
000000
000000
000000
,  // measure 5
000000
000000
000000
000000
,  // measure 6
100000
001000
000100
100001
,  // measure 7
000000
000000
000000
000000
,  // measure 8
100000
100000
001000
000100
,  // measure 9
000001
000001
001000
000100
,  // measure 10
100000
000100
001000
100001
,  // measure 11
000000
000000
000000
000000
,  // measure 12
100000
000000
001000
000000
000000
001000
000000
100000
,  // measure 13
000000
000001
000000
001000
000000
000000
001000
000000
,  // measure 14
000001
001000
000100
001000
,  // measure 15
000001
000000
000000
000001
,  // measure 16
100000
001000
000100
001000
,  // measure 17
100000
000000
000000
100000
,  // measure 18
000100
001000
000001
000001
,  // measure 19
100000
000000
000000
100000
,  // measure 20
000010
001000
000100
100000
,  // measure 21
000000
010000
000000
010000
,  // measure 22
100000
001000
000100
000010
,  // measure 23
001000
000000
000100
100001
,  // measure 24
100000
000001
001000
000010
,  // measure 25
001000
000000
100000
001000
,  // measure 26
000001
100000
000001
001000
,  // measure 27
000100
000000
000100
000000
,  // measure 28
100000
001000
000100
000001
,  // measure 29
100000
000001
010000
001000
,  // measure 30
001000
100000
000010
001100
,  // measure 31
100001
000000
000000
100000
000000
000001
000001
000000
,  // measure 32
100000
001000
000000
000000
,  // measure 33
000001
001000
000000
000000
,  // measure 34
001000
000100
100000
001100
,  // measure 35
100001
000000
100000
000000
,  // measure 36
001000
000000
000100
000000
000000
000010
000000
001000
,  // measure 37
000000
000100
000000
100000
000000
000000
100001
000000
,  // measure 38
000010
001000
010000
011000
,  // measure 39
001000
000000
100001
000001
,  // measure 40
100000
001000
000000
100000
,  // measure 41
000001
001000
001000
001000
,  // measure 42
000001
000000
000000
010000
000000
000000
000010
000000
000100
000000
000100
000000
,  // measure 43
000000
000100
001000
000000
,  // measure 44
010000
000000
001000
000000
000000
000010
000000
001000
,  // measure 45
000000
100000
000000
000001
000000
001000
000000
000100
,  // measure 46
000100
000000
000000
000000
;

//---------------dance-solo - ----------------
#NOTES:
     dance-solo:
     :
     Beginner:
     1:
     0.095,0.174,0.044,0.000,0.000: // measure 1
000000
000000
000000
000000
,  // measure 2
000000
000000
000000
000000
,  // measure 3
000000
000000
000000
000000
,  // measure 4
000000
000000
000000
000000
,  // measure 5
000000
000000
000000
000000
,  // measure 6
100000
000000
100000
000000
,  // measure 7
000000
000000
000000
000000
,  // measure 8
000001
000000
000000
000000
,  // measure 9
000001
000000
000000
000000
,  // measure 10
000001
000000
000001
000000
,  // measure 11
000000
000000
000000
000000
,  // measure 12
100000
000000
000000
000000
,  // measure 13
100000
000000
100000
000000
,  // measure 14
100001
000000
000000
000000
,  // measure 15
000000
000000
000000
000000
,  // measure 16
000010
000000
000000
000000
,  // measure 17
000000
000000
000000
000000
,  // measure 18
100000
000000
100000
000000
,  // measure 19
000000
000000
000000
000000
,  // measure 20
000010
000000
000010
000000
,  // measure 21
000100
000000
000000
000000
,  // measure 22
001000
000000
001000
000000
,  // measure 23
000000
000000
000000
000000
,  // measure 24
100000
000000
100000
000000
,  // measure 25
000000
000000
000000
000000
,  // measure 26
000001
000000
000001
000000
,  // measure 27
000000
000000
000000
000000
,  // measure 28
010000
000000
010000
000000
,  // measure 29
000100
000000
000000
000000
,  // measure 30
100001
000000
100000
000000
,  // measure 31
000001
000000
000000
000000
,  // measure 32
000001
000000
000000
000000
,  // measure 33
100000
000000
000000
000000
,  // measure 34
001100
000000
001000
000000
,  // measure 35
000100
000000
000100
000000
,  // measure 36
000001
000000
000000
000000
,  // measure 37
001000
001000
001000
000000
,  // measure 38
000010
000010
000010
000010
,  // measure 39
000000
000000
000000
000000
,  // measure 40
100000
100000
000000
000001
,  // measure 41
000001
000000
000000
000000
,  // measure 42
010000
010000
010000
010000
,  // measure 43
000000
000000
000000
000000
,  // measure 44
001000
001000
000000
000000
,  // measure 45
000100
000100
000100
000000
,  // measure 46
100001
000000
000000
000000
;
