#TITLE:Dolphin Talk;
#SUBTITLE:;
#ARTIST:Pyramyth;
#TITLETRANSLIT:;
#SUBTITLETRANSLIT:;
#ARTISTTRANSLIT:;
#GENRE:;
#CREDIT:;
#BANNER:[Round 2] - Dolphin Talk.png;
#BACKGROUND:[Round 2] - Dolphin Talk-bg.png;
#LYRICSPATH:;
#CDTITLE:cdtitle.png;
#MUSIC:[Round 2] - Dolphin Talk.ogg;
#OFFSET:-0.043000;
#SAMPLESTART:34.951756;
#SAMPLELENGTH:17.454544;
#SELECTABLE:YES;
#BPMS:0.000000=110.000000
,32.000000=55.000000
,40.000000=110.000000
,85.000000=55.000000
,87.000000=110.000000
;
#STOPS:51.833332=1.636000,
120.833336=0.545000
;
#BGCHANGES:;
#KEYSOUNDS:;
#ATTACKS:;

//---------------dance-single - ----------------
#NOTES:
     dance-single:
     :
     Challenge:
     10:
     0.654188,0.675670,0.334643,0.818994,0.796978,520.000000,482.000000,38.000000,93.000000,0.000000,0.000000,0.654188,0.675670,0.334643,0.818994,0.796978,520.000000,482.000000,38.000000,93.000000,0.000000,0.000000:
// measure 0
0000
0000
0000
0000
,  // measure 1
0000
0000
0000
0000
,  // measure 2
0000
0000
0000
0000
,  // measure 3
0000
0000
0000
0000
,  // measure 4
0001
0000
0000
0100
0000
0010
1000
0000
1000
0001
0000
0001
1000
0000
0000
2100
0000
0000
3001
0000
0000
0102
0000
0000
,  // measure 5
1003
0000
0000
0100
0000
0010
0001
0000
0001
1000
0000
1000
0001
0000
0100
0001
0000
0100
0010
0000
0100
2000
0000
0000
,  // measure 6
3100
0000
0000
0010
0000
0100
0001
0000
0001
1000
0000
1000
0001
0000
0000
0102
0000
0000
1003
0000
0000
2100
0000
0000
,  // measure 7
3001
0000
0000
1000
0000
0001
0100
0000
0100
0001
0000
0001
0010
0000
0100
1000
0000
0001
0100
0000
0010
0000
0000
1000
,  // measure 8
0002
0010
2003
0100
3002
0010
2003
0100
,  // measure 9
3020
1000
0230
0001
0320
1000
0230
0001
,  // measure 10
0301
0000
0100
0010
0000
0000
0100
0000
0000
0001
0000
0000
1000
0000
0100
0010
0000
0000
0100
0000
0000
1000
0000
0000
,  // measure 11
0010
0000
0100
0001
0000
0000
1000
0000
0000
0001
0000
0000
0010
0000
0100
1000
0000
0000
0001
0000
0000
1000
0000
0001
,  // measure 12
0100
0000
0100
0010
0000
0010
1000
0000
1000
0100
0000
0100
0010
0000
0010
0001
0000
0001
0100
0000
0100
0010
0000
0010
,  // measure 13
1002
0000
0000
1003
0000
0010
0200
0000
0000
0000
0000
0000
0310
0000
0010
1000
0000
1000
0200
0000
0000
0302
0000
0000
,  // measure 14
0103
0000
0010
0001
0000
0001
0020
0000
0000
0130
1000
0001
0100
0000
0100
0010
0000
0010
1000
0000
0000
1001
0000
1000
,  // measure 15
0100
0000
0000
0010
0000
0000
0210
0000
0000
0000
0000
0000
0310
0000
0010
0001
0000
0001
0200
0000
0000
2300
0000
0000
,  // measure 16
3100
0000
0010
1000
0000
1000
0001
0000
0000
0010
0000
0001
0200
0000
0000
0310
0000
1000
0001
0000
1000
0100
0010
0001
,  // measure 17
0200
0000
0000
0310
0000
0000
2001
0000
0000
0000
0000
0000
3100
0000
0100
1000
0000
1000
0020
0000
0000
0032
0000
0000
,  // measure 18
0013
0000
0100
0010
0000
0010
2000
0000
0000
3010
1000
0001
0010
0000
0100
1000
0000
0001
0100
0000
0000
1001
0000
1000
,  // measure 19
0100
0000
0000
0010
0000
0000
1002
0000
0000
0000
0000
0000
0103
0001
1000
0001
0000
0001
0020
0000
0000
2030
0000
0000
,  // measure 20
3010
0000
0100
0010
0000
0010
0002
0000
0000
1003
0000
1000
0002
0000
0000
1003
0000
1000
0020
0000
0000
0130
0000
0000
,  // measure 21
0110
0000
0000
0000
0000
0000
0000
0000
0000
0000
0000
0000
1001
0000
0000
0000
0000
1000
0100
0000
1000
0100
0000
0010
0000
0000
0001
0000
0000
0200
0000
0000
0310
1000
0000
0000
1001
0000
0000
0000
1000
0000
0010
0000
0000
0000
0100
0000
,  // measure 22
0001
0000
1000
0100
0000
0010
0100
0000
0001
0100
0000
0010
0100
0000
1000
0020
0000
0000
0230
0000
0000
0001
0000
0000
,  // measure 23
0310
0000
1000
0000
0000
0100
0000
0000
0100
0000
0000
0010
0001
0100
0010
1000
0000
0001
0020
0000
0000
0031
0000
0001
,  // measure 24
2000
0000
0000
3001
0000
0001
0200
0000
0000
0310
0000
1000
0100
0000
0010
0001
0000
0000
1002
0000
0000
0000
0000
0000
,  // measure 25
1003
0000
1000
0010
0000
0000
0100
0000
0001
1000
0000
0100
0010
0000
0001
0100
0000
0010
2000
0000
0000
0000
0000
0000
,  // measure 26
3020
0000
0000
0100
0000
0000
0230
0000
0000
0000
0000
0000
0301
0000
0010
0100
0000
0010
0001
0000
0000
0001
0000
0000
,  // measure 27
1000
0000
0100
1000
0000
0100
0000
0000
0010
0000
0000
0010
0001
0000
0100
0001
0000
0100
0000
0000
0010
0000
0000
0010
,  // measure 28
0100
0000
0001
0100
0000
0001
0000
0000
0010
0000
0000
0010
0100
0000
1000
0100
0000
1000
0010
0000
0010
1000
0000
1000
,  // measure 29
0100
0000
0100
0010
0000
0010
0001
0000
0001
0100
0000
0100
0010
0000
0010
1000
0000
1000
0001
0000
0000
1000
0000
0000
,  // measure 30
0001
0000
1000
0001
0000
1000
1000
0100
0010
0001
0000
0001
0200
0000
0000
0010
0000
0000
1300
0000
0100
0001
0000
0001
,  // measure 31
0020
0000
0000
2030
0000
0000
3010
0000
0000
0001
0000
0001
0200
0000
0000
0310
1000
0010
1000
0000
1000
0100
0000
0010
,  // measure 32
0001
0000
0001
0200
0000
0000
2300
0000
0000
3200
0000
0000
0302
0000
0000
0010
0000
0000
1003
0000
1000
0100
0000
0100
,  // measure 33
0002
0000
0203
0000
0320
0030
0002
0003
0101
0000
0000
1010
0000
0000
1001
0000
,  // measure 34
1000
0100
0010
0002
0000
0000
0103
0000
0000
0110
0000
0000
2001
0000
0000
3200
0000
0000
0301
0000
0001
0100
0000
0100
,  // measure 35
2000
0000
0000
3020
0000
0000
0031
0000
0000
0010
0000
0000
2000
0000
0000
3100
0010
0100
0010
0000
0100
1000
0000
1000
,  // measure 36
0010
0000
0010
0001
0000
0001
0020
0000
0000
2030
0000
0000
3200
0000
0000
0001
0300
0100
0010
0000
0010
0001
0000
0001
,  // measure 37
0200
0000
0000
2300
0000
0000
3200
0000
0000
0302
0000
0000
2003
0000
3200
0000
0302
0000
2003
0000
3020
0000
0032
0000
,  // measure 38
0203
0000
0310
0000
0000
1001
0000
0000
0100
0010
0000
0000
1002
0000
0000
0000
0000
0000
0013
0000
0010
0001
0000
0001
,  // measure 39
0100
0000
0000
1010
0000
0000
0101
0000
0000
1002
0000
0000
2003
0000
0000
3100
0010
0100
0010
0000
0001
1000
0000
0010
,  // measure 40
0200
0000
0000
0000
0000
0000
0310
0000
0000
0110
0000
0000
2001
0000
0000
0000
0000
0000
3001
0000
1000
0001
0000
1000
,  // measure 41
0001
0011
1100
0101
1020
0000
0230
0001
,  // measure 42
0302
0000
0000
1003
0000
1000
0002
0000
0000
0013
0000
0000
2002
0000
3003
0000
0000
1000
0010
0000
1000
0010
0000
1000
,  // measure 43
0100
0000
0000
0011
0000
0000
1100
0000
0000
0000
0000
0000
2002
0000
3003
0000
0000
0001
0010
0000
0001
0010
0000
0001
,  // measure 44
0100
0000
0000
0000
0000
0000
0001
0000
0000
1000
0000
0000
2002
0000
3003
0000
0000
1000
0100
0000
1000
0100
0000
0010
,  // measure 45
0001
0000
0000
1010
0000
0000
0101
0000
0000
0000
0000
0000
2000
0000
0000
0000
3000
0001
1000
0000
0001
1000
0000
0001
,  // measure 46
0000
0000
0000
0000
0000
0000
0100
0010
0100
0000
0000
0000
2002
0000
0000
0000
3003
0000
0000
0000
0000
0000
0000
0000
0000
0000
0000
0000
0000
0000
0000
0000
;

//---------------dance-single - ----------------
#NOTES:
     dance-single:
     :
     Hard:
     9:
     0.524609,0.511871,0.528383,0.951089,0.277401,417.000000,357.000000,60.000000,108.000000,0.000000,0.000000,0.524609,0.511871,0.528383,0.951089,0.277401,417.000000,357.000000,60.000000,108.000000,0.000000,0.000000:
// measure 0
0000
0000
0000
0000
,  // measure 1
0000
0000
0000
0000
,  // measure 2
0000
0000
0000
0000
,  // measure 3
0000
0000
0000
0000
,  // measure 4
1000
0100
0001
0100
1000
2010
3001
2100
,  // measure 5
3001
0000
0000
0100
0000
0000
1000
0000
0000
0100
0000
0000
0001
0000
0010
0100
0000
0010
0100
0000
0000
2000
0000
0000
,  // measure 6
3001
0100
1000
0100
0001
0012
1003
0102
,  // measure 7
1003
0000
0000
0100
0000
0000
0001
0000
0000
0100
0000
0000
1000
0000
0010
0100
0000
0010
0100
0000
0001
0000
0000
0000
,  // measure 8
1002
0100
2003
0100
3002
0100
2003
0100
,  // measure 9
3002
0010
2003
0010
3002
0010
2003
0010
,  // measure 10
3001
0100
1000
0100
0001
0010
1000
0010
,  // measure 11
0001
0100
1000
0100
0001
0010
1000
0010
,  // measure 12
0001
0000
0100
0001
0000
0000
1000
0000
0100
1000
0000
0000
0001
0000
0010
0001
0000
0000
1000
0000
0010
1000
0000
0000
,  // measure 13
1002
0000
0000
0103
0000
0000
2001
0000
0000
0000
0000
0000
3001
0000
0010
0001
0000
0001
0200
0000
0000
0320
0000
0000
,  // measure 14
0130
0000
0000
1000
0000
0000
0200
0000
0000
0310
0000
0000
1000
0000
0001
0010
0000
0001
1000
0000
0000
1100
0000
0000
,  // measure 15
0101
0000
0000
0000
0000
0000
1002
0000
0000
0000
0000
0000
1003
0000
0010
1000
0000
1000
0200
0000
0000
0320
0000
0000
,  // measure 16
0130
0000
0000
0001
0000
0000
0100
0000
0000
1000
0000
0000
2100
0000
0000
3001
0000
0000
2010
0000
0000
3001
0100
0001
,  // measure 17
0100
0000
0000
0010
0000
0000
1002
0000
0000
0000
0000
0000
1003
0000
0100
1000
0000
1000
0020
0000
0000
0230
0000
0000
,  // measure 18
0310
0000
0000
0001
0000
0000
0020
0000
0000
0130
0000
0000
0001
0000
1000
0100
0000
1000
0001
0000
0000
0011
0000
0000
,  // measure 19
1010
0000
0000
0000
0000
0000
2001
0000
0000
0000
0000
0000
3001
0000
0100
0001
0000
0001
0020
0000
0000
0230
0000
0000
,  // measure 20
0310
0001
1002
0103
2001
3010
2001
3100
,  // measure 21
0210
0000
0000
0000
0000
0000
0000
0000
0000
0000
0000
0000
1300
0000
0000
0000
0000
0000
0001
0000
0000
0000
0000
0100
0000
0000
0010
0000
0000
2000
0000
0000
0000
3001
0000
0000
1001
0000
0000
0000
0000
0000
1000
0000
0000
0000
0000
0000
,  // measure 22
0100
0000
0000
0010
0000
0001
0100
0000
0001
0100
0000
0001
0100
0000
0010
1000
0000
0000
0002
0000
0000
0000
0000
0000
,  // measure 23
0013
0000
0100
0000
0000
0010
0000
0000
0010
0000
0000
0001
1000
0000
0000
0001
0000
0000
0202
0000
0000
0303
0000
0000
,  // measure 24
0220
0330
2010
3001
1001
1001
1200
0000
,  // measure 25
0310
0000
0001
0100
0000
0000
0010
0000
1000
0100
0000
0000
0001
0000
0000
0100
0000
0000
2200
0000
0000
3300
0000
0000
,  // measure 26
1020
1030
2002
3003
0021
0031
2002
3003
,  // measure 27
1000
0100
0020
0130
1000
0010
0002
0013
,  // measure 28
1000
0100
0020
0130
1000
0010
0002
0013
,  // measure 29
0200
0310
0002
0023
0230
0320
2030
0001
,  // measure 30
3002
0000
0000
1000
0000
0003
0100
0000
0000
0010
0000
0000
2001
0000
0000
0000
0000
0000
3100
0000
0010
0001
0000
0001
,  // measure 31
0200
0000
0000
0320
0000
0000
0130
0000
0000
1000
0000
0000
0200
0000
0000
0000
0000
0000
0301
0000
0010
0100
0000
0010
,  // measure 32
0001
0000
0001
1000
0000
0000
0020
0000
0000
2030
0000
0000
3200
0000
0000
0000
0000
0000
0310
0000
0001
1000
0000
0001
,  // measure 33
2000
0000
3002
0000
0103
0000
0010
0000
1010
0000
0000
0101
0000
0000
1001
0000
,  // measure 34
0000
0000
0000
2000
0000
0000
3100
0000
0000
0011
0000
0000
1002
0000
0000
0000
0000
0000
0103
0000
0010
1000
0000
1000
,  // measure 35
0200
0000
0000
0320
0000
0000
0130
0000
0000
0001
0000
0000
0200
0000
0000
0000
0000
0000
1300
0000
0100
1000
0000
1000
,  // measure 36
0010
0000
0100
0001
0000
0001
0020
0000
0000
0032
0000
0000
0203
0000
0000
0000
0000
0000
0310
0000
1000
0001
0000
1000
,  // measure 37
0002
0000
0000
0203
0000
0000
0320
0000
0000
2030
0000
0000
3002
0000
0023
0000
0230
0000
2300
0000
3020
0000
0230
0000
,  // measure 38
0302
0000
1003
0000
0000
1001
0000
0000
0000
0110
0000
0000
1002
0000
0000
0000
0000
0000
1003
0000
0010
1000
0000
1000
,  // measure 39
0100
0000
0000
1100
0000
0000
0101
0000
0000
0002
0000
0000
2000
0000
0000
0003
0000
0000
3001
0000
0010
0100
0000
0010
,  // measure 40
0002
0000
0103
0110
2001
0000
3001
1000
,  // measure 41
0001
0101
1100
1000
2020
3030
2001
3001
,  // measure 42
0012
1003
2010
3001
2002
3003
0001
0001
,  // measure 43
1000
1100
0101
0000
2002
3003
1000
1000
,  // measure 44
0001
0000
0100
0010
2002
3003
1000
1000
,  // measure 45
0001
0000
0000
0011
0000
0000
1010
0000
0000
0000
0000
0000
2000
0000
0000
0000
3000
0000
0001
0000
0000
0001
0000
0000
,  // measure 46
1000
0000
0110
2002
3003
0000
0000
0000
;

//---------------dance-single - ----------------
#NOTES:
     dance-single:
     :
     Medium:
     6:
     0.416416,0.389022,0.317030,0.616447,0.013210,331.000000,295.000000,36.000000,70.000000,0.000000,0.000000,0.416416,0.389022,0.317030,0.616447,0.013210,331.000000,295.000000,36.000000,70.000000,0.000000,0.000000:
// measure 0
0000
0000
0000
0000
,  // measure 1
0000
0000
0000
0000
,  // measure 2
0000
0000
0000
0000
,  // measure 3
0000
0000
0000
0000
,  // measure 4
1000
0100
1000
0100
0010
0002
0103
0002
,  // measure 5
1003
0100
1000
0100
0010
0010
0001
2000
,  // measure 6
3001
0100
0001
0100
0010
2000
3100
2000
,  // measure 7
3001
0100
0001
0100
0010
0010
1000
0000
,  // measure 8
0002
1000
2003
0100
3200
0010
0320
0001
,  // measure 9
0032
0100
0203
0010
0320
1000
2030
0001
,  // measure 10
3001
0100
0001
0100
0001
0010
0001
0010
,  // measure 11
0100
1000
0100
1000
0010
1000
0010
1000
,  // measure 12
0001
0100
1000
0100
0001
0010
1000
0010
,  // measure 13
0002
0003
1002
0000
0013
0001
0100
1000
,  // measure 14
0001
0010
1000
0001
0001
0010
0100
1100
,  // measure 15
0101
0000
2001
0000
3100
1000
0010
0001
,  // measure 16
0010
1000
0100
0000
0012
0000
1003
0001
,  // measure 17
0200
0310
2001
0000
3010
1000
0100
0001
,  // measure 18
1000
0010
0001
1000
1000
0010
0100
0101
,  // measure 19
1100
0000
1002
0000
0103
0001
0010
1000
,  // measure 20
0010
0001
0200
0310
0200
0310
2000
3100
,  // measure 21
2002
0000
3003
0000
1000
0000
0100
0000
0010
0001
0100
0000
1001
0000
1000
0000
,  // measure 22
0100
0001
0001
0001
0100
0020
0032
0000
,  // measure 23
0103
0010
1000
1000
0100
0010
0022
0033
,  // measure 24
0202
0303
0220
0330
1010
1010
2001
0000
,  // measure 25
3100
0010
0001
0100
1000
0100
0002
0000
,  // measure 26
0013
0100
2100
0000
3010
0100
0102
0000
,  // measure 27
1003
0100
0002
0003
0100
1000
0020
0030
,  // measure 28
0001
0010
2000
3000
0100
0010
0002
0103
,  // measure 29
0002
0103
0002
0203
0302
2003
3001
0001
,  // measure 30
1000
1000
0001
0000
2001
0000
3100
0001
,  // measure 31
1000
0001
0100
1000
0002
0100
0103
0010
,  // measure 32
0001
1000
0001
0010
2000
0000
3100
0001
,  // measure 33
0100
0000
1000
0000
0010
0000
0100
0000
0101
0000
0000
1001
0000
0000
1100
0000
,  // measure 34
0000
2000
3001
0020
0032
0000
0103
1000
,  // measure 35
0001
1000
0100
0001
2000
0100
3100
0010
,  // measure 36
1000
0001
1000
0010
0002
0000
0103
1000
,  // measure 37
0100
0001
0010
1000
0020
0000
0032
0000
,  // measure 38
0103
0000
0000
0000
0000
0100
0000
0000
0000
0010
0000
0000
2001
0000
0000
0000
0000
0000
3010
0000
0000
1000
0000
0000
,  // measure 39
0100
0001
1000
0010
0001
0100
0100
0010
,  // measure 40
2000
0000
3100
0001
0200
0000
1300
1000
,  // measure 41
0001
0101
1010
0000
2001
0000
3100
0010
,  // measure 42
0012
0000
0103
0010
2020
3030
1000
0001
,  // measure 43
1000
1100
1100
0000
2002
3003
1000
0010
,  // measure 44
1000
0001
0010
0001
2002
3003
0001
1000
,  // measure 45
0001
0101
0101
0000
0002
0003
1000
0001
,  // measure 46
0000
0000
0010
2002
3003
0000
0000
0000
;

//---------------dance-single - ----------------
#NOTES:
     dance-single:
     :
     Easy:
     4:
     0.250353,0.286648,0.105677,0.475545,0.000000,199.000000,187.000000,12.000000,54.000000,0.000000,0.000000,0.250353,0.286648,0.105677,0.475545,0.000000,199.000000,187.000000,12.000000,54.000000,0.000000,0.000000:
// measure 0
0000
0000
0000
0000
,  // measure 1
0000
0000
0000
0000
,  // measure 2
0000
0000
0000
0000
,  // measure 3
0000
0000
0000
0000
,  // measure 4
0001
1000
0100
0010
,  // measure 5
0001
0000
0100
0000
0010
0000
1000
0002
,  // measure 6
1003
0001
0010
0100
,  // measure 7
1000
0000
0010
0000
1000
0001
1000
0000
,  // measure 8
0002
0023
0230
2300
,  // measure 9
3020
0230
0302
2003
,  // measure 10
3001
1000
0001
1000
,  // measure 11
0100
0010
0100
0010
,  // measure 12
0001
1000
0001
1000
0001
1000
0001
1000
,  // measure 13
0000
0000
2001
0000
3010
1000
0010
0000
,  // measure 14
1000
0000
0100
0000
0010
0000
0001
1000
,  // measure 15
0001
0000
2000
0000
3001
0100
0001
0000
,  // measure 16
1000
0000
0100
0000
0020
0000
0031
1000
,  // measure 17
0001
0000
1002
0000
0013
0001
0010
0000
,  // measure 18
0001
0000
0100
0000
0010
0000
1000
0001
,  // measure 19
1000
0000
0002
0000
1003
0100
1000
0000
,  // measure 20
0001
0100
0100
0010
,  // measure 21
1001
0000
0200
0300
0000
0000
1001
0000
,  // measure 22
0001
1000
0001
1000
0001
0000
2000
0000
,  // measure 23
3100
0010
0001
0101
,  // measure 24
0110
0000
1010
0000
1000
0001
2000
0000
,  // measure 25
3100
0000
0010
0100
0010
0000
0002
0000
,  // measure 26
0203
2300
3020
0032
,  // measure 27
0003
2000
3000
0002
,  // measure 28
0003
2000
3000
0002
,  // measure 29
2003
0000
3002
2003
3002
2003
3100
0000
,  // measure 30
0100
0000
0000
0000
2001
0000
3100
0010
,  // measure 31
0100
1000
0002
0103
,  // measure 32
0010
1000
0010
0000
2000
0000
3001
0010
,  // measure 33
0001
0000
1000
0000
0200
0000
0000
0300
,  // measure 34
0000
0000
0110
0000
1002
0000
0103
0010
,  // measure 35
0100
0001
2000
3100
,  // measure 36
0010
0001
0010
0000
0002
0000
1003
0010
,  // measure 37
1000
0001
2000
3200
,  // measure 38
0320
0000
0031
0000
2001
0000
3010
1000
,  // measure 39
0010
0100
0001
1000
,  // measure 40
0200
0000
1300
0001
2000
0000
3001
0000
,  // measure 41
0100
0010
0100
0000
0002
0000
0203
0000
,  // measure 42
2300
3020
0032
1003
,  // measure 43
0000
0001
0001
0000
0200
0300
0001
0000
,  // measure 44
0000
0000
1000
0000
0200
0300
1000
0000
,  // measure 45
0000
0001
0001
0000
0200
0300
0001
0000
,  // measure 46
0000
0000
0000
2002
3003
0000
0000
0000
;

//---------------dance-single - ----------------
#NOTES:
     dance-single:
     :
     Beginner:
     1:
     0.125805,0.142553,0.052838,0.052838,0.000000,100.000000,94.000000,6.000000,6.000000,0.000000,0.000000,0.125805,0.142553,0.052838,0.052838,0.000000,100.000000,94.000000,6.000000,6.000000,0.000000,0.000000:
// measure 0
0000
0000
0000
0000
,  // measure 1
0000
0000
0000
0000
,  // measure 2
0000
0000
0000
0000
,  // measure 3
0000
0000
0000
0000
,  // measure 4
0001
0000
1000
0000
,  // measure 5
0001
0000
1000
0000
,  // measure 6
0100
0000
0010
0000
,  // measure 7
0100
0000
0010
0000
,  // measure 8
0002
0003
2000
3000
,  // measure 9
0002
0003
2000
3000
,  // measure 10
0001
0000
1000
0000
,  // measure 11
0001
0000
1000
0000
,  // measure 12
0001
0001
0001
0001
,  // measure 13
0000
1001
0000
1000
,  // measure 14
0000
0010
0000
0100
,  // measure 15
0000
0001
0000
1000
,  // measure 16
0000
0100
0100
0100
,  // measure 17
0000
1001
0000
0001
,  // measure 18
0000
0100
0000
0010
,  // measure 19
0000
1000
0000
0001
,  // measure 20
0000
1000
1000
1000
,  // measure 21
1000
0000
0000
0001
,  // measure 22
0000
1000
0000
0100
,  // measure 23
0000
0010
0000
0100
,  // measure 24
0100
0100
0100
0100
,  // measure 25
0000
1000
0000
0001
,  // measure 26
0001
0001
0001
0001
,  // measure 27
0000
1000
0000
0001
,  // measure 28
0000
1000
0000
0001
,  // measure 29
0001
0001
0001
0001
,  // measure 30
0000
0000
1001
0000
,  // measure 31
0001
0000
0100
0000
,  // measure 32
0010
0000
1000
0000
,  // measure 33
0001
0000
0000
0000
2000
0000
0000
3000
,  // measure 34
0000
0000
1001
0000
,  // measure 35
1000
0000
0100
0000
,  // measure 36
0010
0000
0001
0000
,  // measure 37
1000
0000
0020
0000
,  // measure 38
0030
0000
1001
0000
,  // measure 39
1000
0000
0010
0000
,  // measure 40
1000
0000
0001
0000
,  // measure 41
0010
0000
0001
0001
,  // measure 42
0001
0001
0001
0000
,  // measure 43
1000
0000
0001
0000
,  // measure 44
1000
0000
0001
0000
,  // measure 45
1000
0000
0100
0000
,  // measure 46
0000
1001
0000
0000
;
