#VERSION:0.83;
#TITLE:DRUNK MONKY;
#SUBTITLE:;
#ARTIST:DJ ODDBALL;
#TITLETRANSLIT:;
#SUBTITLETRANSLIT:;
#ARTISTTRANSLIT:;
#GENRE:;
#ORIGIN:;
#CREDIT:;
#BANNER:[Round 2] - DRUNK MONKY.png;
#BACKGROUND:[Round 2] - DRUNK MONKY-bg.png;
#PREVIEWVID:;
#JACKET:[Round 2] - DRUNK MONKY-jacket.png;
#CDIMAGE:;
#DISCIMAGE:;
#LYRICSPATH:;
#CDTITLE:cdtitle.png;
#MUSIC:DRUNK MONKY.ogg;
#OFFSET:0.000000;
#SAMPLESTART:19.881765;
#SAMPLELENGTH:13.241377;
#SELECTABLE:YES;
#BPMS:0.000=145.000;
#STOPS:;
#DELAYS:;
#WARPS:;
#TIMESIGNATURES:0.000=4=4;
#TICKCOUNTS:0.000=4;
#COMBOS:0.000=1;
#SPEEDS:0.000=1.000=0.000=0;
#SCROLLS:0.000=1.000;
#FAKES:;
#LABELS:0.000=Song Start;
#BGCHANGES:;
#KEYSOUNDS:;
#ATTACKS:
;

//---------------dance-single - CATASTROPHIC----------------
#NOTEDATA:;
#CHARTNAME:CATASTROPHIC;
#STEPSTYPE:dance-single;
#DESCRIPTION:CATASTROPHIC;
#CHARTSTYLE:;
#DIFFICULTY:Hard;
#METER:9;
#RADARVALUES:0.654892,0.724074,0.560573,0.000000,0.454687,368.000000,323.000000,45.000000,0.000000,0.000000,0.000000,0.000000,0.000000,0.000000,0.654892,0.724074,0.560573,0.000000,0.454687,368.000000,323.000000,45.000000,0.000000,0.000000,0.000000,0.000000,0.000000,0.000000;
#CREDIT:xRGTMx;
#NOTES:
0000
0000
0000
0000
,
0000
0000
0000
0000
,
0000
0000
0000
0000
,
0000
0000
0000
0000
,
1000
0000
0000
0010
1000
0000
0000
0100
1000
0000
0000
0001
1000
0000
0000
0010
,
1000
0000
0000
0100
1000
0000
0000
0001
1000
0000
0000
0010
1000
0000
1001
0000
,
1001
0000
0000
0010
0001
0000
0000
0100
0001
0000
0000
1000
0001
0000
0000
0010
,
0001
0000
0000
0100
0001
0000
0000
1000
0001
0000
0000
0010
0001
0000
0000
0000
,
1001
0000
0000
0010
1000
0000
0000
0100
1000
0000
0000
0001
1000
0000
0000
0010
,
1000
0000
0000
0100
1000
0000
0000
0001
1000
0000
0000
0010
1000
0000
1001
0000
,
1001
0000
0000
0010
0001
0000
0000
0100
0001
0000
0000
1000
0001
0000
0000
0010
,
0001
0001
0001
0001
0101
0101
0101
0101
,
0100
0000
0100
0000
0010
0000
0010
0000
0100
0000
0000
0100
0000
0000
0100
0000
,
0001
0000
0001
0000
1000
0000
1000
0000
0001
0000
0000
0001
0000
0000
0001
0000
,
0011
0000
0010
0000
0100
0000
0100
0000
0010
0000
0000
0010
0000
0000
0010
0000
,
0001
0000
0001
0000
1000
0000
1000
0000
0001
0000
0000
0001
0000
0000
0011
0000
,
0110
0000
0100
0000
0010
0000
0010
0000
0100
0000
0000
0100
0000
0000
0100
0000
,
1000
0000
1000
0000
0001
0000
0001
0000
1000
0000
0000
1000
0000
0000
1000
0000
,
1010
0000
0010
0000
0100
0000
0100
0000
0010
0000
0000
0010
0000
0000
0010
0000
,
1010
1000
0001
0001
1000
0000
1100
0000
,
0110
0000
0010
0000
0001
0000
1000
0000
0010
0000
0000
0010
0000
0000
0010
0000
,
0100
0100
0001
1000
0100
0000
0110
0000
,
1001
0000
0001
0000
1000
0000
0010
0000
0100
0000
0000
0100
0000
0000
0100
0000
,
0001
0100
0001
0100
0001
0100
0001
0100
0001
1000
0001
1000
0001
1000
0001
1000
,
0100
0000
0100
0000
0100
0000
0100
0000
0100
0000
0000
0100
0000
0000
0100
0000
,
0010
0000
0010
0000
0010
0000
0010
0000
0010
0000
0000
0010
0000
0000
0010
0000
,
0001
0000
0001
0000
0001
0000
0001
0000
0001
0000
0000
0001
0000
0000
0001
0000
,
1000
0000
1000
0000
0000
1000
0000
0000
1000
0000
1000
0000
1000
0001
1000
0000
,
0100
0000
0000
0100
0010
0000
0001
0000
0100
0000
0000
0100
0010
0000
1000
0000
,
0100
0000
0000
0100
0010
0000
0001
0000
0100
0000
0000
0100
0010
0000
1000
0000
,
0100
0000
0000
0100
0010
0000
0001
0000
0100
0000
0000
0100
0010
0000
1000
0000
,
0001
0000
0000
0010
0000
0000
0100
0000
1000
0000
0000
0001
0000
0000
0100
0000
,
0010
0000
0010
1000
0000
0000
0100
0000
0010
0000
0000
0010
0001
0000
0100
0000
,
0010
0000
0000
1000
0000
0000
0001
0000
0010
0000
0000
0100
0000
0000
1000
0000
,
0010
0000
0010
0100
0000
0000
0001
0000
0010
0000
0010
0100
0000
0000
1000
0000
,
0010
0000
0000
0010
0100
0000
0001
0000
0010
0000
0000
0010
0100
0000
1000
0000
,
0000
1010
0000
1010
0000
0011
0000
0011
,
0000
0101
0000
0101
0000
1100
0000
1100
,
1000
0010
0001
0010
1000
0010
0001
0010
,
0110
0000
0110
0000
0110
0000
1001
0000
1001
0000
1001
0000
,
1000
0000
0100
1000
0100
0000
0010
0000
0001
0000
1000
0000
1010
0000
1001
0000
,
0001
0000
0100
0001
0100
0000
0010
0000
1000
0000
0001
0000
0011
0000
1001
0000
,
1000
0000
0010
1000
0010
0000
0100
0000
0001
0000
1000
0000
1100
0000
1001
0000
,
0001
0000
0010
0001
0010
0000
0100
0000
1000
0000
0110
0000
0000
0000
1001
0000
,
1000
0000
0100
0010
0001
0000
1000
0000
0010
0000
0100
0000
0110
0000
1001
0000
,
0001
0000
0010
0100
1000
0000
0001
0000
0100
0000
0010
0000
0110
0000
1001
0000
,
1000
1000
1000
1000
1100
0000
0000
0000
;

//---------------dance-single - APOCALYPTIC----------------
#NOTEDATA:;
#CHARTNAME:APOCALYPTIC;
#STEPSTYPE:dance-single;
#DESCRIPTION:APOCALYPTIC;
#CHARTSTYLE:;
#DIFFICULTY:Challenge;
#METER:10;
#RADARVALUES:0.823953,0.839925,0.398630,0.000000,0.878231,463.000000,431.000000,32.000000,0.000000,0.000000,0.000000,0.000000,0.000000,0.000000,0.823953,0.839925,0.398630,0.000000,0.878231,463.000000,431.000000,32.000000,0.000000,0.000000,0.000000,0.000000,0.000000,0.000000;
#CREDIT:xRGTMx;
#NOTES:
0000
0000
0000
0000
,
0000
0000
0000
0000
,
0000
0000
0000
0000
,
0000
0000
0000
0000
,
0001
0000
0000
0100
0001
0000
0000
0010
0001
0000
0000
1000
0001
0000
0000
0100
,
0001
0000
0000
0010
0001
0000
0000
1000
0001
0000
0000
0100
0001
0000
1001
0000
,
1001
0000
0000
0100
1000
0000
0000
0010
1000
0000
0000
0001
1000
0000
0000
0100
,
1000
0000
0000
0010
1000
0000
0000
0001
1000
0000
0000
0100
1000
0000
0000
0000
,
1001
0000
0000
0100
0001
0000
0000
0010
0001
0000
0000
1000
0001
0000
0000
0100
,
0001
0000
0000
0010
0001
0000
0000
1000
0001
0000
0000
0100
0001
0000
1001
0000
,
1001
0000
0000
0100
1000
0000
0000
0010
1000
0000
0000
0001
1000
0000
0000
0100
,
1000
1000
1000
1000
1010
1010
1010
1010
,
0010
0000
0010
0100
0010
0000
0010
1000
0010
0000
0000
0010
0100
0000
0010
0000
,
1000
0000
1000
0100
1000
0000
1000
0001
1000
0000
0000
1000
0010
0000
1000
0000
,
1001
0000
0001
0010
0001
0000
0001
0100
0001
0000
0000
0001
1000
0000
0001
0000
,
0010
0000
0010
0100
0010
0000
0010
0001
0010
0000
0000
0010
0100
0000
0110
0000
,
0110
0000
0100
0010
0100
0000
0100
1000
0100
0000
0000
0100
0010
0000
0100
0000
,
1000
0000
1000
0010
1000
0000
1000
0001
1000
0000
0000
1000
0100
0000
1000
0000
,
1001
0000
0001
0010
0001
0000
0001
0100
0001
0000
0000
0001
1000
0000
0001
0000
,
0101
0000
0100
0010
0100
0000
0100
0001
0100
0000
0000
0100
0110
0000
0100
0000
,
1001
0000
0001
0010
0100
0000
0100
0010
0001
0000
0000
0001
1000
0000
0100
0000
,
1000
0000
1000
0010
0100
0000
0100
0010
1000
0000
0000
1000
1001
0000
1000
0000
,
1001
0000
0001
0100
0010
0000
0010
1000
0100
0000
0000
0100
1000
0000
0001
0000
,
1000
1000
0100
0100
0010
0010
0001
0001
0010
0010
0100
0100
1000
1000
0001
0001
,
0100
0000
0100
0001
0100
0000
0100
1000
0100
0000
0000
0100
0010
0000
0100
0000
,
0010
0000
0010
1000
0010
0000
0010
0001
0010
0000
0000
0010
0100
0000
0010
0000
,
1000
0000
1000
0001
1000
0000
1000
0100
1000
0000
0000
1000
0010
0000
1000
0000
,
0001
0000
0001
0000
0000
0001
0000
0000
0001
0000
0001
0000
1000
0001
1000
0000
,
0001
0000
0001
0010
0001
0010
0100
0000
1000
0000
1000
0010
1000
0010
0100
0000
,
0001
0000
0001
0100
0001
0100
0010
0000
1000
0000
1000
0100
1000
0100
0010
0000
,
0001
0000
0010
0100
1000
0100
0010
0000
0001
0000
0100
0010
1000
0010
0100
0000
,
0001
0000
0001
0000
0001
0000
0001
0000
0001
0000
0000
0001
0000
0000
0001
0000
,
1000
0000
0100
0010
0001
0100
0010
0000
1000
0000
0010
0100
0001
0010
0100
0000
,
1000
0000
1000
0100
0010
0001
1000
0000
0001
0000
0001
0100
0010
1000
0001
0000
,
0001
0000
0010
0100
1000
0010
0100
0000
0001
0000
0100
0010
1000
0100
0010
0000
,
0001
0000
0001
0010
0100
1000
0001
0000
1000
0000
1000
0010
0100
0001
1000
0000
,
0001
0100
0010
0100
1000
0100
0010
0100
,
0001
0010
0100
0010
1000
0010
0100
0010
,
0001
0010
0001
1000
0000
0000
1000
0010
1000
0001
0000
0000
0001
0100
0001
1000
0000
0000
1000
0100
1000
0001
0000
0000
,
0011
0000
1010
0000
0101
0000
1100
0000
0110
0000
1001
0000
,
1000
0000
0010
1000
0010
0100
0001
1000
0100
0000
0010
0001
1000
0000
1001
0000
,
0001
0000
0010
0001
0010
0100
1000
0001
0100
0000
0010
1000
0001
0000
1001
0000
,
1000
0000
0100
1000
0100
0010
0001
1000
0010
0000
0100
0001
1000
0000
1001
0000
,
0001
0000
0010
0001
0010
0100
1000
0001
0100
0000
0110
0000
0000
0000
1001
0000
,
1000
0000
0100
0010
0100
0001
0100
1000
0001
0000
0100
0010
1000
0000
1001
0000
,
0001
0000
0100
0010
0100
1000
0100
0001
1000
0000
0100
0010
0001
0000
1001
0000
,
0010
0010
0010
0010
1001
0000
0000
0000
;

//---------------dance-single - GENUINE----------------
#NOTEDATA:;
#CHARTNAME:GENUINE;
#STEPSTYPE:dance-single;
#DESCRIPTION:GENUINE;
#CHARTSTYLE:;
#DIFFICULTY:Medium;
#METER:6;
#RADARVALUES:0.387952,0.434444,0.137029,0.000000,0.024914,218.000000,207.000000,11.000000,0.000000,0.000000,0.000000,0.000000,0.000000,0.000000,0.387952,0.434444,0.137029,0.000000,0.024914,218.000000,207.000000,11.000000,0.000000,0.000000,0.000000,0.000000,0.000000,0.000000;
#CREDIT:xRGTMx;
#NOTES:
0000
0000
0000
0000
,
0000
0000
0000
0000
,
0000
0000
0000
0000
,
0000
0000
0000
0000
,
1000
1000
0001
0001
,
1000
0000
1000
0000
0001
0000
0001
0010
,
0110
0100
0010
0010
,
0100
0100
0010
0010
,
1001
1000
0001
0001
,
1000
0000
1000
0000
0001
0000
0001
0100
,
0110
0010
0100
0100
,
0001
1000
0001
1000
0001
1000
0001
1000
,
0100
0010
0100
0010
,
0001
1000
0001
1000
,
0110
0100
0010
0100
,
0001
0000
1000
0000
0001
0000
1000
0100
,
0110
0010
0100
0010
,
1000
0001
1000
0001
,
0110
0010
0100
0010
,
1001
1000
0001
0110
,
1001
1000
0001
0100
,
0010
1000
0001
0110
,
1001
0001
0100
0010
,
1000
0010
1000
0010
0100
0001
0100
0001
,
1000
1000
0100
0100
,
0001
0001
0010
0010
,
1000
1000
0100
0100
,
0010
0000
0010
0000
,
0001
0000
0010
0001
0010
0000
0100
1000
,
0100
0000
1000
0010
1000
0000
0001
0100
,
0001
0000
1000
0100
1000
0000
0001
0010
,
0001
0000
0100
0000
,
1000
0000
0010
1000
0010
0000
0100
0000
,
0001
0000
0010
0001
0010
0000
0100
0000
,
1000
0000
0001
0100
0001
0000
1000
0100
,
1000
0000
0010
0100
0010
0000
1000
0000
,
0000
0001
0000
0001
0000
1000
0000
1000
,
0000
0001
0000
0001
0000
1000
0000
1000
,
0010
1000
0100
0010
,
0001
0000
0001
0000
0001
0000
1000
0000
1000
0000
1000
0000
,
0010
1000
0100
0000
0010
0000
0001
0001
,
0010
0001
0100
0000
0010
0000
1000
1000
,
0100
1000
0010
0000
0100
0000
0001
0001
,
0100
0001
0010
0000
0100
1000
0000
1000
,
0010
0100
0001
0100
0010
0000
1000
1000
,
0100
0010
0001
0010
0100
0000
1000
1000
,
0010
0010
0010
0010
0010
0000
0000
0000
;

//---------------dance-single - ORDINARY----------------
#NOTEDATA:;
#CHARTNAME:ORDINARY;
#STEPSTYPE:dance-single;
#DESCRIPTION:ORDINARY;
#CHARTSTYLE:;
#DIFFICULTY:Easy;
#METER:3;
#RADARVALUES:0.204654,0.231704,0.024914,0.000000,0.000000,115.000000,113.000000,2.000000,0.000000,0.000000,0.000000,0.000000,0.000000,0.000000,0.204654,0.231704,0.024914,0.000000,0.000000,115.000000,113.000000,2.000000,0.000000,0.000000,0.000000,0.000000,0.000000,0.000000;
#CREDIT:xRGTMx;
#NOTES:
// measure 0
0000
0000
0000
0000
,  // measure 1
0000
0000
0000
0000
,  // measure 2
0000
0000
0000
0000
,  // measure 3
0000
0000
0000
0000
,  // measure 4
1000
0000
1000
0000
,  // measure 5
0001
0000
0001
0000
,  // measure 6
1000
0000
1000
0000
,  // measure 7
0001
0000
0001
0000
,  // measure 8
0010
0000
0010
0000
,  // measure 9
0100
0000
0100
0000
,  // measure 10
0010
0000
0010
0000
,  // measure 11
0100
0100
0100
0100
,  // measure 12
1000
0000
1000
0000
,  // measure 13
1000
0001
1000
0000
,  // measure 14
0001
0000
0001
0000
,  // measure 15
0001
1000
0001
0000
,  // measure 16
0100
0000
0100
0000
,  // measure 17
0100
0010
0100
0000
,  // measure 18
0010
0000
0010
0000
,  // measure 19
0010
0100
0010
0000
,  // measure 20
1000
0100
1000
0000
,  // measure 21
0001
0100
0001
0000
,  // measure 22
1000
0001
1000
0000
,  // measure 23
0010
0010
0010
0010
,  // measure 24
0100
0000
0100
0000
,  // measure 25
0001
0000
0001
0000
,  // measure 26
1000
0000
1000
0000
,  // measure 27
0100
0000
0000
0000
,  // measure 28
0010
0001
0010
0001
,  // measure 29
1000
1000
1000
0000
,  // measure 30
0010
1000
0010
1000
,  // measure 31
0001
0000
0001
0000
,  // measure 32
0100
0000
0100
0001
,  // measure 33
1000
0000
0000
0000
,  // measure 34
0100
0000
1000
0000
,  // measure 35
0001
0100
0001
0100
,  // measure 36
0000
0010
0000
0010
0000
0010
0000
0010
,  // measure 37
0000
0100
0000
0100
0000
0100
0000
0100
,  // measure 38
0000
0000
0010
0000
,  // measure 39
0110
0000
1001
0000
,  // measure 40
1000
1000
0100
0000
,  // measure 41
1000
0001
0100
0000
,  // measure 42
0001
0001
0100
0000
,  // measure 43
0001
1000
0100
0000
,  // measure 44
0010
0010
0100
0000
,  // measure 45
1000
0001
1000
0000
,  // measure 46
0010
0010
0010
0000
;
