#VERSION:0.82;
#TITLE:Ain't You;
#SUBTITLE:;
#ARTIST:John Dahlback;
#TITLETRANSLIT:;
#SUBTITLETRANSLIT:;
#ARTISTTRANSLIT:;
#GENRE:;
#ORIGIN:;
#CREDIT:;
#BANNER:Ain't You-bn.png;
#BACKGROUND:Ain't You-bg.png;
#PREVIEWVID:;
#JACKET:Ain't You-jk.png;
#CDIMAGE:;
#DISCIMAGE:;
#LYRICSPATH:;
#CDTITLE:darkanine.png;
#MUSIC:Ain't You.ogg;
#OFFSET:-0.005000;
#SAMPLESTART:36.030746;
#SAMPLELENGTH:24.000000;
#SELECTABLE:YES;
#BPMS:0.000=80.000,
16.000=160.000,
76.000=80.000,
110.000=160.000,
170.000=80.000,
172.000=160.000,
236.000=80.000;
#STOPS:;
#DELAYS:;
#WARPS:;
#TIMESIGNATURES:0.000=4=4;
#TICKCOUNTS:0.000=4;
#COMBOS:0.000=1;
#SPEEDS:0.000=1.000=0.000=0;
#SCROLLS:0.000=1.000,
76.000=0.500,
76.500=0.700,
76.750=0.900,
77.000=1.100,
77.250=1.300,
77.500=1.500,
78.000=1.000,
170.000=0.500,
170.500=0.700,
170.750=0.900,
171.000=1.100,
171.250=1.300,
171.500=1.500,
172.000=1.000;
#FAKES:;
#LABELS:0.000=Song Start;
#BGCHANGES:;
#KEYSOUNDS:;
#ATTACKS:
;

//---------------dance-single - ----------------
#NOTEDATA:;
#CHARTNAME:;
#STEPSTYPE:dance-single;
#DESCRIPTION:;
#CHARTSTYLE:;
#DIFFICULTY:Hard;
#METER:9;
#RADARVALUES:0.520379,0.624655,0.206338,0.087297,0.357123,422.000000,26.000000,11.000000,0.000000,0.000000,0.000000,0.000000,0.000000,0.520379,0.624655,0.206338,0.087297,0.357123,422.000000,26.000000,11.000000,0.000000,0.000000,0.000000,0.000000,0.000000;
#CREDIT:;
#NOTES:
0000
0000
0000
0000
,
0000
0000
0000
0000
,
0000
0000
0000
0000
,
0000
0000
0000
0000
,
0001
0000
0001
0000
0001
0000
0100
0001
,
0100
0000
0010
0000
1000
0001
1000
0000
,
0100
0000
0100
0000
0100
0010
0100
0000
,
1000
0001
1000
0000
0010
0100
0001
0000
,
1000
0000
0100
0000
0010
0000
0001
0010
,
0001
0000
0100
0000
0010
1000
0010
0000
,
0100
0000
0001
0000
1000
0100
1000
0000
,
0001
0100
0001
0000
1000
0010
0100
0000
,
0001
0000
0010
0000
0001
0100
0001
0000
,
0010
0000
0100
1000
0100
0010
0001
0000
,
1000
0000
0010
0000
0100
0001
1000
0000
,
0100
0000
0010
0001
0010
0100
1000
0000
,
0001
0000
0100
0010
0100
0000
0001
1000
,
0010
0000
0100
0001
0010
0100
1000
0000
,
0001
0000
0001
0000
0100
0000
0100
0000
0010
0000
0010
0000
1000
0001
1000
0001
,
0000
0000
0000
0000
0000
0000
0000
0000
0000
0000
0000
0000
0000
0000
0000
0000
1000
0000
0000
0000
1000
0000
0000
0000
0001
0000
0000
0001
0000
0000
0100
0000
,
0010
0000
0000
0000
0010
0000
0000
0000
1000
0000
0010
1000
0000
0000
0001
0000
0100
0000
0000
0000
0100
0000
0000
0000
0010
0000
0000
0010
0000
0000
1000
0000
,
0100
0000
0000
0000
0100
0000
0010
0000
0002
0000
0000
0100
0000
0000
1003
0000
0010
0000
0000
0000
0010
0000
0000
0000
1000
0000
0000
1000
0000
0000
0001
0000
,
0100
0000
0000
0000
0100
0000
0000
0000
0010
0000
1000
0010
0000
0000
0100
0000
0001
0000
0000
0000
0001
0000
0000
0000
0100
0000
0000
0100
0000
0000
0010
0000
,
1000
0000
0000
0000
1000
0000
0001
0000
0020
0000
0000
0001
0000
0000
0130
0000
1000
0000
0000
0000
1000
0000
0000
0000
1010
0000
0000
0010
0000
0000
0100
0000
,
0001
0000
0000
0000
0001
0000
0000
0000
1000
0000
0001
1000
0000
0000
0010
0000
0100
0000
0000
0000
0100
0000
0000
0000
0101
0000
0000
0001
0000
0000
1000
0000
,
0100
0000
0000
0000
0100
0000
0010
0000
0002
0000
0000
0010
0000
0000
0103
0000
1000
0000
0000
0000
1000
0000
0000
0000
1001
0000
0000
0001
0000
0000
0010
0000
,
0100
0000
0000
0000
0100
0000
0000
0000
0010
0000
0100
0010
0000
0000
0001
0000
1000
0000
0000
0000
1000
0000
0000
0000
0010
0000
0000
0100
0000
0000
0001
0000
,
1000
0000
0000
0000
1000
0000
0100
0000
0020
0000
0000
0001
0000
0000
0130
0000
1000
0000
0000
0000
0000
0000
0000
0000
1000
0000
0000
0000
0000
0000
0000
0000
,
0010
1000
0010
0000
0100
0001
0100
0000
,
0001
1000
0001
0000
0010
0000
0100
0000
,
1000
0010
1000
0000
0001
0100
0010
0000
,
0001
0010
1000
0000
1001
0000
0001
0000
,
0100
0010
1000
0000
0010
0100
0001
0000
,
0010
0100
1000
0000
0010
0000
0100
0000
,
0001
0010
0100
0000
1000
0010
0100
0000
,
1000
0100
0001
0000
0110
0000
1000
0000
,
0010
0100
0010
0000
0001
0000
0010
0100
,
0001
1000
0100
0000
0010
0001
0010
0000
,
0100
1000
0010
0100
0001
0000
1000
0100
,
0001
0000
0100
0000
1000
0000
0001
1000
0001
0000
0100
0000
0001
0000
0100
0000
,
0010
1000
0010
1000
0001
0010
0001
0010
,
0100
1000
0100
1000
0001
0001
0100
0100
,
0010
0000
0010
0000
1000
0001
1000
0001
0000
0000
0000
0000
0000
0000
0000
0000
,
1010
0000
0000
0000
1010
0000
0000
0000
1000
0000
0000
0010
0100
0000
0001
0000
,
0011
0000
0000
0000
0011
0000
0000
0000
0001
0000
0000
0010
0100
0000
1000
0000
,
1100
0000
0000
0000
1100
0000
0000
0000
1000
0000
0000
0010
0100
0000
0001
0000
,
1001
0000
1001
0000
1000
0010
0001
0000
,
0110
0000
0000
0000
1010
0000
0000
0000
1000
0000
0000
0001
0010
0000
0100
0000
,
1100
0000
0000
0000
1001
0000
0000
0000
0001
0000
0000
0100
0010
0000
0100
0000
,
0101
0000
0000
0000
1001
0000
0000
0000
1000
0000
0000
0010
0100
0000
0001
0000
,
1001
0000
0110
0000
0001
0010
1000
0000
,
0011
0000
0000
0000
1000
0010
1000
0010
0100
0000
0000
0001
0000
0000
0010
0000
,
0110
0000
0000
0000
0001
0000
0000
0000
1000
0000
0010
1000
0010
0000
0100
0001
,
0100
0000
0000
0000
0001
1000
0001
1000
0100
0000
0000
0010
0000
0000
0100
0000
,
1100
0000
0000
0000
0001
0000
0000
0000
0010
0000
0001
0100
0001
0000
1000
0010
,
1000
0000
0000
0000
0100
0010
0100
0010
0001
0000
0000
1000
0000
0000
0010
0000
,
0110
0000
0000
0000
0001
0000
0000
0000
1000
0000
0001
0010
0001
0000
1000
0100
,
1000
0000
0000
0000
0001
0100
0001
0100
0010
0000
0000
1000
0000
0000
0001
0000
,
0101
0000
0000
0000
1000
0000
0000
0000
0001
0100
0001
0000
1000
0100
1000
0000
,
0020
0000
0000
0000
0100
0000
0000
0000
1000
0000
0000
1000
0030
0000
1000
0000
0002
0000
0000
0000
0100
0000
0000
0000
0010
0000
0000
0010
0003
0000
0010
0000
,
0200
0000
0000
0000
1000
0000
0000
0000
0010
0000
0000
0010
0300
0000
0010
0000
0002
0000
0000
0000
1000
0000
0000
0000
0100
0000
0000
0100
0003
0000
0100
0000
,
0020
0000
0000
0000
0100
0000
0000
0000
1000
0000
0000
1000
0030
0000
1000
0000
0002
0000
0000
0000
1000
0000
0000
0000
0010
0000
0000
0010
0003
0000
0010
0000
,
0200
0000
0000
0000
0010
0000
0000
0000
1000
0000
0000
1000
0300
0000
0010
0000
0100
0000
0000
0000
0000
0000
0010
0000
0000
0000
0100
0000
0001
1000
0001
1000
;

//---------------dance-single - ----------------
#NOTEDATA:;
#CHARTNAME:;
#STEPSTYPE:dance-single;
#DESCRIPTION:;
#CHARTSTYLE:;
#DIFFICULTY:Medium;
#METER:7;
#RADARVALUES:0.437617,0.499972,0.134913,0.071425,0.190466,360.000000,17.000000,9.000000,0.000000,0.000000,0.000000,0.000000,0.000000,0.437617,0.499972,0.134913,0.071425,0.190466,360.000000,17.000000,9.000000,0.000000,0.000000,0.000000,0.000000,0.000000;
#CREDIT:;
#NOTES:
0000
0000
0000
0000
,
0000
0000
0000
0000
,
0000
0000
0000
0000
,
0000
0000
0000
0000
,
0001
0000
0001
0000
0001
0100
0001
0000
,
0001
0100
0001
0000
0001
0100
0001
0000
,
0010
0000
0100
0000
1000
0100
1000
0000
,
1000
0001
1000
0000
1000
0010
0100
0000
,
0001
0000
1000
0000
0100
0010
0100
0000
,
0100
0010
0100
0000
0100
0010
0100
0000
,
1000
0000
0001
0000
0100
0010
0100
0000
,
0100
0001
0100
0000
0100
0010
1000
0000
,
0001
0000
0010
0000
0100
0010
0100
0000
,
0010
0001
0010
0000
0100
0010
0001
0000
,
1000
0000
0010
0000
0100
0010
0100
0000
,
0010
1000
0010
0000
0100
0001
1000
0000
,
0001
1000
0001
0000
1000
0001
1000
0000
,
0010
0100
0010
0000
0100
0010
0100
0000
,
0001
0100
0001
0100
0010
1000
0001
0010
,
0000
0000
0000
0000
0001
0010
0011
0000
,
1000
0000
0010
0000
1000
0010
0000
0100
0001
0000
1000
0000
1001
0000
0000
0000
,
0001
0000
0100
0010
1000
0001
1000
0000
0010
0000
0100
0000
0101
0000
0000
0000
,
1000
0000
0100
0000
0010
0001
0000
1000
0010
0000
0100
0000
0101
0000
0000
0000
,
1000
0000
0100
0010
0001
1000
0001
0000
1000
0000
0010
0000
1010
0000
0000
0000
,
0001
0000
0010
0000
0001
0010
0000
0100
1000
0000
0001
0000
1001
0000
0000
0000
,
1000
0000
0100
0010
0001
1000
0001
0000
0010
0000
0100
0000
1100
0000
0000
0000
,
0001
0000
0100
0000
0010
1000
0000
0001
0010
0000
0100
0000
1100
0000
0000
0000
,
0001
0000
0100
0010
1000
0001
1000
0000
0010
0000
0000
0000
0010
0000
0000
0000
,
1000
0010
1000
0000
0001
0010
0001
0000
,
1000
0010
1000
0000
0010
0000
0100
0000
,
0001
0100
0001
0000
1000
0100
1000
0000
,
0010
0100
0010
0000
1000
0000
0010
0000
,
0100
0001
0100
0000
0100
1000
0100
0000
,
0100
0001
0100
0000
0001
0000
1000
0000
,
0100
1000
0100
0000
0010
0001
0010
0000
,
0001
1000
0001
0000
1001
0000
1000
0000
,
0010
0100
0010
0000
1000
0000
0100
0010
,
0100
0010
0001
0000
1000
0000
0010
0100
,
0010
0000
1000
0001
1000
0000
0100
0010
,
0100
1000
0001
0000
0010
0001
0010
0000
,
0100
1000
0100
0000
1000
0010
1000
0000
,
0001
0100
0001
0000
1000
0001
1000
0001
,
0100
0010
1000
0100
0000
0000
0000
0000
,
1000
0000
0000
0000
0010
0000
0000
0000
1010
0000
0000
1000
0000
0000
0001
0000
,
0010
0000
0000
0000
0001
0000
0000
0000
0011
0000
0000
0001
0000
0000
1000
0000
,
0100
0000
0000
0000
1000
0000
0000
0000
1100
0000
0000
1000
0000
0000
0001
0000
,
0100
0000
0000
0000
0010
0000
0000
0000
0110
0000
0000
0100
0000
0000
0001
0000
,
0010
0000
0000
0000
0001
0000
0000
0000
1001
0000
0000
0001
0000
0000
0100
0000
,
0010
0000
0000
0000
1000
0000
0000
0000
1100
0000
0000
0100
0000
0000
0010
0000
,
0001
0000
0000
0000
1000
0000
0000
0000
1010
0000
0000
0010
0000
0000
0100
0000
,
0001
0000
0000
0000
1000
0000
0000
0000
1001
0000
0000
0001
0000
0000
0100
0000
,
0010
0000
0000
0000
2000
0000
0000
0000
3010
0000
0000
0100
0000
0000
0001
0000
,
1000
0000
0000
0000
0001
0000
0000
0000
0020
0000
0000
0100
0000
0000
0130
0000
,
0010
0000
0000
0000
0002
0000
0000
0000
1003
0000
0000
0010
0000
0000
0100
0000
,
0001
0000
0000
0000
1000
0000
0000
0000
0200
0000
0000
0010
0000
0000
0310
0000
,
0100
0000
0000
0000
2000
0000
0000
0000
3010
0000
0000
0100
0000
0000
0001
0000
,
1000
0000
0000
0000
0100
0000
0000
0000
0020
0000
0000
0001
0000
0000
0031
0000
,
1000
0000
0000
0000
0002
0000
0000
0000
0103
0000
0000
0010
0000
0000
1000
0000
,
0100
0000
0000
0000
0010
0000
0000
0000
0002
0000
0000
1000
0000
0000
1003
0000
,
0100
0000
0000
0000
0100
0000
0000
0000
0100
0000
0000
0100
0000
0000
0100
0000
0010
0000
0000
0000
0010
0000
0000
0000
0010
0000
0000
0010
0000
0000
0010
0000
,
0001
0000
0000
0000
0001
0000
0000
0000
0001
0000
0000
0001
0000
0000
0001
0000
1000
0000
0000
0000
1000
0000
0000
0000
1000
0000
0000
1000
0000
0000
1000
0000
,
0010
0000
0000
0000
0010
0000
0000
0000
0010
0000
0000
0010
0000
0000
0010
0000
0100
0000
0000
0000
0100
0000
0000
0000
0100
0000
0000
0100
0000
0000
0100
0000
,
0001
0000
0000
0000
0001
0000
0000
0000
0001
0000
0000
0001
0000
0000
0100
0000
0010
0000
0000
0000
0000
0000
1000
0000
0000
0000
0001
0000
0020
0000
0000
0000
,
0030
0000
0000
0000
;

//---------------dance-single - ----------------
#NOTEDATA:;
#CHARTNAME:;
#STEPSTYPE:dance-single;
#DESCRIPTION:;
#CHARTSTYLE:;
#DIFFICULTY:Easy;
#METER:4;
#RADARVALUES:0.320844,0.399978,0.253954,0.063489,0.000000,243.000000,32.000000,8.000000,0.000000,0.000000,0.000000,0.000000,0.000000,0.320844,0.399978,0.253954,0.063489,0.000000,243.000000,32.000000,8.000000,0.000000,0.000000,0.000000,0.000000,0.000000;
#CREDIT:;
#NOTES:
// measure 0
0000
0000
0000
0000
,  // measure 1
0000
0000
0000
0000
,  // measure 2
0000
0000
0000
0000
,  // measure 3
0000
0000
0000
0000
,  // measure 4
1000
0010
0100
0100
,  // measure 5
0001
0001
0100
0100
,  // measure 6
0010
1000
0001
0001
,  // measure 7
0010
0010
0100
1000
,  // measure 8
0001
0100
0010
0010
,  // measure 9
1000
1000
0001
0001
,  // measure 10
0010
0100
1000
1000
,  // measure 11
0001
0001
0100
0010
,  // measure 12
1000
0100
0010
0100
,  // measure 13
1000
0010
0100
0001
,  // measure 14
0010
0100
1000
0001
,  // measure 15
0100
0010
1000
0001
,  // measure 16
0010
0010
0100
0100
,  // measure 17
1000
1000
0001
0001
,  // measure 18
0100
0010
1000
0001
,  // measure 19
0010
0000
0000
0000
0001
0001
0101
0000
,  // measure 20
1000
1000
1100
0000
0010
0010
0110
0000
,  // measure 21
0100
0100
0101
0000
0010
0010
1010
0000
,  // measure 22
0100
0100
1100
0000
0001
0001
1001
0000
,  // measure 23
0100
0100
0110
0000
0001
0010
0011
0000
,  // measure 24
1000
0010
1010
0000
0100
0001
0101
0000
,  // measure 25
1000
0001
1001
0000
0010
0100
0101
0000
,  // measure 26
1000
0100
0110
0000
0001
1000
1010
0000
,  // measure 27
0100
0001
1001
0000
0100
0000
0100
0000
,  // measure 28
1000
0010
0001
0010
,  // measure 29
1000
0010
0100
0001
,  // measure 30
1000
0100
0001
0100
,  // measure 31
0010
0100
1000
0001
,  // measure 32
0010
1000
0010
0001
,  // measure 33
0010
0100
1000
0010
,  // measure 34
0100
0001
1000
0100
,  // measure 35
0010
0001
1000
1000
,  // measure 36
0010
1000
1000
0100
,  // measure 37
1000
0001
0100
0100
,  // measure 38
0010
0100
0100
0001
,  // measure 39
1000
0100
0010
0010
,  // measure 40
0001
0001
1000
1000
,  // measure 41
0010
0010
0100
0001
,  // measure 42
1000
0100
0010
0000
,  // measure 43
0100
1000
1100
0010
,  // measure 44
0001
0010
0011
1000
,  // measure 45
0010
0100
0110
0001
,  // measure 46
1000
0001
1001
1000
,  // measure 47
0001
0100
0101
0010
,  // measure 48
1000
0100
1100
0001
,  // measure 49
0010
0001
0011
1000
,  // measure 50
0010
1000
1010
0100
,  // measure 51
0001
1000
1100
0010
,  // measure 52
0001
0100
0101
0010
,  // measure 53
1000
0100
0110
0001
,  // measure 54
1000
0010
0110
0001
,  // measure 55
0010
0100
1100
0010
,  // measure 56
0100
0001
1001
0010
,  // measure 57
0100
0010
1010
0001
,  // measure 58
0010
0100
1100
0001
,  // measure 59
0200
0000
0320
0000
,  // measure 60
2030
0000
3002
0000
,  // measure 61
0023
0000
0230
0000
,  // measure 62
2300
0000
0000
0000
3001
0000
0000
0020
,  // measure 63
0030
0000
0000
0000
;
