#TITLE:ASKA -invasion-;
#SUBTITLE:;
#ARTIST:2MB;
#TITLETRANSLIT:;
#SUBTITLETRANSLIT:;
#ARTISTTRANSLIT:;
#GENRE:;
#CREDIT:;
#BANNER:ASKA (invasion).png;
#BACKGROUND:ASKA (invasion)-bg.png;
#LYRICSPATH:;
#CDTITLE:cdtitle.png;
#MUSIC:ASKA (Invasion).mp3;
#OFFSET:-5.688000;
#SAMPLESTART:30.639999;
#SAMPLELENGTH:12.000000;
#SELECTABLE:YES;
#BPMS:0.000000=170.000000
,168.000000=340.000000
,296.000000=54.000000
;
#STOPS:
;
#BGCHANGES:;
#KEYSOUNDS:;
#ATTACKS:;

//---------------dance-single - ----------------
#NOTES:
     dance-single:
     :
     Hard:
     10:
     0.703751,1.000000,0.526007,0.141617,0.232657,421.000000,52.000000,14.000000,0.000000,0.000000,0.000000,0.703751,1.000000,0.526007,0.141617,0.232657,421.000000,52.000000,14.000000,0.000000,0.000000,0.000000:
// measure 0
0000
0000
0000
0000
,  // measure 1
0000
0000
0000
0000
,  // measure 2
1001
0000
0000
0000
1000
0000
0000
0100
,  // measure 3
0020
0000
0030
0001
,  // measure 4
0101
0001
0000
0000
1000
0000
0000
0000
,  // measure 5
1010
0000
0001
1000
0100
1000
0001
0000
,  // measure 6
0011
1000
1010
0010
,  // measure 7
0110
1001
1010
0101
,  // measure 8
0001
0000
0100
0000
0010
0000
1000
0000
0001
0100
0010
1000
0100
0010
0001
0100
,  // measure 9
0001
0010
0100
1000
0100
1000
0010
0100
0001
0100
0010
1000
0100
0010
0001
0100
,  // measure 10
0010
0000
0000
0000
0001
0000
0100
0000
0001
0000
0000
1000
0010
0000
0100
0000
,  // measure 11
0120
0000
0000
0000
0100
0000
0000
0000
0130
0000
0000
0001
1000
0000
0001
0000
,  // measure 12
1001
0000
0000
0000
0010
0000
0000
0000
0001
0000
0000
1000
0100
0000
1000
0000
,  // measure 13
1020
0000
0000
0000
0100
0000
0000
0000
0130
0000
0000
0001
0100
0000
0010
0100
,  // measure 14
0010
0000
0000
0000
0001
0000
0000
0000
1000
0000
0000
0100
0010
0000
0001
0000
,  // measure 15
2001
0000
0000
0000
0001
0000
0000
0000
3001
0000
0000
0100
0010
0000
0001
0000
,  // measure 16
0101
0000
0000
0000
1000
0000
0010
0000
1000
0000
0000
0100
0010
0000
0001
0000
,  // measure 17
0101
0000
0000
0000
1010
0000
0000
0100
0010
0000
0100
0000
0001
0000
1000
0001
,  // measure 18
1000
0000
0000
0000
1010
0000
0000
0000
0011
0000
0000
0010
0100
0000
1000
0000
,  // measure 19
1002
0000
0000
0000
1000
0000
0000
0000
1003
0000
0000
1000
0010
0000
0100
0000
,  // measure 20
0010
0000
0000
0000
0011
0000
0000
0000
1010
0000
0000
0001
0010
0000
0100
0000
,  // measure 21
2001
0000
0000
0000
0001
0000
0000
0000
3001
0000
0000
1000
0100
0000
0001
0100
,  // measure 22
0001
0000
0000
0000
0110
0000
0000
0000
1010
0000
0000
1000
0100
0000
0010
0000
,  // measure 23
0012
0000
0000
0000
0010
0000
0000
0000
0013
0000
0000
0100
1000
0000
0001
0000
,  // measure 24
1000
0000
0010
0100
0010
0000
1000
0000
0001
0000
0000
0010
0100
0000
1000
0000
,  // measure 25
1002
0000
0000
1003
0010
0000
0100
0000
0001
0100
0001
0000
1000
0000
0100
0000
,  // measure 26
1000
1100
0000
0001
0101
0000
0010
1000
,  // measure 27
1001
0001
0001
0000
0000
0000
0000
1000
,  // measure 28
1010
0000
0000
0000
0011
0000
0000
0100
,  // measure 29
0110
0010
0010
0000
0000
0000
0001
0000
,  // measure 30
0101
0100
0000
0000
0110
0000
0010
1000
,  // measure 31
1010
1000
0000
0000
0000
0000
0100
0000
,  // measure 32
0110
0000
1001
0000
,  // measure 33
0101
0001
0000
0000
0101
0000
0000
1000
,  // measure 34
1001
1000
0000
0000
0110
0000
0010
0100
,  // measure 35
0101
0001
0001
0000
0000
0000
0000
1000
,  // measure 36
1010
0000
0101
0000
,  // measure 37
0011
0010
0010
0000
0000
0000
0000
0000
,  // measure 38
1100
0100
0000
0000
0110
0000
0100
0001
,  // measure 39
0101
0001
0000
0000
0000
0000
1010
0000
,  // measure 40
1001
0000
0001
1000
0001
0000
1000
0000
0010
0000
0000
0000
0101
0000
0000
0000
,  // measure 41
1100
0000
0100
0000
0000
0000
1000
0000
0001
1000
0001
1000
0001
1000
0001
1000
,  // measure 42
0001
1000
0010
0100
,  // measure 43
0001
0000
0010
0000
0100
0010
0100
0000
,  // measure 44
1000
0100
0010
0001
,  // measure 45
0100
0000
0001
0010
0001
0000
0100
0000
,  // measure 46
0010
0000
0100
0000
0001
0100
0001
0100
,  // measure 47
0001
1000
0010
1000
,  // measure 48
0010
0100
0010
0100
0010
0100
0010
0000
,  // measure 49
1000
0010
0100
0001
,  // measure 50
1000
0000
0001
0010
0001
0010
0001
0000
,  // measure 51
0100
0000
0001
0000
0010
0000
0100
0010
,  // measure 52
0100
0010
0001
1000
,  // measure 53
0010
1000
0010
1000
0010
0000
0100
0000
,  // measure 54
0001
0000
1000
0000
0001
0100
0001
0000
,  // measure 55
1000
0010
0100
0010
1000
0000
0001
1000
,  // measure 56
0001
1000
0010
0100
,  // measure 57
0001
0010
0000
0100
1000
0100
1000
0000
,  // measure 58
0010
0000
0100
0010
0100
0010
0000
1000
,  // measure 59
0001
0000
0100
0000
0010
1000
0001
0000
,  // measure 60
0010
0001
1000
0000
0010
0000
0100
0000
,  // measure 61
0001
0010
0001
0000
0100
0000
0010
1000
,  // measure 62
0010
0000
0100
0010
1000
0010
0100
0001
,  // measure 63
1000
0000
0100
0000
0010
0001
1000
0000
,  // measure 64
0010
1000
0001
0000
0010
0000
0100
0000
,  // measure 65
1000
0000
0001
0100
0001
0000
1000
0100
,  // measure 66
1000
0010
0100
0001
,  // measure 67
1000
0001
1000
0000
0100
0000
0010
0000
,  // measure 68
0001
0000
0100
0001
0100
0000
0010
1000
,  // measure 69
0100
1000
0100
0000
0010
0001
0010
0000
,  // measure 70
0001
1000
0001
0100
0000
0010
1000
0000
,  // measure 71
0001
0100
0001
0010
0001
0000
1000
0100
,  // measure 72
0010
0001
0010
0100
1000
0010
0100
0001
,  // measure 73
0010
0001
0100
0010
1000
0010
0100
0001
,  // measure 74
0200
0000
0000
0000
0000
0000
0302
0000
0000
0000
0000
0000
1003
0000
0000
0000
0020
0000
0000
0000
0000
0000
0030
0000
0100
0000
0002
0000
0000
0000
1003
0010
,  // measure 75
1000
0000
0000
0001
0010
0000
0100
0000
0000
0000
1000
0000
0000
0000
0002
0000
2000
0000
0000
0000
0000
0000
0000
0000
0000
0000
0000
0000
0000
0000
0000
0000
,  // measure 76
0000
0000
0000
3003
0000
0000
0000
0000
;

//---------------dance-double - Copied from----------------
#NOTES:
     dance-double:
     Copied from:
     Hard:
     10:
     0.693636,0.965716,0.313581,0.040462,0.166906,445.000000,31.000000,4.000000,0.000000,0.000000,0.000000,0.693636,0.965716,0.313581,0.040462,0.166906,445.000000,31.000000,4.000000,0.000000,0.000000,0.000000:
00000000
00000000
00000000
00000000
,
00000000
00000000
00000000
00000000
,
10010000
00000000
01000000
00000000
,
00020000
00100000
01000000
10030000
,
01000000
00110000
00000000
00000000
00000000
00000000
00000000
00000000
,
00210000
00000000
00301000
00000100
00000001
00000010
00000100
00000000
,
00010000
00000000
00100000
00000000
,
11000000
01010000
00011000
00001001
,
00000010
00001000
00010000
00100000
00010000
00100000
01000000
10000000
,
01000000
00010000
01000000
00010000
01000000
00010000
01000000
00010000
01000000
00010000
10000000
00010000
10000000
00010000
10000000
00010000
,
10000000
00010000
10000000
00100000
10000000
00010000
10000000
01000000
,
00100000
00000000
01000000
00000000
00010000
00000000
00001000
00000000
00000100
00000000
00000000
00000010
00000100
00000000
00001000
00000000
,
00011000
00000000
01000000
00100000
00010000
00001000
00000010
00000100
,
00001000
00000000
01000000
00000000
00010000
00000000
00100000
00000000
01000000
00000000
00000000
10000000
01000000
00000000
10000000
00010000
,
10000000
00000000
00100000
01000000
00001000
01000000
00100000
10000000
,
01000000
00000000
00010000
00000000
00001000
00000000
00000010
00000000
00001000
00000000
00000000
00010000
01000000
00000000
00100000
00000000
,
10010000
00000000
01000000
00001000
00010000
00000010
00000100
00000001
,
00001001
00000000
00000000
00000000
00000010
00000000
00000000
00000100
00000010
00000000
00000001
00000000
00001000
00000000
00000010
00000100
,
00000010
00000001
00000100
00001000
00100000
01000000
10000000
01000000
,
00110000
00000000
00000000
00000000
00100000
00000000
01000000
00000000
00010000
00000000
00001000
00000100
00001000
00000000
00000100
00000000
,
00000101
00000000
00001000
00000100
00000001
00000010
00000100
00001000
,
00010000
00000000
01000000
00000000
00010000
00000000
00100000
00000000
01000000
00000000
00000000
10000000
01000000
00000000
00010000
01000000
,
00010000
00000000
00010000
00100000
00010000
01000000
01000000
10000000
,
00010000
00000000
00000000
00000000
00010000
00000000
01000000
00000000
00100000
00000000
00000000
01000000
00010000
00000000
00010000
00000000
,
00010000
00000000
00100000
01000000
00001000
00010000
01000000
00010000
,
00001000
00000000
00000000
00000100
00000010
00000000
00000100
00000000
00000001
00000010
00000100
00000000
00001100
00000000
00000100
00000000
,
00010000
00011000
00000000
00000000
00001010
00000000
00000000
00000010
,
00000100
00000100
00000100
00000000
00000000
00000000
00000000
00010000
,
10010000
00000000
00100000
00000000
,
10000000
10000000
10000000
01000000
00000000
00010000
00000010
00000100
,
00000001
00000110
00000000
00000000
00000011
00000000
00000100
00000100
,
00000010
00001000
00000000
00000000
00100000
00000000
01010000
00000000
,
10010000
00000000
00100000
00000000
,
00000010
00000100
00000000
00000000
00000001
00000000
00000000
00000100
,
00010000
01000000
00000000
00000000
10010000
00000000
00000000
01000000
,
00010000
00001000
00000100
00000001
00000000
00000010
00001000
00010000
,
00110000
00000000
00001001
00000000
,
00000010
00000010
00000010
00000000
00001010
00000000
00000101
00000000
,
00000100
00000010
00000000
00000000
00011000
00000000
00100000
01000000
,
01010000
01010000
00000000
10000000
01000000
00010000
00001000
00000000
,
00000100
00000000
00000001
00001000
00000001
00000000
00001000
00000000
00000100
00000000
00000010
00000000
00000001
00000000
00001000
00000000
,
00000100
00000000
01000000
00000000
00010000
00000000
01000000
00000000
00010000
10000000
00010000
10000000
00010000
10000000
00010000
10000000
,
01000000
00010000
01000000
10000000
,
00100000
00000000
00010000
00000000
00001000
00100000
00001000
00000000
,
00010000
00000100
00001000
00000010
,
00000100
00000000
00000001
00000100
00000010
00000000
00001000
00000000
,
00000100
00010000
00001000
00000000
00010000
00100000
00010000
00100000
,
10000000
01000000
00100000
00100000
,
00010000
01000000
00010000
01000000
00001000
00010000
00000100
00000000
,
00010000
01000000
10000000
00100000
,
00010000
00000000
00001000
00010000
00001000
00010000
00001000
00000000
,
00000010
00000000
00000001
00000000
00000010
00000000
00000100
00001000
,
00000100
00000010
00000001
00000100
,
00001000
00010000
00100000
00010000
00001000
00000000
01000000
00000000
,
00010000
00000000
10000000
00000000
00100000
01000000
00100000
00000000
,
10000000
00010000
10000000
00010000
10000000
00000000
01000000
10000000
,
01000000
10000000
00100000
01000000
,
00001000
00010000
00000000
00000010
00001000
00000001
00000100
00000000
,
00000010
00000000
00000100
00000001
00001000
00000100
00000000
00000010
,
00000001
00000000
00000100
00000000
00001000
00010000
00001000
00000000
,
00100000
00010000
00100000
00000000
00001000
00000000
01000000
00000000
,
00010000
10000000
00010000
00000000
11000000
00000000
00010000
10000000
,
00010000
00000000
01000000
00100000
00001000
00010000
00000100
00010000
,
00000010
00000000
00000100
00000000
00000001
00001000
00000001
00000000
,
00001000
00000100
00001000
00000000
00000010
00000000
00011000
00000000
,
00100000
00000000
00010000
10000000
00010000
00000000
10000000
01000000
,
10000000
01000000
00010000
00001000
,
00000100
00000010
00000100
00000000
00000001
00000010
00000100
00000000
,
00010000
00000000
00001000
00010000
00001000
00000000
01000000
00100000
,
01000000
00100000
01000000
00000000
00010000
00100000
00010000
00000000
,
10000000
00100000
10000000
01000000
00000000
00010000
00001000
00000000
,
00010000
01000000
00010000
01000000
00010000
00000000
00011000
00000000
,
00010000
00000100
00000010
00000001
00000010
00000100
00010000
00001000
,
00100000
00010000
01000000
00100000
10000000
01000000
00010000
00002000
,
00000100
00000000
00000000
00000000
00000000
00000000
00010000
00000000
00000000
00000000
00000000
00000000
01000000
00000000
00000000
00000000
00013000
00000000
00000000
00000000
00000000
00000000
00000000
00000000
01000000
00000000
10000000
00000000
00100000
00000000
00010000
00001000
,
00000100
00000001
00000010
00000100
00001000
00010000
00000000
01000000
20000000
00000000
00000000
00000000
00000000
00000000
00000000
00000000
,
00000000
00000000
00000000
30000000
00000000
00000000
00000000
00000000
;

//---------------dance-double - ----------------
#NOTES:
     dance-double:
     :
     Medium:
     9:
     0.708086,0.811201,0.182079,1.000000,0.025289,332.000000,18.000000,140.000000,0.000000,0.000000,0.000000,0.708086,0.811201,0.182079,1.000000,0.025289,332.000000,18.000000,140.000000,0.000000,0.000000,0.000000:
00000000
00000000
00000000
00000000
,
00000000
00000000
00000000
00000000
,
00001010
00000000
00020000
00000000
,
00001000
00000000
01000000
00030000
,
20000000
00020000
00000000
00000000
30030000
00000000
00000000
00000000
,
02100000
00000000
00010000
00000000
,
13000000
00000000
00010000
00000000
,
10000000
00100000
01000000
00010000
,
00001000
00000010
00000001
00000100
00000010
00001000
00000100
00000001
,
00000100
00010000
00001000
00010000
00001000
00100000
00010000
00100000
,
00001000
00000000
00000001
00001000
00000100
00000000
00000010
00000001
,
00000100
00000000
00001000
00000000
00010000
00000000
00000100
00010000
,
00011000
00000000
00100000
00010000
01000000
00000000
00100000
10000000
,
01000000
00000000
00010000
00000000
01000000
00100000
01000000
00100000
,
01000000
00000000
00010000
01000000
00100000
00000000
00010000
00001000
,
00000100
00000000
00001000
00000000
00000010
00000000
00000100
00000001
,
00001001
00000000
00000100
00000000
00000010
00000000
00000001
00001000
,
00002001
00000010
00000001
00003100
,
00000001
00000000
00000100
00001000
00010000
00000000
01000000
00010000
,
00001000
00000000
00000010
00001000
00010000
00000000
01000000
00010000
,
00011000
00000000
00010000
00000000
00100000
00000000
10000000
01000000
,
00100000
00000000
10000000
01000000
00100000
00000000
00010000
00100000
,
00110000
00000000
10000000
01000000
00010000
00000000
00010000
01000000
,
00100000
00000000
00001000
00000000
00010000
00001000
00010000
00001000
,
00021000
00000100
00001000
00130000
,
00022000
00000000
00000000
00000000
00033000
00000000
00100000
10000000
,
00010000
10010000
00000000
00000000
01000000
00000000
00100000
10000000
,
01000000
00100000
00000000
00000000
00001000
00000000
00010000
00001000
,
00000100
00000001
00000000
00000000
00000100
00000000
00000010
00000100
,
00001000
00000001
00000100
00000000
00000000
00000000
00000110
00000000
,
00001000
00010000
01000000
00000000
11000000
00000000
00100000
00010000
,
00001000
00010000
00000000
00000000
00000000
00000000
10010000
00000000
,
00022000
00000000
00033000
00000000
00000010
00000000
00000100
00000100
,
00000010
00000010
00000000
00000000
00000101
00000000
00000010
00001000
,
00000100
00000001
00000010
00000000
00000000
00000000
00001000
00000000
,
00000100
00001000
00000100
00000000
00000000
00000000
00000000
00001000
,
01001000
00000000
01100000
00000000
,
10000000
01000000
10000000
00000000
00000000
00000000
00000000
00000000
,
01000000
00010000
01000000
00000000
00001000
00010000
00001000
00000100
,
00000010
00000001
00000000
00000000
00000000
00000000
00000110
00000000
,
00001000
00000100
00000010
00000001
00000100
00001000
00010000
00001000
,
00010000
00010000
00000000
00001000
00020000
00000000
00001000
00000000
,
00230000
20300000
32000000
03020000
,
02030000
03020000
00032000
00003020
,
00000032
00000203
00000320
00002030
,
00003200
00000320
00000032
00000203
,
00002300
00023000
02030000
23000000
,
32000000
03020000
00032000
00003020
,
00000032
00000023
00002030
00023000
,
00230000
20300000
32000000
23000000
,
32000000
03020000
00032000
00003200
,
00000302
00000203
00002300
00023000
,
02030000
23000000
32000000
03020000
,
00032000
00003200
00000302
00000203
,
00002300
00023000
00230000
20300000
,
30200000
00320000
00032000
00003200
,
00000302
00002003
00003200
00020300
,
00032000
02003000
03020000
00230000
,
02300000
23000000
30200000
02300000
,
03020000
00032000
00003020
00000230
,
00000302
00002003
00003200
00000302
,
00000203
00002300
00003020
00000230
,
00002300
00023000
02030000
03200000
,
00320000
02030000
23000000
32000000
,
03020000
00230000
02300000
23000000
,
30200000
00320000
00032000
00003200
,
00000302
00000023
00002030
00023000
,
02030000
23000000
30020000
20030000
,
30200000
02300000
03002000
00023000
,
00030020
00000230
00000302
00000023
,
00000230
00020300
00032000
00203000
,
02300000
23000000
30200000
02300000
,
03002000
00023000
00230000
00320000
,
00032000
00003020
00002030
00023000
,
00031000
00000000
00000000
00100000
00000000
00000000
00001000
00000000
00000100
00000000
00000001
00000000
00000010
00000000
00001000
00000000
,
00010000
00100000
00010000
00100000
01000000
00010000
00100000
00010000
20000000
00000000
00000000
00000000
00000000
00000000
00000000
00000000
,
00000000
00000000
00000000
30000000
00000000
00000000
00000000
00000000
;

//---------------dance-double - ----------------
#NOTES:
     dance-double:
     :
     Easy:
     6:
     0.378609,0.540801,0.303466,0.080924,0.005058,224.000000,30.000000,8.000000,0.000000,0.000000,0.000000,0.378609,0.540801,0.303466,0.080924,0.005058,224.000000,30.000000,8.000000,0.000000,0.000000,0.000000:
00000000
00000000
00000000
00000000
,
00000000
00000000
00000000
00000000
,
00011000
00000000
00000000
00000000
,
00000000
00000000
00000000
00000000
,
10000000
10000000
00000000
00000000
00000000
00000000
00000000
00000000
,
00011000
00000000
00000000
00000000
,
00000011
00000000
00001100
00000000
,
00001000
00010000
00100000
10000000
,
00010000
00000000
10000000
00000000
00010000
01000000
00010000
01000000
,
00010000
11000000
10010000
01100000
,
10000000
01000000
00100000
00110000
,
01000000
00000000
00100000
00000000
10000000
00000000
00010000
01000000
,
00100000
10000000
01000000
00101000
,
00010000
00000000
00000010
00000000
00000100
00000000
00000001
00001000
,
00000100
00000010
00000001
00001100
,
00000010
00000000
00000001
00000000
00000100
00000000
00000010
00001000
,
00000100
00010100
00011000
01001000
,
00010000
00000000
00100000
00000000
10000000
00000000
01000000
00010000
,
00100000
10000000
01000000
01010000
,
00100000
00000000
00001000
00000000
00010000
00000000
00000100
00000010
,
00000001
00000100
00000010
00001100
,
00010000
00000000
00000100
00000000
00010000
00000000
00001000
00010000
,
01000000
00010000
00100000
10010000
,
01000000
00000000
00100000
00000000
10000000
00000000
01000000
00010000
,
00001000
00011000
00001100
00000110
,
00000001
00000000
00001000
00000000
00000100
00000000
00000010
00000001
,
00000100
00000200
00000000
00000300
00000110
00000000
00001000
00000000
,
00010000
00001000
00020000
00000000
00030000
00000000
00000000
01000000
,
02000000
03000000
00100000
10000000
,
01010000
10010000
00000000
00000000
,
00100000
00200000
00000000
00300000
01100000
00000000
00010000
00000000
,
00001000
00010000
00000000
00000000
00000000
00000000
00001000
00000000
,
00000001
00000000
00000001
00001010
,
00000100
00000200
00000000
00000300
00001001
00000000
00000100
00000000
,
00001000
00000000
00010000
00000000
01100000
00000000
00000000
00010000
,
00010000
00010000
00010000
00000000
00000000
00000000
00000000
10000000
,
10010000
00000000
01000000
00000000
,
00010000
00001000
00010000
00000000
00000000
00000000
00000000
00000000
,
00000100
00000200
00000000
00000300
00001001
00000000
00000010
00000000
,
00000101
00001010
00000000
00001000
,
00010000
00001000
00010000
00000000
01000000
00000000
00100000
00000000
,
20000000
00010000
00010000
30010000
,
01000000
00000000
10000000
00000000
,
01000000
00000000
00010000
00000000
,
00001000
00000000
00000010
00000000
,
00000001
00000000
00001000
00000000
,
00000010
00000000
00010000
00000000
,
00001000
00000000
01000000
00000000
,
00100000
00000000
10000000
00000000
,
01000000
00100000
01000000
00000000
,
00010000
00000000
00001000
00000000
,
00000100
00000000
00000001
00000000
,
00000100
00000000
00001000
00000000
,
00010000
00000000
00100000
00000000
,
10000000
00000000
01000000
00000000
,
00010000
00000000
00001000
00000000
,
00000100
00000000
00000001
00000000
,
00000100
00000010
00000100
00000000
,
00000001
00000000
00001000
00000000
,
00000100
00000000
00010000
00000000
,
00001000
00000000
00100000
00000000
,
00010000
00000000
01000000
00000000
,
00100000
00000000
10000000
00000000
,
01000000
00000000
00010000
00000000
,
00001000
00000000
00000100
00000000
,
00000001
00001000
00000001
00000000
,
00000010
00000000
00001000
00000000
,
00010000
00000000
00100000
00000000
,
01000000
00000000
00010000
00000000
,
10000000
00000000
01000000
00000000
,
00010000
00000000
01000000
00000000
,
00010000
00000000
00001000
00000000
,
00010000
00000000
01000000
00000000
,
00010000
10000000
00010000
00000000
,
01000000
00000000
00000000
00010000
00000000
00000000
10000000
00000000
01000000
00000000
00000000
00000000
00010000
00000000
00000000
00000000
,
00001000
00000100
00000002
00000000
,
00000000
00000000
00000000
00000003
00000000
00000000
00000000
00000000
;

//---------------dance-double - Copied from Copied f----------------
#NOTES:
     dance-double:
     Copied from Copied f:
     Challenge:
     10:
     0.761554,1.000000,0.333812,0.151733,0.227599,479.000000,33.000000,15.000000,0.000000,0.000000,0.000000,0.761554,1.000000,0.333812,0.151733,0.227599,479.000000,33.000000,15.000000,0.000000,0.000000,0.000000:
00000000
00000000
00000000
00000000
,
00000000
00000000
00000000
00000000
,
00000021
00000000
00020030
00000000
,
00100000
01000000
00031000
00000000
,
00010010
00002000
00000000
00000000
00000100
00000000
00000000
00000000
,
00010000
00000000
00000100
00000000
00003010
00010000
00100000
00000000
,
00110000
00000000
00100000
00000000
01000000
00000000
00001000
00000000
00100000
00000000
00000000
01000000
00020000
00000000
00001000
00000000
,
00031000
00001010
00011000
00110000
,
00010000
00000000
00100000
00000000
10000000
00000000
00100000
00000000
10000000
01000000
10000000
01000000
10000000
01000000
10000000
01000000
,
00100000
00010000
00100000
00010000
00100000
00010000
00100000
00010000
01000000
00010000
01000000
00010000
01000000
00100000
01000000
00100000
,
02000000
00000000
00010000
00000000
00010000
00000000
03010000
00000000
00001000
00000000
00000000
00000010
00000100
00000000
00001000
00000000
,
00011000
00000000
01000000
00010000
00011000
00000000
00000100
00001000
,
00020000
00000000
00100000
00000000
00100000
00000000
00130000
00000000
00001000
00000000
00000000
00000010
00010000
00000000
00001000
00000000
,
01010000
00000000
00100000
00001000
01001000
00000000
00100000
10000000
,
01100000
00000000
00010000
00000000
00100000
00000000
00001000
00000000
01000000
00000000
00000000
00100000
10000000
00000000
01000000
00000000
,
10010000
00000000
00000000
00000000
01000000
00000000
00010000
00000000
00011000
00000000
00000000
00000000
00001000
00000010
00001000
00000010
,
00000001
00000000
00000010
00000000
00001000
00000000
00010000
00000000
01000000
00000000
00000000
10000000
00100000
00000000
00010000
00000000
,
00001000
00000000
00000000
00000000
00001000
00000000
00000000
00010000
00100000
00000000
10000000
00000000
00010000
01000000
00010000
10000000
,
01000000
00000000
00010000
00100000
10000000
01000000
00100000
00010000
,
01000000
00000000
00000000
00000000
01010000
00000000
01000000
00000000
00001000
00000000
00000000
00000010
00000001
00000000
00000100
00000000
,
00000010
00000100
00000010
00000100
00000010
00000000
00001000
00000000
00000001
00000000
00000000
00000100
00001000
00000000
00000100
00000000
,
00000120
00000000
00000000
00000000
00000031
00000000
00000010
00000000
00000001
00000000
00000000
00001000
00000100
00000000
00000001
00000100
,
00000010
00000000
00001001
00000100
00010000
00010000
01000000
10000000
,
00100000
00000000
00000000
00000000
00110000
00000000
00010000
00000000
00001000
00000000
00000000
00010000
00100000
00000000
00010000
00000000
,
00021000
00000000
00030010
00001000
01000000
00010000
00001000
01000000
,
00010000
00001000
00000010
00001000
00010000
01000000
10000000
01000000
,
00010000
00100000
00000000
00000000
10010000
10000000
00010000
00100000
,
00001000
01000000
00100000
00000000
00010000
00100000
01000000
00001000
,
00100000
01000000
10000000
00000000
01000000
00010000
00001000
00000010
,
00001000
00010000
00100000
00000000
00100000
00010000
00000100
00001000
,
00000001
00000010
00001000
00000000
00010000
00100000
00010000
00001000
,
00000010
00001000
01000000
00000000
00010000
10000000
00001000
01000000
,
00001000
00010000
01000000
00000000
00010000
00001000
00000010
00000100
,
00010000
00100000
00010000
00000000
00010000
00001000
00000100
00000010
,
00010000
00001000
00000100
00000000
00000010
00001000
00000100
00010000
,
00100000
10000000
00010000
00000000
00100000
00001000
00010000
01000000
,
00010000
00001000
00000100
00000000
00000001
00000100
00001000
00010000
,
00100000
00010000
00000100
00000000
00010000
00000010
00001000
00000100
,
00000001
00000100
00010000
00000000
00000001
00000100
00000001
00001000
,
00000010
00001000
00010000
01000000
00010000
10000000
00100000
10000000
,
00010000
00000000
10000000
01000000
00010000
00000000
00001000
00000000
00010000
00000000
01000000
00000000
00100000
00000000
00000000
00000000
,
00110000
00000000
00101000
00000000
00000000
00000000
00010000
00000000
00000010
00001000
00000010
00001000
00000010
00001000
00000010
00001000
,
00000100
00010000
00000100
00010000
00000100
00000000
00010000
00001000
,
00000000
00001000
00000100
00000000
00000110
00000000
00000101
00000000
,
00000001
00001000
00000100
00001000
00000001
00000000
00000001
00000100
,
00000000
00000100
00001000
00000000
00011000
00000000
01001000
00000000
,
01000000
00000000
00100000
00000000
10000000
01000000
00010000
01000000
,
10000000
01000000
00001000
00000100
,
00001000
00000001
00001000
00000001
00001000
00000001
00000100
00000000
,
00000010
00010000
00011000
00000100
,
00001010
00000000
00001000
00000010
00000100
00000001
00000100
00000000
,
00001000
00000000
01000000
00000000
00001000
00000000
00000100
00000001
,
00000010
00001000
00010000
00011000
,
01000000
00100000
01000000
00100000
00010000
00000000
00001000
00000000
,
00010000
00000000
00100000
00000000
10000000
01000000
00010000
00000000
,
00010000
01000000
00010000
01000000
10000000
00000000
10000000
01000000
,
00010000
00001000
00010000
00001000
,
00000100
00000001
00000010
00001000
,
00010000
00000000
00100000
10000000
00010000
00000000
01000000
00000000
,
00001000
00010000
01000000
00110000
,
10000000
01000000
00100000
00000000
01000000
00100000
00001000
00000000
,
10000000
01000000
00010000
00000000
00001000
00000010
00000001
00000000
,
00000100
00001000
00000100
00000010
,
00001000
00000001
00001000
00000000
00000100
00010000
00001000
00000000
,
00110000
00000000
10000000
00000000
01000000
00000000
10000000
00010000
,
01000000
00100000
00010000
00001000
,
00010010
00000000
00001000
00000000
00000100
00000000
00000010
00000001
,
00001000
00000000
00000100
00010000
00001000
00000000
00010000
00100000
,
10000000
01000000
00010000
00001000
,
00110000
00000000
01000000
00000000
10000000
00000000
00010000
01000000
,
00100000
00000000
10000000
01000000
10000000
00000000
01000000
00010000
,
00001000
00000010
00000001
00000100
,
00000010
00010000
00001000
00000000
01000000
00000000
00001000
00000000
,
00010000
00001000
01000000
00010000
00100000
01000000
00010000
00001000
,
00020000
00000000
00000000
00000000
00000000
00000000
01000000
00000000
00000000
00000000
00000000
00000000
00001000
00000000
00000000
00000000
01030000
00000000
00000000
00000000
00000000
00000000
00000000
00000000
00001000
00000000
02010000
00000000
00000000
03000000
00001000
00020000
,
01000000
00030000
00001000
00020000
00100000
00030000
00001000
00020000
01000000
00030000
00010000
00000000
00001000
00000000
00010000
00002000
00000200
00000000
00000000
00000000
00000000
00000000
00000000
00000000
00000000
00000000
00000000
00000000
00000000
00000000
00000000
00000000
,
00000000
00000000
00000000
00003300
00000000
00000000
00000000
00000000
;

//---------------dance-single - ----------------
#NOTES:
     dance-single:
     :
     Beginner:
     4:
     0.249998,0.347658,0.080924,0.141617,0.000000,151.000000,8.000000,14.000000,0.000000,0.000000,0.000000,0.249998,0.347658,0.080924,0.141617,0.000000,151.000000,8.000000,14.000000,0.000000,0.000000,0.000000:
0000
0000
0000
0000
,
0000
0000
0000
0000
,
0001
0000
0100
0000
,
0020
0000
0030
0000
,
1000
0000
0000
0000
,
0001
0000
0000
0000
,
0100
0000
0100
0000
,
0010
0010
0010
0010
,
0010
1000
0001
0100
,
0010
1000
0001
0100
,
0010
0000
0010
0010
,
2000
0000
3000
0000
,
0010
0000
0010
0010
,
0200
0000
0300
0000
,
0010
0000
0010
0010
,
0002
0000
0003
0000
,
0010
1000
0001
0100
,
0020
0000
0030
0000
,
0100
0000
0100
0100
,
0002
0000
0003
0000
,
0100
0000
0100
0100
,
0020
0000
0030
0000
,
0100
0000
0100
0100
,
2000
0000
3000
0000
,
0100
0010
1000
0001
,
0200
0000
0300
0000
,
0001
0000
1000
0000
,
1001
0000
0000
0000
,
0100
0000
0010
0000
,
0110
0000
0000
0000
,
1000
0000
0001
0000
,
1001
0000
0000
0000
,
0010
0000
0100
0000
,
0110
0000
0000
0000
,
1000
0000
0100
0000
,
1100
0000
0000
0000
,
0001
0000
0010
0000
,
0011
0000
0000
0000
,
1000
0000
0010
0000
,
1010
0000
0000
0000
,
0001
0001
0100
0100
,
0101
0000
1000
1000
,
0001
0000
0010
0000
,
0100
0000
1000
0000
,
0001
0000
1000
0000
,
0010
0000
0100
0000
,
0001
0000
1000
0000
,
0100
0000
0010
0000
,
0001
0000
1000
0000
,
0010
0000
1000
0000
,
0001
0000
0001
0000
,
1000
0000
1000
0000
,
0010
0000
0010
0000
,
0100
0000
0100
0000
,
0001
0000
0010
0000
,
0100
0000
1000
0000
,
0001
0000
0100
0000
,
0010
0000
1000
0000
,
0001
0000
0100
0000
,
0001
0000
1000
0000
,
0100
0000
1000
0000
,
0001
0000
0010
0000
,
0001
0000
1000
0000
,
0010
0000
1000
0000
,
0001
0000
0100
0000
,
0010
0000
1000
0000
,
0002
0000
0103
0000
,
2000
0000
3100
0000
,
0002
0000
0013
0000
,
2000
0000
3010
0000
,
0001
0000
0010
0000
,
0100
0000
1000
0000
,
0001
0000
0001
0000
,
1000
0000
1000
0000
,
0010
0000
0100
0001
,
0001
1000
0020
0000
,
0000
0000
0000
0030
0000
0000
0000
0000
;

//---------------dance-single - ----------------
#NOTES:
     dance-single:
     :
     Easy:
     6:
     0.391615,0.579430,0.182079,0.182079,0.005058,235.000000,18.000000,18.000000,0.000000,0.000000,0.000000,0.391615,0.579430,0.182079,0.182079,0.005058,235.000000,18.000000,18.000000,0.000000,0.000000,0.000000:
0000
0000
0000
0000
,
0000
0000
0000
0000
,
1001
0000
1000
0100
,
0020
0000
0030
0000
,
0110
0000
0000
0000
,
1001
0000
0000
0000
,
1010
0000
0101
0000
,
0110
0010
0010
0010
,
0010
0100
0001
1000
,
0001
1000
0001
1000
0001
1000
0001
1000
,
0001
0000
0100
0000
0010
0000
1000
0100
,
2000
0000
0000
0000
3000
0000
0001
0100
,
0001
0000
1000
0000
0010
0000
0100
0010
,
0200
0000
0000
0000
0300
0000
0001
0010
,
0001
0000
0010
0000
0100
0000
1000
0010
,
2000
0000
3001
0100
,
0010
0000
1000
0001
1000
0000
0001
0100
,
0002
0000
0003
1000
,
1100
0000
1000
0000
0001
0000
0100
0010
,
0200
0000
0300
0001
,
0011
0000
0001
0000
1000
0000
0010
1000
,
0020
0000
0030
0100
,
0110
0000
0010
0000
1000
0000
0100
0010
,
0200
0000
0300
0010
,
0011
0000
0001
1000
0001
0000
1000
0010
,
0200
0000
0000
0000
0300
0000
0001
0100
,
0001
0100
0000
0000
0010
0000
0000
0000
,
1001
0000
0000
0000
0000
0000
0000
0100
,
1000
0000
0001
0000
,
1001
0000
0000
0000
,
1000
0001
0000
0000
1000
0000
0100
0010
,
0110
0000
0000
0001
,
0001
0000
1000
0000
,
0010
0100
0000
0000
0100
0000
0000
0010
,
0100
0010
0000
0000
0001
0000
0000
1000
,
0100
1000
0100
0000
0000
0000
0000
0010
,
0001
0000
0100
0000
,
0010
0100
0010
0000
0000
0000
0000
0000
,
1000
0001
0000
0000
1000
0000
0001
0100
,
0010
1000
0000
0000
0000
0000
0001
0000
,
0011
1010
0110
0101
,
1100
0000
0000
0000
0001
1000
0001
1000
,
0001
0000
1000
0000
,
0010
0100
0001
0010
,
0100
0000
1000
0000
,
0001
1000
0100
1000
,
0010
0000
1000
0000
,
0001
0000
0100
0000
,
0010
0100
0001
0100
,
0010
1000
0100
0010
,
0001
0000
1000
0000
,
0100
1000
0001
1000
,
0010
0000
0100
0000
,
0001
0010
0100
1000
,
0001
0000
1000
0000
,
0010
0000
1000
0000
,
0001
0100
0001
0000
,
1000
0100
1000
0001
,
0020
0000
0100
0030
,
0001
0100
0010
1000
,
0002
0000
0100
0003
,
0010
1000
0001
1000
,
0200
0000
1000
0300
,
0010
1000
0001
0000
,
0010
0000
0100
0000
,
1000
0010
1000
0001
,
0200
0000
0300
0000
,
0001
0000
1000
0000
,
0020
0000
0030
0000
,
0100
0000
0001
0000
,
1000
0100
1000
0000
,
0001
0100
0001
0000
,
0010
0100
0010
0100
,
0010
0100
0010
0100
,
0002
0000
0003
1000
0200
0000
0320
0000
,
0031
0000
1000
0000
0000
0010
0000
0000
0200
0000
0000
0000
0000
0000
0000
0000
,
0000
0000
0000
0300
0000
0000
0000
0000
;

//---------------dance-single - ----------------
#NOTES:
     dance-single:
     :
     Medium:
     8:
     0.515891,0.849830,0.151733,0.141617,0.030347,328.000000,15.000000,14.000000,0.000000,0.000000,0.000000,0.515891,0.849830,0.151733,0.141617,0.030347,328.000000,15.000000,14.000000,0.000000,0.000000,0.000000:
// measure 0
0000
0000
0000
0000
,  // measure 1
0000
0000
0000
0000
,  // measure 2
1001
0000
0000
0000
0001
0000
0000
0100
,  // measure 3
0020
0000
0030
1000
,  // measure 4
1100
0000
0001
0000
,  // measure 5
0011
0000
1000
0001
1000
0000
0001
0000
,  // measure 6
1100
0000
0101
0000
,  // measure 7
0110
1010
0011
1001
,  // measure 8
1000
0010
0100
0001
1000
0001
1000
0001
,  // measure 9
1000
0001
1000
0001
1000
0010
0100
0001
,  // measure 10
1000
0000
0100
0010
0001
0000
0100
0010
,  // measure 11
2000
0000
0100
0000
3100
0000
0001
0100
,  // measure 12
0001
0000
1000
0010
0100
0000
0001
0010
,  // measure 13
0200
0000
0010
0000
0310
0000
0001
1000
,  // measure 14
0010
0000
1000
0010
0100
0000
0001
0000
,  // measure 15
2000
0000
0100
0000
3100
0000
0001
1000
,  // measure 16
0001
0000
1000
0010
0100
0000
0001
1000
,  // measure 17
0200
0000
0010
0000
0310
0000
0001
1000
,  // measure 18
0001
0000
1001
0000
1001
0000
0010
1000
,  // measure 19
0200
0000
0010
0000
0310
0000
0001
1000
,  // measure 20
0100
0000
0110
0000
0110
0000
0010
0001
,  // measure 21
0200
0000
0010
0000
0310
0000
1000
0001
,  // measure 22
1000
0000
1010
0000
1010
0000
0010
0100
,  // measure 23
0002
1000
1003
0001
,  // measure 24
1000
0100
0010
0001
1000
0000
0001
0100
,  // measure 25
0020
0000
0130
0000
0001
1000
0001
1000
,  // measure 26
0001
0001
0000
0000
1000
0000
0000
0010
,  // measure 27
0010
0010
0010
0000
0000
0000
0000
0100
,  // measure 28
0100
0000
0001
0000
,  // measure 29
1000
1000
1000
0000
0000
0000
0000
0000
,  // measure 30
0001
0001
0000
0000
0100
0000
0010
0010
,  // measure 31
0010
0010
0000
0000
0000
0000
1000
0000
,  // measure 32
1000
0000
0001
0000
,  // measure 33
0100
0100
0000
0000
0100
0000
0000
0001
,  // measure 34
0001
0001
0000
0000
1000
0000
0000
0100
,  // measure 35
0100
0100
0100
0000
0000
0000
0000
0001
,  // measure 36
0001
0000
0010
0000
,  // measure 37
1000
1000
1000
0000
0000
0000
0000
0000
,  // measure 38
0001
0001
0000
0000
0010
0000
0010
0010
,  // measure 39
0010
0010
0000
0000
0000
0000
0100
0000
,  // measure 40
0100
0001
0100
0010
0100
0000
0001
1000
,  // measure 41
0001
0000
1000
0000
0001
0010
0100
1000
,  // measure 42
0001
0100
1000
0010
,  // measure 43
0100
0001
1000
0100
,  // measure 44
0010
0001
0100
0010
,  // measure 45
0100
0001
0010
0100
,  // measure 46
1000
0010
1000
0100
,  // measure 47
1000
0010
0100
0001
,  // measure 48
0010
0100
1000
0100
,  // measure 49
0001
0100
0010
0100
,  // measure 50
0001
0010
0001
1000
,  // measure 51
0010
1000
0001
0100
,  // measure 52
0001
1000
0100
1000
,  // measure 53
0001
0100
0010
1000
,  // measure 54
0100
0010
0001
0100
,  // measure 55
0010
0100
0001
0010
,  // measure 56
0100
1000
0010
1000
,  // measure 57
0100
0010
0001
0100
,  // measure 58
0010
0100
0001
0010
,  // measure 59
0100
1000
0001
1000
,  // measure 60
0010
0100
0001
1000
,  // measure 61
0100
1000
0010
1000
,  // measure 62
0001
0100
0001
0010
,  // measure 63
0001
0100
0010
1000
,  // measure 64
0001
0100
0001
1000
,  // measure 65
0100
1000
0001
0010
,  // measure 66
0100
0000
0000
0100
1000
0000
0010
1000
,  // measure 67
0010
0000
0100
0001
,  // measure 68
1000
0000
0000
0001
0010
0000
0001
1000
,  // measure 69
0001
0000
0000
1000
0001
0000
1000
0000
,  // measure 70
0001
0000
0100
0001
0000
0100
0001
0000
,  // measure 71
1000
0010
1000
0000
0100
0000
0010
0000
,  // measure 72
0001
0001
1000
1000
,  // measure 73
0001
1000
0001
1000
0001
1000
0001
1000
,  // measure 74
0002
0000
0000
1003
0000
0000
0010
0000
0200
0000
0000
0000
0301
0020
0000
0030
,  // measure 75
0100
1000
0100
1000
0000
0001
0000
2000
0002
0000
0000
0000
0000
0000
0000
0000
,  // measure 76
0000
0000
0000
3003
0000
0000
0000
0000
;

//---------------dance-single - ----------------
#NOTES:
     dance-single:
     :
     Challenge:
     10:
     0.780340,1.000000,0.778895,0.141617,0.313581,449.000000,77.000000,14.000000,0.000000,0.000000,0.000000,0.780340,1.000000,0.778895,0.141617,0.313581,449.000000,77.000000,14.000000,0.000000,0.000000,0.000000:
// measure 0
0000
0000
0000
0000
,  // measure 1
0000
0000
0000
0000
,  // measure 2
1001
0000
0000
0000
1000
0000
0100
0000
1000
0000
0000
0001
0100
0000
0010
0000
,  // measure 3
2000
0000
0000
0000
3000
0000
0001
0010
,  // measure 4
0011
0001
1000
0001
1000
0000
0010
1000
,  // measure 5
1010
0000
0000
0000
0100
0000
0010
0100
0000
0000
0100
0000
0000
0000
0000
0000
,  // measure 6
0101
0000
0000
0000
1000
0000
0100
0000
1100
0000
0000
0001
1000
0000
0001
0000
,  // measure 7
1001
1010
0011
0110
,  // measure 8
0001
0000
0010
0000
0100
0000
1000
0000
0001
0010
1000
0010
0001
0100
1000
0100
,  // measure 9
0001
1000
0010
0100
0001
0010
0100
1000
0100
0001
0100
1000
0010
0001
0010
1000
,  // measure 10
0001
0000
0000
0000
1100
0000
0000
0000
0101
0000
0000
1000
0100
0000
0010
0000
,  // measure 11
0012
0000
0000
0000
1000
0000
0000
0000
1003
0000
0000
0010
1000
0000
0001
0000
,  // measure 12
0101
0000
0000
0000
1100
0000
0000
0000
1001
0000
0000
0010
1000
0000
0100
0000
,  // measure 13
0120
0000
0000
0000
0100
0000
0000
0000
0130
0000
0000
0001
0010
0000
0001
1000
,  // measure 14
0001
0000
0000
0000
1010
0000
0000
0000
1100
0000
0000
0001
0100
0000
0010
0000
,  // measure 15
1020
0000
0000
0000
1000
0000
0000
0000
1030
0000
0000
1000
0100
0000
0010
0001
,  // measure 16
1000
0000
0010
0100
0010
0000
1000
0000
0100
0000
0010
0001
0010
0000
0100
0010
,  // measure 17
0200
0000
0000
0000
1300
0000
0000
0001
0100
0000
0010
0000
1000
0100
0010
0100
,  // measure 18
1000
0000
0000
0000
1010
0000
0000
0000
0110
0000
0000
0001
0100
0000
0010
1000
,  // measure 19
0200
0000
0000
0000
0010
0000
0000
0000
0310
0000
0000
0001
0100
0000
1000
0000
,  // measure 20
1100
0000
0000
0000
0101
0000
0000
0000
0110
0000
0000
0010
1000
0000
0001
1000
,  // measure 21
0200
0000
0000
0000
0010
0000
0000
0000
0310
0000
0000
0001
1000
0000
0010
0100
,  // measure 22
0001
0000
0000
1000
0100
0000
0010
0000
0100
0000
0000
0010
0001
0000
1000
0010
,  // measure 23
2000
0000
0000
0000
0100
0000
0000
0000
3100
0000
0000
0001
0100
0000
0010
0000
,  // measure 24
1000
0000
0001
1000
0001
0000
0010
0000
0100
0000
0000
1000
0100
0000
0010
0001
,  // measure 25
0100
0000
0000
0010
1000
0000
0001
0000
1000
0100
0001
0000
0100
0000
1000
0000
,  // measure 26
0001
0011
0000
1000
1010
0000
1000
1000
,  // measure 27
1001
1000
1000
0000
0000
0000
0000
0001
,  // measure 28
0101
0000
0000
0000
1100
0000
0000
0100
,  // measure 29
0110
0100
0100
0000
0000
0000
0010
0000
,  // measure 30
1010
0010
0000
0000
0110
0000
0100
0100
,  // measure 31
0101
0100
0000
0000
0000
0000
0110
0000
,  // measure 32
0110
0000
1001
0000
,  // measure 33
1010
1000
0000
0000
1010
0000
0000
0001
,  // measure 34
1001
0001
0000
0000
0110
0000
1000
1000
,  // measure 35
1010
1000
1000
0000
0000
0000
0000
0001
,  // measure 36
0101
0000
1010
0000
,  // measure 37
1100
0100
0100
0000
0000
0000
0000
0000
,  // measure 38
0011
0010
0000
0000
0110
0000
1000
1000
,  // measure 39
1010
1000
0000
0000
0000
0000
0101
0000
,  // measure 40
1001
0000
1000
0010
1000
0000
0001
0000
0100
0000
0000
0010
1000
0000
0100
0010
,  // measure 41
0001
0000
0001
0000
0000
0000
1000
0000
0010
0100
0001
1000
0100
0010
0001
0100
,  // measure 42
0010
0101
0100
1010
,  // measure 43
1000
0000
0110
0000
1000
0001
1000
0000
,  // measure 44
0010
0110
0100
1100
,  // measure 45
0010
0000
1000
0100
0010
0000
0011
0000
,  // measure 46
0100
0000
0110
0000
1000
0010
0001
0010
,  // measure 47
1000
0101
0100
1001
,  // measure 48
0100
0010
0100
1000
0100
0001
0100
0000
,  // measure 49
0101
0110
1010
1000
,  // measure 50
0001
0000
1000
0100
0001
0100
1000
0000
,  // measure 51
0010
0000
1100
0000
0100
0000
0010
0100
,  // measure 52
0010
0110
1000
1001
,  // measure 53
0100
1000
0100
0001
0100
0000
0110
0000
,  // measure 54
1000
0000
1001
0000
1000
0100
0010
0000
,  // measure 55
0001
0100
0010
1000
0001
0000
0001
0100
,  // measure 56
1000
1100
0100
0101
,  // measure 57
1000
0100
0000
0001
0010
1000
0010
0000
,  // measure 58
0100
0000
0010
0001
1000
0001
0000
1000
,  // measure 59
0100
0000
0011
0000
0001
0100
1000
0000
,  // measure 60
1000
0100
0001
0000
0100
0000
1010
0000
,  // measure 61
1000
0100
0010
0000
0001
0000
0100
1000
,  // measure 62
0100
0000
0010
0100
0001
0010
0100
1000
,  // measure 63
0001
0000
0110
0000
0100
0001
1000
0000
,  // measure 64
0100
1000
0001
0000
0100
0000
0110
0000
,  // measure 65
0001
0000
0001
0010
1000
0000
1000
0010
,  // measure 66
0001
0101
0010
1100
,  // measure 67
0001
0100
0001
0000
0010
0000
0110
0000
,  // measure 68
1000
0000
0010
1000
0100
0000
0010
0001
,  // measure 69
0100
0001
0010
0000
0100
1000
0001
0000
,  // measure 70
1000
0010
0001
0010
0000
0100
0001
0000
,  // measure 71
0100
0010
1000
0001
0100
0000
0001
0010
,  // measure 72
1000
0010
0001
0100
1000
0100
0001
1000
,  // measure 73
0010
0001
0010
1000
0001
0100
1000
0100
,  // measure 74
0120
0000
0000
0000
0000
0000
2030
0000
0000
0000
0000
0000
3001
0000
0000
0000
0201
0000
0000
0000
0000
0000
0300
0000
0001
0000
0020
0000
0000
0000
0031
0100
,  // measure 75
1000
0000
1000
0100
0001
0000
0001
0010
1000
0000
0100
0000
0000
0000
0002
0000
2000
0000
0000
0000
0000
0000
0000
0000
0000
0000
0000
0000
0000
0000
0000
0000
,  // measure 76
0000
0000
0000
3003
0000
0000
0000
0000
;
