#TITLE:8-Bit Assassin;
#SUBTITLE:;
#ARTIST:Peckerhead;
#TITLETRANSLIT:;
#SUBTITLETRANSLIT:;
#ARTISTTRANSLIT:;
#GENRE:;
#CREDIT:;
#BANNER:rW35MBm.png;
#BACKGROUND:77Iqz6D.png;
#LYRICSPATH:;
#CDTITLE:;
#MUSIC:8-Bit Assassin.ogg;
#OFFSET:-0.017;
#SAMPLESTART:30.318;
#SAMPLELENGTH:12.000;
#SELECTABLE:YES;
#BPMS:0.000=190.000;
#STOPS:;
#TIMESIGNATURES:0.000=4=4
;
#BGCHANGES:;
#KEYSOUNDS:;

//---------------dance-single - ----------------
#NOTES:
     dance-single:
     :
     Beginner:
     1:
     0.153,0.197,0.000,0.099,0.000,118.000,0.000,12.000,0.000,0.000,0.000,0.153,0.197,0.000,0.099,0.000,118.000,0.000,12.000,0.000,0.000,0.000:
0000
0000
0000
0000
,
0000
0000
0000
0000
,
0000
0000
0000
0000
,
0000
0000
0000
0000
,
0000
0000
0000
0000
,
0000
0000
0000
0000
,
0000
0000
0000
0000
,
0000
0000
0000
0000
,
1000
0000
0000
0000
,
1000
0000
0000
0000
,
0001
0000
0000
0000
,
0001
0000
0000
0000
,
0100
0000
0000
0000
,
0100
0000
0000
0000
,
0010
0000
0000
0000
,
0010
0000
0000
0000
,
1000
0000
0000
0000
,
0001
0000
0000
0000
,
1000
0000
0000
0000
,
0001
0000
0000
0000
,
0100
0000
0000
0000
,
0010
0000
0000
0000
,
0100
0000
0000
0000
,
0010
0000
0000
0000
,
0100
0000
0100
0000
,
0100
0000
0000
0000
,
0010
0000
0010
0000
,
0010
0000
0000
0000
,
1000
0000
1000
0000
,
1000
0000
0000
0000
,
0001
0000
0001
0000
,
0002
0000
0003
0000
,
0001
0000
0001
0000
,
0001
0000
0001
0000
,
1000
0000
1000
0000
,
1000
0000
1000
0000
,
0100
0000
0100
0000
,
0100
0000
0100
0000
,
0010
0000
0010
0000
,
0020
0000
0030
0000
,
0010
0000
0000
0000
,
0001
0000
0000
0000
,
0010
0000
0000
0000
,
0001
0000
0000
0000
,
1000
0000
0000
0000
,
0100
0000
0000
0000
,
1000
0000
0000
0000
,
0100
0000
0000
0000
,
1000
0000
0000
0000
,
0010
0000
0000
0000
,
1000
0000
0000
0000
,
0010
0000
0000
0000
,
0100
0100
0100
0100
,
0100
0000
0000
0000
,
0001
0000
0000
0000
,
0200
0000
0300
0000
,
0100
0000
0000
0000
,
0001
0000
0000
0000
,
1000
0000
0000
0000
,
0001
0000
0000
0000
,
1000
0000
0000
0000
,
0100
0000
0000
0000
,
0010
0000
0000
0000
,
0100
0000
0000
0000
,
1000
0000
0000
0000
,
0001
0000
0000
0000
,
0010
0000
0000
0000
,
0001
0000
0000
0000
,
1000
0000
0000
0000
,
0010
0000
0000
0000
,
0100
0000
0000
0000
,
0002
0000
0003
0000
,
0001
0000
0001
0000
,
1000
0000
1000
0000
,
0010
0000
0010
0000
,
0100
0000
0100
0000
,
0001
0000
0001
0000
,
1000
0000
1000
0000
,
0100
0000
0100
0000
,
0010
0000
0010
0000
,
0001
0000
1000
0000
,
0010
0000
0100
0000
,
0001
0000
1000
0000
,
0010
0000
0100
0000
,
0001
0000
1000
0000
,
0100
0000
0010
0000
,
0001
0000
1000
0000
,
0100
0000
0010
0000
,
0002
0000
0003
0000
,
0200
0000
0300
0000
,
0020
0000
0030
0000
,
2000
0000
3000
0000
,
0002
0000
0003
0000
,
0200
0000
0300
0000
,
0020
0000
0030
0000
,
2000
0000
3000
0000
;

//---------------dance-single - ----------------
#NOTES:
     dance-single:
     :
     Easy:
     4:
     0.321,0.315,0.000,0.049,0.000,267.000,0.000,6.000,0.000,0.000,0.000,0.321,0.315,0.000,0.049,0.000,267.000,0.000,6.000,0.000,0.000,0.000:
0000
0000
0000
0000
,
0000
0000
0000
0000
,
0000
0000
0000
0000
,
0000
0000
0000
0000
,
0000
0000
0000
0000
,
0000
0000
0000
0000
,
0000
0000
0000
0000
,
0000
0000
0000
0000
,
1000
0000
1000
0000
,
0100
0000
0100
0000
,
0010
0000
0010
0000
,
0001
0000
0001
0000
,
1000
0000
1000
0000
,
0100
0000
0100
0000
,
0010
0000
0010
0000
,
0001
0000
0001
0000
,
0100
0000
0001
0000
,
0100
0000
0001
0000
,
1000
0000
0010
0000
,
1000
0000
0010
0000
,
0100
0000
0001
0000
,
0100
0000
0001
0000
,
1000
0000
0010
0000
,
1000
0000
0010
0000
,
1000
0100
1000
1000
,
0001
1000
0001
0001
,
0010
0001
0010
0010
,
0100
0010
0100
0100
,
1000
0100
1000
1000
,
0001
1000
0001
0001
,
0010
0001
0010
0010
,
0100
0100
0100
0100
,
1000
0001
0100
0100
,
0001
1000
0100
0100
,
1000
0001
0010
0010
,
0001
1000
0010
0010
,
1000
0001
0100
0100
,
0001
1000
0100
0100
,
1000
0001
0010
0010
,
0002
0000
0000
0000
,
1003
0000
1000
0000
0000
0001
0000
0001
,
0000
0000
0100
0000
0100
0000
0000
0010
,
0000
0000
1000
0000
,
0001
0001
0000
0000
,
1000
0000
1000
0000
0000
0100
0000
0100
,
0000
0000
0010
0000
0010
0000
0000
0001
,
0000
0000
0000
0000
1000
0000
0000
1000
,
0000
0000
0000
0000
,
0001
0001
0000
0000
,
0010
0010
0000
0000
,
0100
0000
0100
0000
0000
1000
0000
0000
,
0100
0000
0000
0000
,
1000
1000
1000
1000
,
1000
0000
0001
0000
,
1000
0000
0001
0000
,
0200
0000
0000
0000
0300
0100
0000
0100
,
0010
0010
0100
0010
,
1000
1000
0001
1000
,
0100
0100
0010
0100
,
1000
1000
0001
1000
,
0001
0001
0100
0001
,
1000
1000
0010
1000
,
0001
0001
0010
0001
,
1000
1000
0100
1000
,
0001
0001
0100
0010
,
1000
1000
0100
0010
,
0001
0001
0010
0100
,
1000
1000
0010
0100
,
0001
0001
1000
0010
,
1000
1000
0001
0010
,
0001
0001
1000
0100
,
2000
0000
0000
0000
,
3100
1000
0100
1000
,
0001
1000
0001
1000
,
0001
0100
0001
0100
,
0010
1000
0010
1000
,
0100
1000
0100
1000
,
0001
1000
0001
1000
,
0001
0100
0001
0100
,
0020
0000
2030
0000
,
3001
0100
0010
1000
,
0001
0100
0010
1000
,
0001
0100
1000
0100
,
0001
0100
1000
0100
,
0010
1000
0001
0100
,
0001
1000
0100
0010
,
0001
0010
1000
0010
,
0002
0000
0000
0000
,
1003
0000
1000
0000
,
0001
0000
0001
0000
,
0100
0000
0100
0000
,
0010
0000
0010
0000
,
1000
0000
1000
0000
,
0001
0000
0001
0000
,
0100
0000
0100
0000
,
0010
0000
0010
0000
;

//---------------dance-single - ----------------
#NOTES:
     dance-single:
     :
     Medium:
     6:
     0.455,0.553,0.568,0.214,0.004,292.000,69.000,26.000,0.000,0.000,0.000,0.455,0.553,0.568,0.214,0.004,292.000,69.000,26.000,0.000,0.000,0.000:
0000
0000
0000
0000
,
0000
0000
0000
0000
,
0000
0000
0000
0000
,
0000
0000
0000
0000
,
0000
0000
0000
0000
,
0000
0000
0000
0000
,
0000
0000
0000
0000
,
0000
0000
0000
0000
,
1100
0000
1000
0000
,
1001
0000
0001
0000
,
0101
0000
0100
0000
,
0110
0000
0010
0000
,
1010
0000
1000
0000
,
1001
0000
0001
0000
,
0011
0000
0010
0000
,
0110
0000
0100
0000
,
1100
1000
0000
1000
,
0001
1000
0000
1000
,
0010
1000
0000
1000
,
0001
1000
0000
0001
,
1001
0001
0000
0001
,
0100
0001
0000
0001
,
1000
0001
0000
0001
,
0010
0001
0000
0001
,
0011
0010
0010
0010
,
1001
0100
0100
0100
,
1001
0010
0010
0010
,
1001
0100
0100
0100
,
0110
1000
1000
1000
,
0110
0001
0001
0001
,
0110
1000
1000
1000
,
0220
0000
0000
0330
,
0110
0010
1000
0010
,
1010
1000
0100
1000
,
1001
0001
0100
0001
,
1001
1000
0010
1000
,
1010
0010
1000
0001
,
0101
0100
0001
1000
,
1100
0100
1000
0001
,
0022
0000
0000
0033
,
0011
0000
0001
0000
0000
1000
0000
0001
,
0000
0000
0100
0000
0010
0100
0000
0010
,
0000
0000
0100
0010
,
0100
0001
0100
0000
0000
0000
0000
0000
,
0001
0000
1000
0000
0000
0001
0000
0100
,
0000
0000
0001
0000
0010
0001
0000
1000
,
0000
0000
0000
0000
0100
0000
1000
0100
,
0000
0000
0000
0000
,
1000
0001
0000
0100
,
0010
0100
0000
0001
,
1000
0000
0001
0000
0000
1000
0000
0100
,
1000
0000
0000
0000
,
0001
1000
0001
1000
0001
1000
0001
1000
,
0001
0001
0001
0001
,
0100
0000
0000
0000
0000
0000
0000
0000
0000
0000
0000
0000
0000
0000
0000
0000
0000
0000
0000
0000
0000
0000
0000
0000
0000
0000
0000
0000
0000
0000
0000
0000
0000
0000
0000
0000
0000
0000
0000
0000
0000
0000
0000
0000
0000
0000
0000
0000
0000
0100
0000
0000
0000
0000
0000
0000
0000
0000
0000
0000
0000
0000
0000
0000
0000
0000
0000
0000
0000
0000
0000
0000
0000
0000
0000
0000
0000
0000
0000
0000
0000
0000
0000
0000
0000
0000
0000
0000
0000
0000
0000
0000
0000
0000
0000
0000
0100
0000
0000
0000
0000
0000
0000
0000
0000
0000
0000
0000
0000
0000
0000
0000
0000
0000
0000
0000
0000
0000
0000
0000
0000
0000
0000
0000
0000
0000
0000
0000
0000
0000
0000
0000
0000
0000
0000
0000
0000
0000
0000
0000
0000
0000
0000
0000
0100
0000
0000
0000
0000
0000
0000
0000
0000
0000
0000
0000
0000
0000
0000
0000
0000
0000
0000
0000
0000
0000
0000
0000
0000
0000
0000
0000
0000
0000
0000
0000
0000
0000
0000
0000
0000
0000
0000
0000
0000
0000
0000
0000
0000
0000
0000
0000
,
0020
0000
0000
0000
0000
0100
0000
0130
,
0010
1010
1000
0010
,
1000
1100
0100
1000
,
0001
1001
1000
0001
,
0100
0101
0001
0100
,
0010
0110
0100
0010
,
1000
1001
0001
1000
,
0001
0000
0011
0000
0010
0000
0002
2000
,
0000
0000
0000
3003
,
0001
1100
0010
0001
,
1000
0101
0010
1000
,
0001
1010
0100
0001
,
1000
0011
0100
1000
,
0010
0101
0100
0001
,
0010
1100
0100
1000
,
0010
0101
0100
0010
,
2000
0000
0000
0000
,
3001
0101
0001
0101
,
0100
0101
0100
0101
,
0010
1010
0010
1010
,
1000
1010
1000
1010
,
1000
1100
1000
1100
,
0100
1100
0100
1100
,
0010
0011
0010
0011
,
0002
0000
2003
0000
,
3001
0101
1000
1100
,
0001
0011
1000
1010
,
0001
1100
1000
0101
,
1000
0011
0001
1010
,
1000
1100
0001
0101
,
1000
1010
0001
0011
,
1000
0101
0001
1100
,
1000
0001
1000
0001
1000
0001
1000
0001
,
2000
0000
3200
0000
,
2300
0000
3200
0000
,
0320
0000
0032
0000
,
0023
0000
0032
0000
,
2003
0000
3002
0000
,
2003
0000
3002
0000
,
0203
0000
0320
0000
,
0230
0000
0320
0000
,
0030
0000
0000
0000
;

//---------------dance-single - ----------------
#NOTES:
     dance-single:
     :
     Hard:
     9:
     0.615,0.790,0.239,0.321,0.037,455.000,29.000,39.000,0.000,0.000,0.000,0.615,0.790,0.239,0.321,0.037,455.000,29.000,39.000,0.000,0.000,0.000:
0000
0000
0000
0000
,
0000
0000
0000
0000
,
0000
0000
0000
0000
,
0000
0000
0000
0000
,
0000
0000
0000
0000
,
0000
0000
0000
0000
,
0000
0000
0000
0000
,
0000
0000
0000
0000
,
1000
0100
1000
0000
,
0001
0100
0001
0000
,
1000
0010
1000
0000
,
0001
0010
0001
0000
,
1000
0100
1000
0000
,
0001
0100
0001
0000
,
1000
0010
1000
0000
,
0001
0010
0001
0000
,
1000
0100
1000
1000
,
0001
0100
0001
0001
,
1000
0010
1000
1000
,
0001
0010
0001
0001
,
1000
0100
1000
1000
,
0001
0100
0001
0001
,
1000
0010
1000
1000
,
0001
0010
0001
0001
,
1000
0000
0100
0000
0010
0001
0100
0000
,
0001
0000
0100
0000
0010
1000
0100
0000
,
1000
0000
0010
0000
0100
0001
0010
0000
,
0001
0000
0010
0000
0100
1000
0010
0000
,
1000
0000
0100
0000
0010
0001
0100
0000
,
0001
0000
0100
0000
0010
1000
0100
0000
,
1000
0000
0010
0000
0100
0001
0010
0000
,
0001
0010
0001
1000
0001
0100
0001
1000
,
0001
0100
0001
0000
1000
0100
1000
0000
,
0001
0100
0001
0000
1000
0100
1000
0000
,
0001
0010
0001
0000
1000
0010
1000
0000
,
0001
0010
0001
0000
1000
0010
1000
0000
,
0001
0100
0010
0000
1000
0100
0010
0000
,
0001
0100
0010
0000
1000
0100
0010
0000
,
0001
0010
0100
0000
1000
0010
0100
0000
,
0001
0100
0001
1000
0001
0010
0100
1000
,
0001
0000
1000
0000
0000
0010
0000
1000
,
0000
0000
0010
0100
0010
0100
0000
0010
,
0000
0000
0000
0000
0100
0000
0001
1000
,
0001
1000
0001
0000
0000
0000
0000
0000
,
1000
0000
0001
0000
0000
0100
0000
0001
,
0000
0000
0100
0010
0100
0010
0000
0100
,
0000
0000
0000
0000
0010
0000
2000
0002
,
0000
0000
0000
3003
,
1000
0000
0100
0000
0000
0010
0001
0010
,
0001
0000
0010
0000
0000
0001
0100
0001
,
0100
0000
0001
0100
0001
0000
0000
0000
0000
0000
1000
0000
0000
0010
1000
0000
,
0020
0000
0000
0000
,
1030
0100
1000
0001
1000
0010
0100
0001
,
1000
1000
0001
0001
,
0100
0000
0000
0000
0000
0000
0000
0000
0000
0000
0000
0000
0000
0000
0000
0000
0000
0000
0000
0000
0000
0000
0000
0000
0000
0000
0000
0000
0000
0000
0000
0000
0000
0000
0000
0000
0000
0000
0000
0000
0000
0000
0000
0000
0000
0000
0000
0000
0000
0020
0000
0000
0000
0000
0000
0000
0000
0000
0000
0000
0030
0000
0000
0000
0000
0000
0000
0000
0000
0000
0000
0000
0000
0000
0000
0000
0000
0000
0000
0000
0000
0000
0000
0000
0000
0000
0000
0000
0000
0000
0000
0000
0000
0000
0000
0000
0100
0000
0000
0000
0000
0000
0000
0000
0000
0000
0000
0000
0000
0000
0000
0000
0000
0000
0000
0000
0000
0000
0000
0000
0000
0000
0000
0000
0000
0000
0000
0000
0000
0000
0000
0000
0000
0000
0000
0000
0000
0000
0000
0000
0000
0000
0000
0000
0010
0000
0000
0000
0000
0000
0000
0000
0000
0000
0000
0000
0000
0000
0000
0000
0000
0000
0000
0000
0000
0000
0000
0000
0000
0000
0000
0000
0000
0000
0000
0000
0000
0000
0000
0000
0000
0000
0000
0000
0000
0000
0000
0000
0000
0000
0000
0000
,
0200
0000
0000
0000
,
0302
0000
0103
0000
0002
0100
0103
0000
,
2000
0000
3100
0000
2000
0100
3100
0000
,
0002
0000
0013
0000
0002
0010
0013
0000
,
2000
0000
3010
0000
2000
0010
3010
0000
,
0002
0000
0103
0000
2000
0100
3100
0000
,
0002
0000
0013
0000
2000
0010
3010
0000
,
0002
0000
0103
0000
2000
0010
3010
0000
,
2002
0000
0000
3003
1001
0000
1001
0000
,
0001
0000
0101
0000
1000
0100
1100
0000
,
0001
0000
0011
0000
1000
0010
1010
0000
,
0001
0000
0101
0000
1000
0100
1100
0000
,
0001
0000
0011
0000
1000
0010
1010
0000
,
0001
0000
1100
0000
1000
0001
0101
0000
,
0001
0000
1100
0000
1000
0001
0011
0000
,
0001
0000
1100
0000
1000
0001
0101
0000
,
0001
0100
0001
1000
0001
0010
0100
1000
,
0002
1000
1003
0000
0002
0010
0013
0000
,
0200
1000
1300
0000
0200
0010
0310
0000
,
0002
1000
1003
0000
0002
0100
0103
0000
,
0020
1000
1030
0000
0020
0100
0130
0000
,
0001
0100
0101
0000
1000
0100
1100
0000
,
0001
0010
0011
0000
1000
0010
1010
0000
,
0001
0010
0110
0000
1000
0010
0110
0000
,
0100
0001
0100
0001
0100
0001
0100
0001
,
2000
0100
3100
0010
0002
0100
0103
0010
,
2000
0001
3001
0010
0002
1000
1003
0010
,
2000
0010
3010
0100
0002
0010
0013
0100
,
2000
0001
3001
0100
0002
1000
1003
0100
,
1000
0001
0101
0100
0010
1000
1010
0010
,
1000
0001
0011
0010
0100
1000
1100
0100
,
1000
0001
0101
0100
0010
1000
1010
0020
,
2000
0000
0000
0030
,
3010
1000
0010
0000
0100
0001
0100
0000
,
0001
0010
0001
0000
1000
0100
1000
0000
,
0001
0100
0001
0000
1000
0010
1000
0000
,
0001
0010
0001
0000
1000
0100
1000
0000
,
0001
0100
0010
0000
1000
0010
0100
0000
,
0001
1000
0100
0000
1000
0001
0100
0000
,
0001
1000
0010
0000
1000
0001
0010
0000
,
0001
0000
1000
0100
1000
0100
1000
0100
1000
0000
0001
0100
0001
0100
0001
0100
;

//---------------dance-single - ----------------
#NOTES:
     dance-single:
     :
     Challenge:
     10:
     1.000,1.000,0.016,1.000,0.350,675.000,2.000,197.000,12.000,0.000,0.000,1.000,1.000,0.016,1.000,0.350,675.000,2.000,197.000,12.000,0.000,0.000: // measure 1
0000
0000
0000
0000
,  // measure 2
0000
0000
0000
0000
,  // measure 3
0000
0000
0000
0000
,  // measure 4
0000
0000
0000
0000
,  // measure 5
0000
0000
0000
0000
,  // measure 6
0000
0000
0000
0000
,  // measure 7
0000
0000
0000
0000
,  // measure 8
0000
0000
0000
0000
,  // measure 9
1000
0100
1000
0000
0001
0100
0001
0000
,  // measure 10
1000
0010
1000
0000
0001
0010
0001
0000
,  // measure 11
1000
0001
0100
0000
0001
1000
0100
0000
,  // measure 12
1000
0001
0010
0000
0001
1000
0010
0000
,  // measure 13
1000
0100
1000
0000
0001
0100
0001
0000
,  // measure 14
1000
0010
1000
0000
0001
0010
0001
0000
,  // measure 15
1000
0001
0100
0000
0001
1000
0100
0000
,  // measure 16
1000
0001
0010
0000
0001
1000
0010
0000
,  // measure 17
1000
0100
1000
0100
1000
0001
1000
0001
,  // measure 18
0100
0001
0100
0001
0100
0010
0100
0010
,  // measure 19
1000
0010
1000
0010
1000
0001
1000
0001
,  // measure 20
0010
0001
0010
0001
1000
0001
1000
0001
,  // measure 21
1000
0100
0010
0100
1000
0100
0010
0100
,  // measure 22
1000
0001
0010
0001
1000
0001
0010
0001
,  // measure 23
1000
0010
0100
0010
1000
0010
0100
0020
,  // measure 24
2000
0000
0000
0000
0000
0000
0000
3000
,  // measure 25
1030
0010
1000
0100
0010
0001
0100
0001
,  // measure 26
1000
0100
1000
0010
0100
0001
0010
0001
,  // measure 27
1000
0100
0010
0001
1000
0010
0100
0010
,  // measure 28
1000
0001
0100
0010
1000
0100
0010
0000
,  // measure 29
0001
0010
0001
0100
0010
1000
0100
1000
,  // measure 30
0001
0100
0001
0010
0100
1000
0010
1000
,  // measure 31
0001
0100
0010
1000
0001
0010
0100
0010
,  // measure 32
0002
0000
0000
0000
0000
0000
0000
0000
0000
0000
0000
0000
0000
0000
0000
0000
0000
0000
0000
0000
0000
0000
0000
0000
0000
0000
0000
0000
0000
0000
0000
0000
0000
0000
0000
0000
0000
0000
0000
0000
0000
0000
0000
0000
0000
0000
0000
0003
0002
0000
0000
0000
0000
0000
0000
0000
0000
0000
0000
0000
0000
0000
0000
0000
0000
0000
0000
0000
0000
0000
0000
0000
0000
0000
0000
0000
0000
0000
0000
0000
0000
0000
0000
0000
0000
0000
0000
0000
0000
0000
0000
0000
0000
0000
0000
0003
0002
0000
0000
0000
0000
0000
0000
0000
0000
0000
0000
0000
0000
0000
0000
0000
0000
0000
0000
0000
0000
0000
0000
0000
0000
0000
0000
0000
0000
0000
0000
0000
0000
0000
0000
0000
0000
0000
0000
0000
0000
0000
0000
0000
0000
0000
0000
0003
0002
0000
0000
0000
0000
0000
0000
0000
0000
0000
0000
0000
0000
0000
0000
0000
0000
0000
0000
0000
0000
0000
0000
0000
0000
0000
0000
0000
0000
0000
0000
0000
0000
0000
0000
0000
0000
0000
0000
0000
0000
0000
0000
0000
0000
0000
0000
0003
,  // measure 33
0001
0000
0100
0000
0001
0010
0001
0000
1000
0000
0100
0000
1000
0010
1000
0000
,  // measure 34
0001
0000
1000
0000
0001
0010
0001
0000
1000
0000
0001
0000
1000
0010
1000
0000
,  // measure 35
0001
0000
0010
0000
0001
0100
0001
0000
1000
0000
0010
0000
1000
0100
1000
0000
,  // measure 36
0001
0000
1000
0000
0001
0100
0001
0000
1000
0000
0001
0000
1000
0100
1000
0000
,  // measure 37
0001
0000
0010
0000
0100
0010
0100
0000
1000
0000
0010
0000
0100
0010
0100
0000
,  // measure 38
0001
0000
0010
0000
0100
1000
0100
0000
1000
0000
0010
0000
0100
0001
0100
0000
,  // measure 39
0001
0000
1000
0000
0100
0010
0100
0000
1000
0000
0001
0000
0100
0010
0100
0000
,  // measure 40
0010
0000
1000
0010
1000
0010
1000
0010
0100
0000
0001
0010
0001
0010
0001
0010
,  // measure 41
0200
0000
2300
0000
0000
3002
0000
2003
,  // measure 42
0000
0000
3020
2030
3020
0230
0000
0302
,  // measure 43
0000
0000
0000
0000
2003
0000
3002
0023
,  // measure 44
0230
0320
0032
0000
0000
0000
0000
0000
,  // measure 45
0M23
0000
0M32
0000
0M00
2003
0M00
3002
,  // measure 46
00M0
0000
M203
0302
M203
0320
000M
2030
,  // measure 47
000M
0000
0M00
0000
30M2
0000
20M3
3200
,  // measure 48
0000
0000
0000
0000
,  // measure 49
2300
0000
3002
0000
0000
0203
0320
0230
,  // measure 50
0302
0000
0023
0000
0000
0230
0320
0032
,  // measure 51
2003
0000
3020
0230
0320
0000
0000
0000
0000
0000
2030
0000
0000
3002
0023
0000
,  // measure 52
0032
0000
0000
0000
,  // measure 53
1003
0000
0010
1000
0010
0000
1000
0010
1000
0000
0010
1000
0010
0000
1000
0010
,  // measure 54
2000
3002
0203
0302
,  // measure 55
0023
0000
0000
0000
0000
0000
0000
0000
0000
0000
0000
0000
0000
0000
0000
0000
0000
0000
0000
0000
0000
0000
0000
0000
0000
0000
0000
0000
0000
0000
0000
0000
0000
0000
0000
0000
0000
0000
0000
0000
0000
0000
0000
0000
0000
0000
0000
0000
0030
0200
0000
0000
0000
0000
0000
0000
0000
0000
0000
0000
0000
0000
0000
0000
0000
0000
0000
0000
0000
0000
0000
0000
0000
0000
0000
0000
0000
0000
0000
0000
0000
0000
0000
0000
0000
0000
0000
0000
0000
0000
0000
0000
0000
0000
0000
0000
1300
0000
0000
0000
0000
0000
0000
0000
0000
0000
0000
0000
0001
0000
0000
0000
0000
0000
0000
0000
0000
0000
0000
0000
1000
0000
0000
0000
0000
0000
0000
0000
0000
0000
0000
0000
0100
0000
0000
0000
0000
0000
0000
0000
0000
0000
0000
0000
0010
0000
0000
0000
0000
0000
0000
0000
0000
0000
0000
0000
0002
0000
0000
0000
0000
0000
0000
0000
0000
0000
0000
0000
0000
0000
0000
0000
0000
0000
0000
0000
0000
0000
0000
0000
2000
0000
0000
0000
0000
0000
0000
0000
0000
0000
0000
0000
,  // measure 56
0000
0000
0000
0000
0003
0001
0000
3001
,  // measure 57
2000
3010
0200
0310
1000
0002
0013
0200
,  // measure 58
1300
0001
0200
0320
2030
3002
0013
0200
,  // measure 59
0310
0001
1000
0010
2000
3100
2000
3020
,  // measure 60
0230
0302
2003
3001
0010
0100
1000
0010
,  // measure 61
2000
3001
0200
0301
1000
0002
0013
0200
,  // measure 62
0310
0001
0020
0230
2300
3002
1003
0020
,  // measure 63
0130
0001
0010
0100
2000
3010
2000
3200
,  // measure 64
0320
0000
0000
0000
0000
0000
0000
0000
0000
0000
0000
0000
0000
0000
0000
0000
0000
0000
0000
0000
0000
0000
0000
0000
0000
0000
0000
0000
0000
0000
0000
0000
0000
0000
0000
0000
0000
0000
0000
0000
0000
0000
0000
0000
0000
0000
0000
0000
0000
0000
0000
0000
0000
0000
0000
0000
0000
0000
0000
0000
0000
0000
0000
0000
0000
0000
0000
0000
0000
0000
0000
0000
0000
0000
0000
0000
0000
0000
0000
0000
0000
0000
0000
0000
0000
0000
0000
0000
0000
0000
0000
0000
0000
0000
0000
0030
0022
0000
0000
0000
0000
0000
0000
0000
0000
0000
0000
0000
0000
0000
0000
0000
0000
0000
0000
0000
0000
0000
0000
0000
0000
0000
0000
0000
0000
0000
0000
0000
0000
0000
0000
0000
0000
0000
0000
0000
0000
0000
0000
0000
0000
0000
0000
0033
2002
0000
0000
0000
0000
0000
0000
0000
0000
0000
0000
0000
0000
0000
0000
0000
0000
0000
0000
0000
0000
0000
0000
0000
0000
0000
0000
0000
0000
0000
0000
0000
0000
0000
0000
0000
0000
0000
0000
0000
0000
0000
0000
0000
0000
0000
0000
3003
,  // measure 65
2000
3010
0002
0013
0100
0002
2003
3002
,  // measure 66
0023
0130
0002
0103
1000
0200
0320
0032
,  // measure 67
2003
0000
0000
0000
0000
0000
0000
0000
0000
0000
0000
0000
0000
0000
0000
0000
0000
0000
0000
0000
0000
0000
0000
0000
3020
0000
0000
0000
0000
0000
0000
0000
0000
0000
0000
0000
0200
0000
0000
0000
0000
0000
0000
0000
0000
0000
0000
0030
0020
0000
0000
0000
0000
0000
0000
0000
0000
0000
0000
0000
0300
0000
0000
0000
0000
0000
0000
0000
0000
0000
0000
0000
1030
0000
0000
0000
0000
0000
0000
0000
0000
0000
0000
0000
0000
0000
0000
0000
0000
0000
0000
0000
0000
0000
0000
0000
0001
0000
0000
0000
0000
0000
0000
0000
0000
0000
0000
0000
0000
0000
0000
0000
0000
0000
0000
0000
0000
0000
0000
0000
0020
0000
0000
0000
0000
0000
0000
0000
0000
0000
0000
0000
0000
0000
0000
0000
0000
0000
0000
0000
0000
0000
0000
0000
0130
0000
0000
0000
0000
0000
0000
0000
0000
0000
0000
0000
2000
0000
0000
0000
0000
0000
0000
0000
0000
0000
0000
0000
0200
0000
0000
0000
0000
0000
0000
0000
0000
0000
0000
0000
3000
0000
0000
0000
0000
0000
0000
0000
0000
0000
0000
0000
,  // measure 68
0320
0031
0100
0010
0001
0010
1000
0100
,  // measure 69
0020
1030
0020
0130
1000
0002
0203
0320
,  // measure 70
0230
0301
0020
0130
1000
0002
0203
2300
,  // measure 71
3002
0000
0000
0000
0000
0000
0000
0000
0000
0000
0000
0000
0000
0000
0000
0000
0000
0000
0000
0000
0000
0000
0000
0000
0023
0000
0000
0000
0000
0000
0000
0000
0000
0000
0000
0000
0000
0000
0000
0000
0000
0000
0000
0000
0000
0000
0000
0000
0130
0000
0000
0000
0000
0000
0000
0000
0000
0000
0000
0000
0000
0000
0000
0000
0000
0000
0000
0000
0000
0000
0000
0000
0010
0000
0000
0000
0000
0000
0000
0000
0000
0000
0000
0000
0000
0000
0000
0000
0000
0000
0000
0000
0000
0000
0000
0000
1000
0000
0000
0000
0000
0000
0000
0000
0000
0000
0000
0000
0000
0000
0000
0000
0000
0000
0000
0000
0000
0000
0000
0000
0001
0000
0000
0000
0000
0000
0000
0000
0000
0000
0000
0000
0000
0000
0000
0000
0000
0000
0000
0000
0000
0000
0000
0000
0020
0000
0000
0000
0000
0000
0000
0000
0000
0000
0000
0000
0200
0000
0000
0000
0000
0000
0000
0000
0000
0000
0000
0030
0010
0000
0000
0000
0000
0000
0000
0000
0000
0000
0000
0000
0300
0000
0000
0000
0000
0000
0000
0000
0000
0000
0000
0000
,  // measure 72
0001
0000
1000
0100
0010
0100
0010
0100
1000
0000
0001
0100
0010
0100
0010
0100
,  // measure 73
0002
0000
0000
0000
0000
0000
0000
0000
0000
0000
0000
0000
0000
0000
0000
0000
0000
0000
0000
0000
0000
0000
0000
0000
0013
0000
0000
0000
0000
0000
0000
0000
0000
0000
0000
0000
0000
0000
0000
0000
0000
0000
0000
0000
0000
0000
0000
0000
0002
0000
0000
0000
0000
0000
0000
0000
0000
0000
0000
0000
0100
0000
0000
0000
0000
0000
0000
0000
0000
0000
0000
0003
0001
0000
0000
0000
0000
0000
0000
0000
0000
0000
0000
0000
0000
0000
0000
0000
0000
0000
0000
0000
0000
0000
0000
0000
1000
0000
0000
0000
0000
0000
0000
0000
0000
0000
0000
0000
0000
0000
0000
0000
0000
0000
0000
0000
0000
0000
0000
0000
0200
0000
0000
0000
0000
0000
0000
0000
0000
0000
0000
0000
0000
0000
0000
0000
0000
0000
0000
0000
0000
0000
0000
0000
1300
0000
0000
0000
0000
0000
0000
0000
0000
0000
0000
0000
0010
0000
0000
0000
0000
0000
0000
0000
0000
0000
0000
0000
2000
0000
0000
0000
0000
0000
0000
0000
0000
0000
0000
0000
0000
0000
0000
0000
0000
0000
0000
0000
0000
0000
0000
0000
,  // measure 74
3001
0000
0000
0000
0000
0000
0000
0000
0000
0000
0000
0000
0000
0000
0000
0000
0000
0000
0000
0000
0000
0000
0000
0000
0010
0000
0000
0000
0000
0000
0000
0000
0000
0000
0000
0000
0000
0000
0000
0000
0000
0000
0000
0000
0000
0000
0000
0000
0002
0000
0000
0000
0000
0000
0000
0000
0000
0000
0000
0000
0100
0000
0000
0000
0000
0000
0000
0000
0000
0000
0000
0003
0002
0000
0000
0000
0000
0000
0000
0000
0000
0000
0000
0000
0000
0000
0000
0000
0000
0000
0000
0000
0000
0000
0000
0000
2003
0000
0000
0000
0000
0000
0000
0000
0000
0000
0000
0000
0000
0000
0000
0000
0000
0000
0000
0000
0000
0000
0000
0000
3200
0000
0000
0000
0000
0000
0000
0000
0000
0000
0000
0000
0000
0000
0000
0000
0000
0000
0000
0000
0000
0000
0000
0000
1300
0000
0000
0000
0000
0000
0000
0000
0000
0000
0000
0000
0010
0000
0000
0000
0000
0000
0000
0000
0000
0000
0000
0000
2000
0000
0000
0000
0000
0000
0000
0000
0000
0000
0000
0000
0000
0000
0000
0000
0000
0000
0000
0000
0000
0000
0000
0000
,  // measure 75
3001
0000
0000
0000
0000
0000
0000
0000
0000
0000
0000
0000
0000
0000
0000
0000
0000
0000
0000
0000
0000
0000
0000
0000
0100
0000
0000
0000
0000
0000
0000
0000
0000
0000
0000
0000
0000
0000
0000
0000
0000
0000
0000
0000
0000
0000
0000
0000
0010
0000
0000
0000
0000
0000
0000
0000
0000
0000
0000
0000
1000
0000
0000
0000
0000
0000
0000
0000
0000
0000
0000
0000
0010
0000
0000
0000
0000
0000
0000
0000
0000
0000
0000
0000
0000
0000
0000
0000
0000
0000
0000
0000
0000
0000
0000
0000
2000
0000
0000
0000
0000
0000
0000
0000
0000
0000
0000
0000
0000
0000
0000
0000
0000
0000
0000
0000
0000
0000
0000
0000
3100
0000
0000
0000
0000
0000
0000
0000
0000
0000
0000
0000
0000
0000
0000
0000
0000
0000
0000
0000
0000
0000
0000
0000
0020
0000
0000
0000
0000
0000
0000
0000
0000
0000
0000
0000
0001
0000
0000
0000
0000
0000
0000
0000
0000
0000
0000
0030
0020
0000
0000
0000
0000
0000
0000
0000
0000
0000
0000
0000
0000
0000
0000
0000
0000
0000
0000
0000
0000
0000
0000
0000
,  // measure 76
0032
0000
0000
0000
0000
0000
0000
0000
0000
0000
0000
0000
0000
0000
0000
0000
0000
0000
0000
0000
0000
0000
0000
0000
2003
0000
0000
0000
0000
0000
0000
0000
0000
0000
0000
0000
0000
0000
0000
0000
0000
0000
0000
0000
0000
0000
0000
0000
3020
0000
0000
0000
0000
0000
0000
0000
0000
0000
0000
0000
0100
0000
0000
0000
0000
0000
0000
0000
0000
0000
0000
0030
0010
0000
0000
0000
0000
0000
0000
0000
0000
0000
0000
0000
0000
0000
0000
0000
0000
0000
0000
0000
0000
0000
0000
0000
1000
0000
0000
0000
0000
0000
0000
0000
0000
0000
0000
0000
0000
0000
0000
0000
0000
0000
0000
0000
0000
0000
0000
0000
0001
0000
0000
0000
0000
0000
0000
0000
0000
0000
0000
0000
0000
0000
0000
0000
0000
0000
0000
0000
0000
0000
0000
0000
0010
0000
0000
0000
0000
0000
0000
0000
0000
0000
0000
0000
0100
0000
0000
0000
0000
0000
0000
0000
0000
0000
0000
0000
0010
0000
0000
0000
0000
0000
0000
0000
0000
0000
0000
0000
0001
0000
0000
0000
0000
0000
0000
0000
0000
0000
0000
0000
,  // measure 77
2000
0000
0000
0000
0000
0000
0000
0000
0000
0000
0000
0000
0000
0000
0000
0000
0000
0000
0000
0000
0000
0000
0000
0000
3100
0000
0000
0000
0000
0000
0000
0000
0000
0000
0000
0000
0000
0000
0000
0000
0000
0000
0000
0000
0000
0000
0000
0000
2000
0000
0000
0000
0000
0000
0000
0000
0000
0000
0000
0000
0010
0000
0000
0000
0000
0000
0000
0000
0000
0000
0000
3000
1000
0000
0000
0000
0000
0000
0000
0000
0000
0000
0000
0000
0000
0000
0000
0000
0000
0000
0000
0000
0000
0000
0000
0000
0001
0000
0000
0000
0000
0000
0000
0000
0000
0000
0000
0000
0000
0000
0000
0000
0000
0000
0000
0000
0000
0000
0000
0000
0020
0000
0000
0000
0000
0000
0000
0000
0000
0000
0000
0000
0000
0000
0000
0000
0000
0000
0000
0000
0000
0000
0000
0000
0031
0000
0000
0000
0000
0000
0000
0000
0000
0000
0000
0000
0100
0000
0000
0000
0000
0000
0000
0000
0000
0000
0000
0000
0002
0000
0000
0000
0000
0000
0000
0000
0000
0000
0000
0000
0000
0000
0000
0000
0000
0000
0000
0000
0000
0000
0000
0000
,  // measure 78
1003
0000
0000
0000
0000
0000
0000
0000
0000
0000
0000
0000
0000
0000
0000
0000
0000
0000
0000
0000
0000
0000
0000
0000
0100
0000
0000
0000
0000
0000
0000
0000
0000
0000
0000
0000
0000
0000
0000
0000
0000
0000
0000
0000
0000
0000
0000
0000
2000
0000
0000
0000
0000
0000
0000
0000
0000
0000
0000
0000
0010
0000
0000
0000
0000
0000
0000
0000
0000
0000
0000
3000
2000
0000
0000
0000
0000
0000
0000
0000
0000
0000
0000
0000
0000
0000
0000
0000
0000
0000
0000
0000
0000
0000
0000
0000
3002
0000
0000
0000
0000
0000
0000
0000
0000
0000
0000
0000
0000
0000
0000
0000
0000
0000
0000
0000
0000
0000
0000
0000
0023
0000
0000
0000
0000
0000
0000
0000
0000
0000
0000
0000
0000
0000
0000
0000
0000
0000
0000
0000
0000
0000
0000
0000
0031
0000
0000
0000
0000
0000
0000
0000
0000
0000
0000
0000
0100
0000
0000
0000
0000
0000
0000
0000
0000
0000
0000
0000
0002
0000
0000
0000
0000
0000
0000
0000
0000
0000
0000
0000
0000
0000
0000
0000
0000
0000
0000
0000
0000
0000
0000
0000
,  // measure 79
1003
0000
0000
0000
0000
0000
0000
0000
0000
0000
0000
0000
0000
0000
0000
0000
0000
0000
0000
0000
0000
0000
0000
0000
0010
0000
0000
0000
0000
0000
0000
0000
0000
0000
0000
0000
0000
0000
0000
0000
0000
0000
0000
0000
0000
0000
0000
0000
0100
0000
0000
0000
0000
0000
0000
0000
0000
0000
0000
0000
0001
0000
0000
0000
0000
0000
0000
0000
0000
0000
0000
0000
0100
0000
0000
0000
0000
0000
0000
0000
0000
0000
0000
0000
0000
0000
0000
0000
0000
0000
0000
0000
0000
0000
0000
0000
0002
0000
0000
0000
0000
0000
0000
0000
0000
0000
0000
0000
0000
0000
0000
0000
0000
0000
0000
0000
0000
0000
0000
0000
0013
0000
0000
0000
0000
0000
0000
0000
0000
0000
0000
0000
0000
0000
0000
0000
0000
0000
0000
0000
0000
0000
0000
0000
0200
0000
0000
0000
0000
0000
0000
0000
0000
0000
0000
0000
1000
0000
0000
0000
0000
0000
0000
0000
0000
0000
0000
0300
0200
0000
0000
0000
0000
0000
0000
0000
0000
0000
0000
0000
0000
0000
0000
0000
0000
0000
0000
0000
0000
0000
0000
0000
,  // measure 80
1300
0100
0010
0001
1000
0100
0010
0001
2000
0000
3001
0000
2000
0000
3001
0000
,  // measure 81
2000
0000
3010
0000
0200
0010
1300
0000
0001
0000
0020
0000
0230
0010
0302
0000
,  // measure 82
2003
0000
3100
0000
0020
0100
1030
0000
0001
0000
0200
0000
0320
0100
0032
0000
,  // measure 83
2003
0000
3020
0000
0230
0001
0310
0000
0001
0000
0020
0000
0130
2000
0020
3000
,  // measure 84
2030
0000
3100
0000
0010
0001
0100
0000
0001
0000
0100
0000
0010
1000
0100
0000
,  // measure 85
2000
0000
3001
0000
2000
0100
3010
0000
0001
0000
2000
0000
3002
0100
0023
0000
,  // measure 86
2030
0000
3001
0000
2000
0010
3100
0000
0001
0000
2000
0000
3002
0010
0203
0000
,  // measure 87
2300
0000
0000
0000
0000
0000
0000
0000
0000
0000
0000
0000
0000
0000
0000
0000
0000
0000
0000
0000
0000
0000
0000
0000
3002
0000
0000
0000
0000
0000
0000
0000
0000
0000
0000
0000
0000
0000
0000
0000
0000
0000
0000
0000
0000
0000
0000
0000
0013
0000
0000
0000
0000
0000
0000
0000
0000
0000
0000
0000
1000
0000
0000
0000
0000
0000
0000
0000
0000
0000
0000
0000
0010
0000
0000
0000
0000
0000
0000
0000
0000
0000
0000
0000
0000
0000
0000
0000
0000
0000
0000
0000
0000
0000
0000
0000
0001
0000
0000
0000
0000
0000
0000
0000
0000
0000
0000
0000
0000
0000
0000
0000
0000
0000
0000
0000
0000
0000
0000
0000
1000
0000
0000
0000
0000
0000
0000
0000
0000
0000
0000
0000
0000
0000
0000
0000
0000
0000
0000
0000
0000
0000
0000
0000
0020
0000
0000
0000
0000
0000
0000
0000
0000
0000
0000
0000
0002
0000
0000
0000
0000
0000
0000
0000
0000
0000
0000
0030
0010
0000
0000
0000
0000
0000
0000
0000
0000
0000
0000
0000
0003
0000
0000
0000
0000
0000
0000
0000
0000
0000
0000
0000
,  // measure 88
1000
0000
0001
0010
0100
0010
0100
0010
0001
0000
1000
0010
0100
0010
0100
0010
,  // measure 89
1000
0001
0020
0000
0031
1000
0020
0000
,  // measure 90
1030
0001
0200
0000
0301
1000
0200
0000
,  // measure 91
1300
0100
0020
0000
0031
0100
0020
0000
,  // measure 92
1030
0010
0200
0000
0301
0010
0200
0000
,  // measure 93
1300
0001
0020
0000
0031
1000
0020
0000
,  // measure 94
1030
0001
0200
0000
0301
1000
0200
0000
,  // measure 95
1300
0100
0020
0000
0031
0100
0020
0000
,  // measure 96
1030
0000
0001
0010
0100
0010
0001
0010
0100
0000
1000
0010
0100
0010
1000
0010
;
