#TITLE:Weeaboo;
#SUBTITLE:;
#ARTIST:Imil;
#TITLETRANSLIT:;
#SUBTITLETRANSLIT:;
#ARTISTTRANSLIT:;
#GENRE:;
#CREDIT:;
#BANNER:bn.png;
#BACKGROUND:bg.png;
#LYRICSPATH:;
#CDTITLE:;
#MUSIC:Weeaboo - Imil.ogg;
#OFFSET:-0.041;
#SAMPLESTART:68.583;
#SAMPLELENGTH:12.000;
#SELECTABLE:YES;
#BPMS:0.000=175.000,32.000=350.000,96.000=175.000,112.000=350.000,144.000=175.000,160.000=350.000,216.000=175.000,300.000=350.000,420.000=175.000,456.000=350.000,460.000=175.000;
#STOPS:456.000=0.129
,456.750=0.129
,457.500=0.129
;
#BGCHANGES:;
#KEYSOUNDS:;

//---------------dance-single - warpdr!ve (12+)----------------
#NOTES:
     dance-single:
     warpdr!ve (12+):
     Challenge:
     12:
     1.000,1.000,0.403,0.520,0.569:
0000
0000
0000
0000
,
0000
0000
0000
0000
,
0000
0000
0000
0000
,
0000
0000
0000
0000
,
1000
0000
1010
0000
0010
0100
0001
0001
,
0010
0110
0100
1100
,
1000
0000
1010
0000
0010
0100
0001
0001
,
0020
0000
0000
0000
,
0M31
1000
0001
0100
,
0010
0000
0000
0000
0000
0000
0000
0000
0000
1000
0000
0000
0000
0000
0000
0000
0000
0000
0001
0000
0010
0000
0001
0000
,
0010
0100
0010
0001
,
1000
1000
0001
2000
,
3010
0100
0001
1000
,
0100
0000
0000
0000
0100
0000
0000
0000
1000
0000
0000
0000
0001
0100
0000
0010
,
1000
0010
0100
0010
,
1000
0000
0100
0010
0002
0000
0000
0000
,
1003
0010
0100
0010
,
1000
0000
0000
0000
0000
0000
0000
0000
0000
0001
0000
0000
0000
0000
0000
0000
0000
0000
0010
0000
0100
0000
0010
0000
,
0100
1000
0100
0010
,
0001
0000
0001
0100
0010
0000
0000
0000
,
0100
0001
1000
0100
,
0010
0000
0000
0000
0000
0000
0000
0000
0000
0100
0000
0000
0000
0000
0000
0000
0000
0000
1000
0000
0001
0000
1000
0000
,
0001
0000
0100
0000
0010
1000
0001
1000
,
0010
0010
2000
0000
,
3M01
0010
0001
1000
0000
0000
0010
0000
0200
0000
0000
0000
0301
0000
0001
0000
,
1000
0100
0000
0010
0000
0000
0100
0000
2000
0000
0000
0000
3002
0000
0203
0000
,
0310
0100
0001
0100
0000
0000
0010
0000
2000
0000
0000
0000
3001
0000
0001
0000
,
2000
0000
3200
0000
0302
0000
0203
0000
2300
0000
3010
1000
0002
0000
0010
0003
,
M001
0100
0010
1000
,
0001
0000
0000
0000
0010
0000
0000
0000
0100
0000
0000
1000
0100
0000
0000
0010
,
0001
1000
0010
0100
,
0002
0000
1003
0010
0200
0000
0000
0000
,
0301
1000
0100
0010
,
0001
0000
1000
0000
0001
0100
0010
0100
,
0001
1000
0100
0010
,
0100
1000
0001
0100
0010
0100
0001
1000
,
00M1
0000
0000
0000
0100
0000
0010
0001
0010
0000
1000
0000
0100
0000
0010
0000
,
0001
0000
0000
0000
1000
0000
0100
0001
0100
0000
1000
0000
0001
0000
0100
0000
,
0001
0000
1000
0000
0010
0000
0100
1000
0100
0000
0001
0100
0000
0000
0010
1000
,
0002
0000
0023
0000
2030
0000
3020
0000
0032
0000
0103
0010
0100
0001
1000
0001
,
0M10
0001
0010
0001
0010
0100
0010
0100
,
2000
0000
3001
0100
0020
0000
0000
0000
,
1030
0001
1000
0001
0100
0010
0100
0010
,
2000
0000
3001
0010
0200
0000
0000
0000
,
0310
0001
0010
0001
1000
0010
1000
0010
,
0100
0000
0000
0001
0000
0000
0100
0000
0000
0010
0000
0000
1000
0000
0000
0001
0000
0000
1000
0000
0100
0000
1000
0000
,
0100
0010
0001
1000
0001
0010
0100
1000
,
0001
0000
0001
0100
0010
0000
0000
0000
,
1000
0100
1000
0100
0010
0001
0010
0001
,
1000
0001
1000
0010
0200
0000
0000
0000
,
0301
1000
0001
1000
0100
1000
0100
1000
,
0001
0000
0200
0302
,
1003
0100
1000
0100
0010
0100
0010
0100
,
1000
0000
0000
0000
1000
0000
0000
0000
0002
0000
0000
0000
0000
0000
0000
0003
,
10M1
0000
0101
0000
1010
1010
1001
2000
,
3000
0000
1100
0000
0000
1100
0000
0000
0110
0000
0000
0110
0000
0000
0011
0000
,
0000
0000
1001
0000
0000
1001
0000
0000
0001
0000
0100
0000
0010
0000
0100
0000
,
0001
0100
0020
0000
0000
0000
0130
0000
0001
0000
1000
0100
1000
0000
0100
0000
,
1000
0000
0001
0000
0010
M00M
0010
0000
1000
0000
0001
0000
0100
M00M
0100
0000
,
1000
0000
1100
0000
0000
1100
0000
0000
0011
0000
0000
0011
0000
0000
1001
0000
,
0000
0000
1010
0000
0000
1010
0000
0000
0010
0000
0100
0001
0100
0010
0000
0000
,
1000
0000
0001
0000
1000
0000
0100
1000
0001
0100
0001
1000
0010
0100
0001
0010
,
0100
1000
0001
0100
0010
1000
0100
0010
0100
1000
0001
0100
0010
1000
0001
0010
,
0001
0000
0011
0000
0000
0011
0000
0000
1001
0000
0000
1001
0000
0000
1010
0000
,
2000
0000
3020
0000
0032
0000
0023
0000
0230
0000
0301
1000
0001
1000
0001
0000
,
0010
0000
0100
0010
0001
0000
0100
0010
1000
0010
0100
0001
1000
0001
1000
0000
,
0100
0000
1100
0000
0000
1100
0000
0000
0110
0000
0000
0110
0000
0000
0011
0000
,
0000
0000
1001
0000
0000
1001
0000
0000
1010
0000
0000
1010
0000
0000
0101
0000
,
0000
0000
1001
0000
0000
1001
0000
0000
1100
0000
0000
1100
0000
0000
0011
0000
,
0010
0000
0001
1000
0010
0000
1000
0000
0001
0000
0010
0001
1000
0000
0001
0000
,
0100
0000
0000
0010
1000
0000
0001
0000
0020
0000
0000
0000
0031
0000
0000
0000
,
1000
0000
0000
0000
0001
0000
0100
1000
0100
0000
0010
0000
1000
0000
0001
0000
,
0010
0000
0000
0000
0001
0000
0010
1000
0010
0000
0001
0000
0100
0000
0001
0000
,
1000
0000
0100
0000
0010
0000
0100
0001
0100
0000
0010
0100
0000
0000
1000
0001
,
2000
0000
3020
0000
0032
0000
0023
0000
2030
0000
3100
0010
0100
0000
1000
0000
,
00M1
1000
0010
0100
,
0001
0000
0000
0000
0000
0000
0000
0000
0000
1000
0000
0000
0000
0000
0000
0000
0000
0000
0010
0000
0100
0000
0010
0000
,
0100
0001
0010
0100
,
0010
0010
0001
2000
,
3001
0100
0010
1000
,
0010
0000
0000
0000
0010
0000
0000
0000
1000
0000
0000
0000
0010
1000
0000
0001
,
0100
0010
1000
0001
,
1000
0000
0001
0010
0200
0000
0000
0000
,
1300
0001
0100
0010
,
1000
0000
0000
0000
0000
0000
0000
0000
0000
0001
0000
0000
0000
0000
0000
0000
0000
0000
0010
0000
0100
0000
0010
0000
,
0100
1000
0100
1000
,
0001
0000
0001
0100
0010
0000
0000
0000
,
1000
0001
0010
0100
,
0010
0000
0000
0000
0000
0000
0000
0000
0000
0001
1000
0001
,
1000
0000
0010
0000
1000
0001
0100
0001
,
1000
1000
0200
0000
,
1300
0001
1000
0001
1000
0010
1000
0010
,
2000
0000
3001
0010
0200
0000
0000
0000
,
0310
0001
0010
0001
0010
0100
0010
0100
,
2000
0000
3001
0100
0020
0000
0000
0000
,
0130
0001
0100
0001
1000
0100
1000
0100
,
0010
0000
0000
0001
0000
0000
0010
0000
0000
0100
0000
0000
1000
0000
0000
0001
0000
0000
1000
0000
0010
0000
1000
0000
,
0010
0100
0001
1000
0100
0010
0100
1000
,
0001
0000
1000
0010
0100
0000
0000
0000
,
0001
1000
0001
1000
0100
1000
0100
1000
,
0001
1000
0001
0100
0020
0000
0000
0000
,
1030
0001
1000
0001
0100
0001
0100
0001
,
1000
0000
0200
2300
,
3001
0010
0001
0010
0100
0010
0100
0010
,
0001
1000
0001
0100
0010
1000
0010
0100
0001
0100
0001
1000
,
0M10
0000
1010
0000
1000
1000
0002
0000
,
0013
0000
0100
0000
0010
0000
0100
0000
1000
0000
0000
0001
0000
0000
2000
0000
,
0000
0000
3001
0000
1000
0000
0010
0000
0100
0000
0001
1000
0100
1000
0000
0000
,
0001
0000
0100
0000
0010
0000
0100
0001
1000
0010
1000
0001
0010
0100
0010
0100
,
1000
0001
1000
0010
1000
0001
0010
0100
1000
0100
0010
0001
1000
0100
1000
0001
,
0010
0000
0001
0000
0010
0000
0001
0000
1000
0000
0000
0010
0000
0000
0200
0000
,
0000
0000
0301
0000
1000
0000
0100
0000
0010
0000
0100
0010
0001
1000
0000
0000
,
0010
0000
1000
0000
0001
0000
1000
0100
1000
0001
0100
0010
0100
0001
1000
0100
,
0010
0001
0010
0100
1000
0001
0100
0010
0100
0001
1000
0100
1000
0100
0010
0001
,
1M00
0000
0000
00M1
0000
0000
1M00
0000
0000
0000
0000
0000
0000
0000
0000
0000
,
2MM2
0000
3003
0000
;

//---------------dance-single - NOVICE----------------
#NOTES:
     dance-single:
     NOVICE:
     Beginner:
     2:
     0.110,0.206,0.009,0.027,0.000:
0000
0000
0000
0000
,
0000
0000
0000
0000
,
0000
0000
0000
0000
,
0000
0000
0000
0000
,
1000
0000
0000
0000
,
0001
0000
0000
0000
,
1000
0000
0000
0000
,
0002
0000
0000
0000
,
0103
0000
0000
0000
,
0000
0000
0000
0000
,
0010
0000
0000
0000
,
0000
0000
0000
0000
,
0100
0000
0000
0000
,
0000
0000
0000
0000
,
0010
0000
0000
0000
,
0000
0000
0000
0000
,
1000
0000
0000
0000
,
0000
0000
0000
0000
,
0010
0000
0000
0000
,
0000
0000
0000
0000
,
1000
0000
0000
0000
,
0000
0000
0000
0000
,
0010
0000
0000
0000
,
0100
0000
0000
0000
,
0001
0000
0000
0000
,
1000
0000
0000
0000
,
0001
0000
0000
0000
,
1000
0000
0000
0000
,
0100
0000
0000
0000
,
0000
0000
0000
0000
,
0010
0000
0000
0000
,
0000
0000
0000
0000
,
0100
0000
0000
0000
,
0000
0000
0000
0000
,
1000
0000
0000
0000
,
0001
0000
0000
0000
,
1000
0000
0000
0000
,
0010
0000
0000
0000
,
0100
0000
0000
0000
,
0001
0000
0000
0000
,
1000
0000
0000
0000
,
0000
0000
0000
0000
,
0100
0000
0000
0000
,
0000
0000
0000
0000
,
0010
0000
0000
0000
,
0000
0000
0000
0000
,
0001
0000
0000
0000
,
0000
0000
0000
0000
,
1000
0000
0000
0000
,
0000
0000
0000
0000
,
0001
0000
0000
0000
,
0000
0000
0000
0000
,
0100
0000
0000
0000
,
0010
0000
0000
0000
,
0100
0000
0000
0000
,
0001
0000
0000
0000
,
1000
0000
0000
0000
,
0001
0000
0000
0000
,
1000
0000
0000
0000
,
0100
0000
0000
0000
,
0010
0000
0000
0000
,
0001
0000
0000
0000
,
1000
0000
0000
0000
,
0010
0000
0000
0000
,
0100
0000
0000
0000
,
0001
0000
0000
0000
,
1000
0000
0000
0000
,
0010
0000
0000
0000
,
0100
0000
0000
0000
,
0010
0000
0000
0000
,
1000
0000
0000
0000
,
0001
0000
0000
0000
,
0010
0000
0000
0000
,
0100
0000
0000
0000
,
1000
0000
0000
0000
,
0001
0000
0000
0000
,
0000
0000
0000
0000
,
0100
0000
0000
0000
,
0000
0000
0000
0000
,
0010
0000
0000
0000
,
0000
0000
0000
0000
,
1000
0000
0000
0000
,
0000
0000
0000
0000
,
0001
0000
0000
0000
,
0000
0000
0000
0000
,
1000
0000
0000
0000
,
0000
0000
0000
0000
,
0100
0000
0000
0000
,
0000
0000
0000
0000
,
1000
0000
0000
0000
,
0001
0000
0000
0000
,
1000
0000
0000
0000
,
0000
0000
0000
0000
,
0010
0000
0000
0000
,
0000
0000
0000
0000
,
0100
0000
0000
0000
,
0000
0000
0000
0000
,
0010
0000
0000
0000
,
0000
0000
0000
0000
,
1000
0000
0000
0000
,
0000
0000
0000
0000
,
0001
0000
0000
0000
,
0000
0000
0000
0000
,
0010
0000
0000
0000
,
0100
0000
0000
0000
,
0010
0000
0000
0000
,
0001
0000
0000
0000
,
1000
0000
0000
0000
,
0010
0000
0000
0000
,
0100
0000
0000
0000
,
0001
0000
0000
0000
,
1000
0000
0000
0000
,
0100
0000
0000
0000
,
1000
0000
0000
0000
,
2002
0000
0000
0000
,
3003
0000
0000
0000
;

//---------------dance-single - warpdr!ve (6-)----------------
#NOTES:
     dance-single:
     warpdr!ve (6-):
     Easy:
     6:
     0.436,0.619,0.179,0.197,0.000:
0000
0000
0000
0000
,
0000
0000
0000
0000
,
0000
0000
0000
0000
,
0000
0000
0000
0000
,
1000
0010
1000
0000
,
0001
0010
0001
0000
,
1000
0100
1000
0000
,
0002
0000
0000
0000
,
0103
0000
0100
0000
,
0010
0000
0000
0000
,
1000
0000
1000
0000
,
0001
0000
0001
0000
,
0010
0000
0010
0000
,
0100
0000
0000
0000
,
0010
0000
0010
0000
,
0001
0000
1002
0000
,
1003
0000
1000
0000
,
0010
0000
0000
0000
,
0100
0000
0100
0000
,
0001
0000
0001
0000
,
1000
0000
1000
0000
,
0100
0000
0000
0000
,
0010
0000
0100
0000
,
1000
0000
2001
0000
,
3001
0100
1000
0000
,
1000
0100
0001
0000
,
0001
0010
1000
0000
,
1000
0010
0001
1000
,
0001
0000
0100
0000
,
1000
0000
0000
0000
,
1000
0000
0100
0000
,
0001
0000
0000
0000
,
0001
0000
0010
0000
,
1000
0000
0000
0000
,
1000
0000
0010
0000
,
0001
0000
1000
0000
,
0010
0000
0100
0000
0000
0001
0000
1000
,
0000
0100
0000
0010
,
0000
0000
0100
0000
0000
1000
0000
0001
,
0100
0010
0200
0000
,
0301
0000
1000
0000
,
0001
0100
0002
0000
,
1003
0000
0100
0000
,
0010
0100
0020
0000
,
0031
0000
1000
0000
,
0001
0100
0002
0000
,
1003
0000
0100
0000
,
0010
0000
0100
0000
,
1000
0000
0001
0000
,
0100
0010
0200
0000
,
0301
0000
1000
0000
,
0100
0000
0000
0000
,
0010
0000
0001
0000
,
0100
0010
0200
0000
,
0301
0000
1000
0000
0001
0001
1000
0000
,
0100
0000
0010
0000
0001
1000
0001
0000
,
0100
0000
0010
0000
0100
0001
0100
0000
,
0010
0000
1000
0000
0001
1000
0001
0000
,
0010
0000
0100
0000
1000
0100
1000
0000
,
0001
0000
0100
0000
0010
1000
0010
0000
,
1000
0000
0001
0000
0010
0100
0010
0000
,
0100
0000
1000
0000
0001
0100
0001
0000
,
1000
0000
0100
0000
0010
0100
0010
0000
,
0001
1001
1000
1100
,
0100
1100
1000
1001
,
0001
0101
0100
0110
,
0010
1010
1000
1001
,
0001
1001
1000
1010
,
0010
0110
0100
0101
,
0001
1001
1000
1100
,
0100
0000
0010
0100
0010
0000
0001
0000
,
1002
0000
0000
0000
,
0203
0000
0000
0000
,
0320
0000
0000
0000
,
1030
0001
2000
0000
,
3010
0000
0010
0000
,
0100
0000
0000
0000
,
0001
0000
0001
0000
,
1000
0000
1000
0000
,
0100
0000
0100
0000
,
0010
0000
0000
0000
,
0100
0000
0100
0000
,
1000
0000
2001
0000
,
3001
0000
0001
0000
,
0100
0000
0000
0000
,
0010
0000
0010
0000
,
1000
0000
1000
0000
,
0001
0000
0001
0000
,
0010
0000
0000
0000
,
0100
0000
0010
0000
,
0001
0000
1002
0000
,
1003
0000
0001
0000
,
1000
0010
2000
0000
,
3001
0000
0010
0000
,
0100
0010
0200
0000
,
1300
0000
0001
0000
,
1000
0010
2000
0000
,
3001
0000
0010
0000
,
0100
0000
0010
0000
,
0001
0000
1000
0000
,
0010
0100
0020
0000
,
1030
0000
0001
0000
,
0010
0000
0000
0000
,
0100
0000
1000
0000
,
0010
0100
0020
0000
,
1030
0000
0001
0000
1000
1000
0001
0000
,
0010
0000
0100
0000
1000
0001
1000
0000
,
0010
0000
0100
0000
0001
0100
0001
0000
,
1000
0000
0100
0000
0010
0100
0010
0000
,
0001
0000
1000
0000
0001
0100
0001
0000
,
1000
0000
0100
0000
0010
0100
0010
0000
,
0001
0000
1000
0000
0001
0100
0001
0000
,
0100
0000
0010
0000
1000
0001
1000
0000
,
0100
0000
0010
0000
0001
1000
0001
0000
,
2002
0000
0000
0000
,
3003
0000
0000
0000
;

//---------------dance-single - warpdr!ve (8)----------------
#NOTES:
     dance-single:
     warpdr!ve (8):
     Medium:
     8:
     0.607,0.984,0.179,0.332,0.045:
0000
0000
0000
0000
,
0000
0000
0000
0000
,
0000
0000
0000
0000
,
0000
0000
0000
0000
,
1000
0000
0010
0000
0100
0001
1000
0000
,
0100
0010
0100
1000
,
0001
0000
0100
0000
0010
1000
0001
1000
,
0020
0000
0000
0000
,
0130
0000
0001
0000
,
1000
0000
0000
0100
0000
0000
0010
0000
,
0001
0000
1000
0000
,
0010
0100
0010
0000
,
1000
0000
0001
0000
,
0010
0000
0000
0100
0000
0000
0010
0000
,
0001
0000
1000
0000
,
0010
0100
0002
0000
,
1003
0000
0100
0000
,
0010
0000
0000
0100
0000
0000
1000
0000
,
0001
0000
0100
0000
,
0010
1000
0010
0000
,
1000
0000
0001
0000
,
0010
0000
0000
0100
0000
0000
0010
0000
,
0001
0000
1000
0001
,
0100
0010
2000
0000
,
3001
0000
0010
0000
0100
0000
0010
0010
,
0001
0000
1000
0000
0010
0000
0000
0100
,
0001
0000
1000
0000
0100
0000
0010
0010
,
0002
2003
3020
2030
3002
0023
0230
0000
,
1300
0010
1000
0010
,
1000
0010
0100
0000
,
0001
0010
0001
0010
,
0001
0010
0200
0000
,
1300
0001
1000
0001
,
1000
0001
0100
0000
,
0010
1000
0010
1000
,
0010
1000
0001
0010
,
0002
0000
0010
0000
0000
0010
0000
0010
,
0023
0100
0000
0100
,
0230
0000
1000
0000
0000
1000
0000
1300
,
0200
2300
3002
0203
0320
0000
0000
0000
,
1030
0001
0010
0001
,
1000
0000
0020
0000
,
0130
0001
0100
0010
,
1000
0000
0001
0000
,
0010
0100
0010
0100
,
1000
0001
1000
0001
,
0100
0010
0100
0001
,
1000
0000
0100
0000
,
0010
0001
0010
0001
,
1000
0000
0020
0000
,
0130
0001
1000
0001
,
0100
0000
0001
1000
,
0001
0010
0001
0010
,
0100
0000
1000
0000
,
1001
0000
1001
0000
0001
0100
0101
0000
,
0000
0000
0001
0000
0000
1000
0000
0000
0001
0000
0000
1000
0000
0000
0001
0000
,
0000
0000
0010
0000
0000
0100
0000
0000
0010
0000
0001
0000
0010
0000
0100
0000
,
1000
0000
0001
0000
1000
0010
0001
0010
,
0100
0000
0001
0000
1000
0100
0001
0100
,
1000
0000
0001
0000
0000
0001
0000
0000
0001
0000
0000
0001
0000
0000
0001
0000
,
0000
0000
0010
0000
0000
0010
0000
0000
0010
0000
0100
0000
0010
0001
0000
0000
,
1000
0000
0001
0000
0100
0010
0100
0010
,
1000
0001
0100
0001
1000
0010
1000
0001
,
0010
0110
0000
0110
,
0000
1100
0000
1100
,
0000
1001
0000
1001
,
0000
0101
0000
0101
,
0100
0010
1010
0000
1000
0000
1001
0000
,
0001
0010
0110
0000
0100
0000
0110
0000
,
0010
0001
1000
0000
0010
0100
0010
0000
,
1000
0001
0010
0000
0001
1000
0010
0000
,
2000
0000
0010
0000
0000
0010
0000
0010
,
3020
0100
0000
0100
,
0230
0000
0001
0000
0000
0001
0000
0301
,
0200
0320
2030
3002
0023
0000
0000
0000
,
0130
0000
0010
0000
,
0001
0000
0000
0010
0000
0000
0001
0000
,
1000
0000
0010
0000
,
0100
0001
0100
0000
,
0010
0000
1000
0000
,
0100
0010
0001
1000
,
0001
0000
1000
0000
,
0010
0100
0020
0000
,
1030
0000
0001
0000
,
0010
0000
0000
0100
0000
0000
0010
0000
,
0001
0000
0100
0000
,
0010
1000
0010
0000
,
0100
0000
0001
0000
,
0010
0000
0000
0000
,
0001
0000
1000
0001
,
0100
0010
0200
0000
,
0301
1000
0001
1000
,
0100
0010
0002
0000
,
1003
0010
0100
0010
,
1000
0001
0020
0000
,
0130
0010
0001
1000
,
0001
0100
0010
1000
,
0001
0010
0100
0010
,
0001
1000
0010
0000
,
0100
0001
1000
0001
,
1000
0100
0020
0000
,
0130
1000
0001
1000
,
0010
0000
0100
0001
,
1000
0100
0010
0001
,
1000
0010
0100
0001
,
1001
0000
1001
0000
1000
1000
0020
0000
,
1030
0000
0000
0000
0001
0000
0000
0000
0100
0000
0000
0010
0000
0000
0100
0000
,
0000
0001
0010
0001
0010
0000
0011
0000
,
0001
0000
1000
0000
0010
0100
0010
1000
,
0001
0010
0100
0010
0001
1000
0010
0100
,
0001
0000
0000
0000
1000
0000
0000
0000
0100
0000
0000
0010
0000
0000
0100
0000
,
0000
1000
0100
1000
0100
0000
1100
0000
,
1000
0000
0001
0000
0010
0100
1000
0001
,
0100
0010
0100
0001
1000
0100
0010
0001
,
1000
0000
0000
0001
0000
0000
1000
0000
0000
0000
0000
0000
0000
0000
0000
0000
,
2002
0000
3003
0000
;

//---------------dance-single - warpdr!ve (10)----------------
#NOTES:
     dance-single:
     warpdr!ve (10):
     Hard:
     10:
     0.804,0.932,0.359,0.368,0.148:
0000
0000
0000
0000
,
0000
0000
0000
0000
,
0000
0000
0000
0000
,
0000
0000
0000
0000
,
1000
0000
1010
0000
0010
0100
0101
0000
,
0001
1001
1000
1100
,
0100
0000
0110
0000
0010
0001
1001
0000
,
2000
0000
0000
0000
,
3010
0100
0001
0100
,
0010
0000
0000
1000
0000
0000
0001
0010
,
0001
0010
0100
1000
,
0001
0001
0100
0000
,
0010
1000
0001
1000
,
0100
0000
0000
0010
0000
0000
0100
1000
,
0100
1000
0001
0100
,
0010
0000
0120
0000
,
1030
0001
1000
0001
,
0010
0000
0000
0100
0000
0000
0010
0001
,
0010
0001
1000
0010
,
0100
1000
0100
0000
,
0001
0010
0100
0010
,
0001
0000
0000
1000
0000
0000
0010
0000
,
0100
0000
0001
0000
1000
0100
1000
0100
,
1000
0000
0001
0000
0102
0000
0000
0003
,
1001
0000
1100
0000
0011
0000
0010
0010
,
0110
1100
1001
0000
,
0101
0000
1010
0000
1001
0000
0001
0001
,
0012
0000
0000
0000
0000
0000
0000
1003
,
0001
0100
0010
0100
,
0001
0000
1000
0000
0100
0000
0020
0030
,
0002
0003
1000
0000
0010
0000
0100
0000
,
0010
0000
1020
0000
,
1030
0001
0010
0100
,
0010
0000
0100
0000
1000
0001
1000
0001
,
1000
0010
0100
0001
,
1000
0010
1000
0000
0001
0010
0001
0000
,
1000
0010
0100
0010
1000
0001
0010
0200
,
0000
0310
0001
1000
0010
0100
0010
0000
,
0000
0000
1000
0000
0001
0000
0010
0100
1000
0000
0001
0100
0000
0000
0010
1000
,
0001
0010
0100
0010
0002
0000
0000
0000
,
1003
0001
1000
0000
0001
0010
0001
0000
,
1000
0000
2010
0000
,
3001
0010
0001
0000
1000
0100
1000
0000
,
0002
0000
0000
0003
1001
0000
0000
0000
,
1000
0010
1000
0010
0100
0001
0100
0000
,
0010
1000
0001
1000
0100
0010
0001
0000
,
0020
0230
0320
0032
,
2003
3020
0230
0300
,
0001
1000
0001
0000
1000
0100
1000
0000
,
0001
0000
0102
0000
,
1003
0100
1000
0000
0001
0010
0001
0000
,
2000
0000
3010
0100
,
0001
1000
0001
1000
0100
1000
0100
0000
,
0010
0000
0010
0000
0002
0000
0000
0003
,
1001
0000
1001
0000
1000
1000
0010
0000
,
0000
0000
1000
0000
0000
0001
0000
0000
0010
0000
0000
1000
0000
0000
0010
0000
,
0000
0000
0001
0000
0000
0100
0000
0000
1000
0000
0100
0000
0010
0000
0100
0000
,
0001
2000
0000
3001
0010
0001
1000
0010
,
0100
0001
1000
0100
0010
0100
1000
0001
,
0000
0000
1000
0000
0000
0100
0000
0000
0001
0000
0000
0100
0000
0000
0010
0000
,
0000
0000
0001
0000
0000
0100
0000
0000
1000
0000
0100
0010
0100
0010
0000
0000
,
1000
0000
0001
0000
0010
0000
0100
0000
0010
0001
0010
0000
0100
1000
0100
0000
,
1000
0010
0001
0010
1000
0100
0001
0100
,
1000
0000
1010
0000
0010
0100
0101
0000
,
0001
0000
1001
0000
1000
0100
0110
0000
,
0010
0000
0011
0000
0001
1000
1010
0000
,
0010
0000
1010
0000
1000
0001
0011
0000
,
0010
0000
0001
0000
0000
1000
0000
0000
0010
0000
0000
0001
0000
0000
0010
0000
,
0000
0000
1000
0000
0000
0100
0000
0000
0001
0000
0000
0100
0000
0000
0010
0000
,
0000
0000
0001
0000
0000
1000
0000
0000
0010
0000
0000
0001
0000
0000
0010
0000
,
0100
0000
0000
0010
1000
0000
0001
0000
1000
0000
0000
0000
0100
0000
0000
0000
,
1000
0001
1000
0010
0100
0010
1000
0200
,
0000
0310
0100
1000
0001
0100
0010
0000
,
0000
0000
0100
0000
0001
0000
1000
0100
0010
0000
0100
1000
0000
0000
0001
0000
,
0100
0010
0100
0001
2000
0000
0000
0000
,
3100
0010
0001
0010
,
0100
0000
0000
1000
0000
0000
0001
0100
,
0001
0100
0010
1000
,
0001
0001
1000
0000
,
0100
0010
0001
0010
,
0100
0000
0100
0000
0010
0000
0001
1000
,
0001
0100
0010
1000
,
0010
0000
1020
0000
,
0130
0001
1000
0001
,
0010
0000
0000
0100
0000
0000
1000
0001
,
1000
0001
0100
0001
,
0010
1000
0010
0000
,
0001
0100
0010
0100
,
0001
0000
0000
0000
,
1000
0000
0001
0000
1000
0100
1000
0100
,
1000
0001
1002
0000
,
1003
0001
1000
0000
0001
0100
0001
0000
,
0100
0000
0210
0000
,
0310
1000
0010
0000
1000
0001
1000
0000
,
0200
0000
0000
0300
1100
0000
0000
0000
,
1000
0001
1000
0001
0100
0010
0100
0000
,
0010
1000
0010
1000
0001
1000
0001
0000
,
0020
0230
0320
0032
,
2003
3200
0320
0030
,
0100
1000
0100
0000
1000
0001
1000
0000
,
0001
0000
0102
0000
,
0103
0010
0100
0000
0010
1000
0010
0000
,
1000
0000
0000
0001
,
1000
0001
1000
0001
0010
0100
1000
0000
,
0001
0100
0010
0100
0001
1000
0001
0000
,
1001
0000
1001
0000
1000
1000
0020
0000
,
0130
0000
0001
0000
0100
0000
0010
0000
1000
0000
0000
0001
0000
0000
2000
0000
,
0000
0000
3100
0000
0010
0000
0100
0000
1000
0000
0001
1000
0001
1000
0000
0000
,
0001
0000
0100
0000
0010
0000
0100
0000
0001
1000
0001
0000
1000
0100
1000
0000
,
0001
0100
1000
0100
0001
0010
1000
0010
,
0001
0000
0100
0000
0010
0000
0100
0000
0001
0000
0000
1000
0000
0000
0200
0000
,
0000
0000
1300
0000
0001
0000
0100
0000
0001
0000
1000
0010
1000
0010
0000
0000
,
0100
0000
0001
0000
1000
0000
0100
0010
0100
0000
1000
0001
1000
0000
0001
0000
,
1000
0010
0001
0010
1000
0100
0001
0100
,
1000
0000
0000
0001
0000
0000
1000
0000
0000
0000
0000
0000
0000
0000
0000
0000
,
2002
0000
3003
0000
;
