#TITLE:Solver;
#SUBTITLE:;
#ARTIST:Taku Yoshioka;
#TITLETRANSLIT:;
#SUBTITLETRANSLIT:;
#ARTISTTRANSLIT:;
#GENRE:;
#CREDIT:;
#BANNER:Solver.png;
#BACKGROUND:Solver-bg.png;
#LYRICSPATH:;
#CDTITLE:;
#MUSIC:Solver.ogg;
#OFFSET:-0.065000;
#SAMPLESTART:82.370995;
#SAMPLELENGTH:12.000000;
#SELECTABLE:YES;
#BPMS:0.000000=70.000000
,31.000000=140.000000
,61.500000=70.000000
,77.500000=140.000000
,108.500000=70.000000
,124.000000=140.000000
;
#STOPS:30.000000=0.857143,
60.000000=0.107143,
60.250000=0.107143,
60.500000=0.107143,
60.750000=0.107143,
61.000000=0.107143,
61.250000=0.107143,
107.500000=0.428574,
122.500000=0.428574,
217.000000=0.107143,
217.250000=0.107143,
217.500000=0.107143,
217.750000=0.107143,
218.000000=0.107143,
218.250000=0.107143
;
#BGCHANGES:;
#KEYSOUNDS:;
#ATTACKS:;

//---------------dance-single - ----------------
#NOTES:
     dance-single:
     :
     Hard:
     10:
     0.772071,1.089037,0.279405,0.566794,1.073715,677.000000,642.000000,35.000000,71.000000,0.000000,0.000000,0.772071,1.089037,0.279405,0.566794,1.073715,677.000000,642.000000,35.000000,71.000000,0.000000,0.000000:
// measure 0
0000
0000
0000
0000
,  // measure 1
0000
0000
0000
0000
,  // measure 2
0100
0110
0001
0102
,  // measure 3
0013
0000
0000
0000
0000
0000
0000
0000
0011
0000
0000
0000
0000
0000
0000
0000
0100
0000
0000
0010
0000
0000
0100
0000
2000
0000
0002
0000
0000
0000
0000
3003
,  // measure 4
1020
0000
0000
0000
0000
0000
0000
0000
0000
0000
0000
0000
0000
0000
0000
0000
0000
0000
0000
0000
0000
0000
0000
0000
0000
0000
0000
0000
0000
0000
0000
0000
0000
0000
0000
0000
0000
0000
0000
0000
0000
0000
0000
0000
0000
0000
0000
0000
0130
0000
0000
0000
0000
0000
0000
0000
0000
0000
0000
0000
0010
0000
0000
0000
0000
0000
0100
0000
0000
0000
0000
0000
0010
0000
0000
0000
0000
0000
1000
0000
0000
0000
0000
0000
0000
0000
0000
0000
0000
0000
0100
0000
0000
0000
0000
0000
0010
0000
0000
0000
0000
0000
0000
0000
0100
0000
0000
0000
0000
0000
0000
0000
1000
0000
0000
0000
0000
0000
0000
0000
0010
0000
0000
0000
0000
0000
0000
0000
0001
0000
0000
0000
0000
0000
0000
0000
0010
0000
0000
0000
0000
0000
0000
0000
2000
0000
0000
0000
0000
0000
0000
0000
0000
0000
0000
0000
0000
0000
0000
0000
0000
0000
0000
0000
0000
0000
0000
0000
3001
0000
0000
0000
0000
0000
0000
0000
0000
0000
0000
0000
1000
0000
0000
0000
0000
0000
0001
0000
0000
0000
0000
0000
,  // measure 5
0010
0000
0000
0000
0000
0000
0000
0000
0000
0000
0000
0000
0000
0000
0000
0000
0000
0000
0000
0000
0000
0000
0000
0000
0001
0000
0000
0000
0000
0000
0010
0000
0000
0000
0000
0000
0100
0000
0000
0000
0000
0000
2000
0000
0000
0000
0000
0000
3002
0000
0000
0000
0000
0000
2003
0000
0000
0000
0000
0000
3002
0000
0000
0000
0000
0000
2003
0000
0000
0000
0000
0000
3002
0000
0000
0000
0000
0000
0203
0000
0000
0000
0000
0000
0000
0000
0000
0000
0000
0000
0320
0000
0000
0000
0000
0000
0230
0000
0000
0000
0000
0000
0000
0000
0000
0000
0000
0000
0000
0000
0000
0000
0000
0000
0000
0000
0000
0000
0000
0000
0310
0000
0000
0000
0100
0000
0000
0000
0010
0000
0000
0000
0100
0000
0000
0000
0000
0000
0000
0000
0000
0000
0000
0000
0002
0000
0000
0000
0000
0000
0023
0000
0000
0000
0000
0000
0200
0000
0000
0000
0000
0000
0300
0000
0000
0000
0000
0000
0032
0000
0000
0000
0000
0000
0203
0000
0000
0000
0000
0000
0320
0000
0000
0000
0000
0000
2030
0000
0000
0000
0000
0000
,  // measure 6
3100
0000
0000
0000
0000
0000
0000
0000
0000
0000
0000
0000
0000
0000
0000
0000
0000
0000
0000
0000
0000
0000
0000
0000
1100
0000
0000
0000
0000
0000
0000
0000
0000
0000
0000
0000
1100
0000
0000
0000
0000
0000
0000
0000
0000
0000
0000
0000
1001
0000
0000
0000
0000
0000
0000
0000
0000
0000
0000
0000
1000
0000
0000
0000
0000
0000
0100
0000
0000
0000
0000
0000
0010
0000
0000
0000
0000
0000
0001
0000
0000
0000
0000
0000
1000
0000
0000
0000
0000
0000
0000
0000
0000
0000
0000
0000
0001
0000
0000
0000
0000
0000
0000
0000
1000
0000
0000
0000
0000
0000
0000
0000
0010
0000
0000
0000
0000
0000
0000
0000
0001
0000
0000
0000
0000
0000
0000
0000
0010
0000
0000
0000
0000
0000
0000
0000
0100
0000
0000
0000
0000
0000
0000
0000
0002
0000
0000
0000
0000
0000
0000
0000
0000
0000
0000
0000
0200
0000
0000
0000
0000
0000
0300
0000
0000
0000
0000
0000
2003
0000
0000
0000
0000
0000
3000
0000
0000
0000
0000
0000
0001
0000
0000
0000
0000
0000
1000
0000
0000
0000
0000
0000
,  // measure 7
0100
0000
0000
0000
0000
0000
0010
0000
0000
0000
0000
0000
0100
0000
0000
0000
0000
0000
0000
0000
0000
0000
0000
0000
2000
0000
0000
0000
0000
0000
0000
0000
0000
0000
0000
0000
3002
0000
0000
0000
0000
0000
0000
0000
0000
0000
0000
0000
0200
0000
0000
0000
0000
0000
0000
0000
0000
0300
0000
0000
0200
0000
0000
0000
0000
0000
0000
0000
0000
0300
0000
0000
0010
0000
0000
0000
0000
0000
0000
0000
0000
0000
0000
0000
0013
0000
0000
0000
0000
0000
0000
0000
0000
0000
0000
0000
0002
0003
0000
0000
0000
0000
0000
0000
0000
0000
0000
0000
0000
0000
0000
0000
0000
0000
0000
0000
0000
0000
0000
0000
1000
0000
0000
0000
0000
0000
0001
0000
0000
0000
0000
0000
0100
0000
0000
0000
0000
0000
0001
0000
0000
0000
0000
0000
1000
0000
0000
0000
0000
0000
0000
0000
0000
0000
0000
0000
0000
0000
0000
0000
0000
0000
0000
0000
0000
0000
0000
0000
0100
0000
0000
0000
0000
0000
0000
0000
0000
0000
0000
0000
0000
0000
0000
0000
0000
0000
0000
0000
0000
0000
0000
0000
,  // measure 8
0010
0000
0000
0000
0000
0000
0001
0000
0000
0000
0000
0000
1001
0000
0000
0000
0000
0000
0001
0000
0000
0100
0000
0000
0000
0000
0000
0010
0000
0000
0000
0000
0000
0100
0000
0000
0001
0000
0000
0000
0010
0000
0000
0000
1000
0000
0000
0000
,  // measure 9
0010
0000
0000
0000
0100
0000
0000
0000
1000
0000
0000
0000
0002
0000
0000
0000
0000
0000
1000
0000
0000
0000
0000
0000
0103
0000
0000
0001
0000
0000
0100
0000
0000
0001
0000
0000
1000
0000
0000
0000
0000
0000
0010
0000
0000
0000
0000
0000
,  // measure 10
0100
0000
0001
0000
1001
0000
0001
0010
0000
0100
0000
0010
0001
0000
1000
0001
,  // measure 11
1000
0000
0001
0000
1000
0000
0001
0000
0000
1000
0000
0000
0001
0000
0000
1000
0000
0000
0010
0000
0000
0000
0000
0000
1000
0000
0000
0010
0000
0000
1000
0000
0000
0010
0000
0000
0100
0000
0000
0000
0000
0000
0010
0000
0000
0000
0000
0000
,  // measure 12
1000
0000
0000
0000
0000
0000
0100
0000
0000
0000
0000
0000
0110
0000
0000
0000
0000
0000
0100
0000
0000
1000
0000
0000
0000
0000
0000
0001
0000
0000
0000
0000
0000
1000
0000
0000
0010
0000
0000
0000
0100
0000
0000
0000
1000
0000
0000
0000
,  // measure 13
0100
0000
0000
0000
0010
0000
0000
0000
1000
0000
0000
0000
0200
0000
0000
0000
0000
0000
0010
0000
0000
0000
0000
0000
1300
0000
0000
0100
0000
0000
1000
0000
0000
0100
0000
0000
0010
0000
0000
0000
0000
0000
0100
0000
0000
0000
0000
0000
,  // measure 14
1000
0000
0010
0000
0110
0000
0010
1000
0000
0001
0000
1000
0100
0000
0010
0100
,  // measure 15
1000
0001
1000
0001
1000
0001
2000
3020
0030
0200
0320
2030
3000
0000
0002
0013
,  // measure 16
2000
0000
3010
0000
0001
0000
0001
0000
0200
0000
0320
0000
0130
0000
0100
0000
0010
0000
0100
0001
2000
0000
3001
0000
0010
0000
0100
0000
0010
0100
0010
0100
,  // measure 17
0010
0001
1000
0001
0100
0000
0100
0000
0010
0000
0010
0000
0100
0000
0002
0000
0013
0000
0100
0000
0002
0000
0103
0000
0010
0000
0010
0000
0100
0000
0100
0000
,  // measure 18
1000
0000
1000
0000
0001
0000
0001
0000
0100
0001
0100
0000
0002
0000
1003
0000
0001
0000
0100
0000
0010
0000
0010
0000
0200
0000
0301
0000
2000
0000
3100
0000
,  // measure 19
0020
0130
2000
0000
0000
0000
3001
0000
1000
0010
0100
0000
0010
0000
1000
0000
,  // measure 20
0100
0000
0010
0000
0100
0010
0001
0000
0100
0000
0100
0000
0010
0000
0100
0001
,  // measure 21
1000
0000
0001
0000
0010
0000
0100
1000
0001
0000
0100
0000
0100
0000
0010
0000
,  // measure 22
1000
0000
1000
0000
1000
0000
0100
0000
1000
0100
0010
0000
0100
0000
1000
0001
,  // measure 23
0100
0000
0010
0100
0000
0100
0001
0000
1000
0001
0010
0000
0100
0000
0010
0001
,  // measure 24
1000
0000
1000
0000
1000
0000
0001
0000
1000
0010
0100
0000
0010
0000
1000
0100
,  // measure 25
0010
0000
0001
0100
0010
0000
0100
0000
0001
1000
0100
0010
0100
0000
0010
0000
,  // measure 26
0100
0000
1000
0000
0001
0100
0010
0000
0100
0000
0001
0000
1000
0000
1001
0000
,  // measure 27
0000
0000
0000
0000
0000
0000
0000
0000
0000
0000
0000
0000
0000
0000
0000
0000
0000
0000
0000
0000
0000
0000
0000
0000
0001
0000
0000
0000
0000
0000
0000
0000
0000
0000
0000
0000
0010
0000
0000
0000
0000
0000
0000
0000
0000
0000
0000
0000
1000
0000
0000
0000
0000
0000
0000
0000
0000
0000
0000
0000
0010
0000
0000
0000
0000
0000
0000
0000
0000
0000
0000
0000
0011
0000
0000
0000
0000
0000
0000
0000
0000
0000
0000
0000
0000
0000
0000
0000
0000
0000
0000
0000
0000
0000
0000
0000
1000
0000
0000
0000
0000
0000
0000
0000
0000
0000
0000
0000
0000
0000
0000
0000
0000
0000
0000
0000
0000
0000
0000
0000
0010
0000
0000
0000
0000
0000
0000
0000
0000
0000
0000
0000
0000
0000
0000
0000
0000
0000
0100
0000
0000
0000
0000
0000
0000
0000
0000
0000
0000
0000
0000
0000
0000
0000
0000
0000
0010
0000
0000
0000
0100
0000
0000
0000
0010
0000
0000
0000
0100
0000
0000
0000
0000
0000
0000
0000
0000
0000
0000
0000
0010
0000
0000
0000
0000
0000
0000
0000
0000
0000
0000
0000
,  // measure 28
0100
0010
1000
0000
0001
0000
0010
0000
1000
0000
0010
0000
0110
0000
0000
0000
0010
0000
0000
0000
0100
0000
0000
1000
0000
0000
0010
0000
0100
0010
0100
0000
,  // measure 29
0010
0000
0000
0000
0000
0000
0000
0000
0000
0000
0000
0000
1000
0000
0000
0000
0000
0000
0001
0000
0000
0000
0000
0000
1000
0000
0000
0000
0000
0000
0000
0000
0000
0000
0000
0000
0100
0000
0000
0000
0000
0000
0000
0000
0000
0000
0000
0000
0001
0000
0000
0000
0000
0000
0000
0000
0000
0000
0000
0000
0100
0000
0000
0000
0000
0000
0000
0000
0000
0000
0000
0000
1100
0000
0000
0000
0000
0000
0000
0000
0000
0000
0000
0000
0000
0000
0000
0000
0000
0000
0000
0000
0000
0000
0000
0000
0001
0000
0000
0000
0000
0000
0000
0000
0000
0000
0000
0000
0000
0000
0000
0000
0000
0000
0000
0000
0000
0000
0000
0000
0100
0000
0000
0000
0000
0000
0000
0000
0000
0000
0000
0000
0000
0000
0000
0000
0000
0000
0010
0000
0000
0000
0000
0000
0000
0000
0000
0000
0000
0000
0000
0000
0000
0000
0000
0000
0100
0000
0000
0000
0010
0000
0000
0000
0100
0000
0000
0000
0010
0000
0000
0000
0000
0000
0000
0000
0000
0000
0000
0000
0100
0000
0000
0000
0000
0000
0000
0000
0000
0000
0000
0000
,  // measure 30
0010
0000
0000
0000
0000
0000
0100
0000
0000
0000
0000
0000
0001
0000
0000
0000
0000
0000
0000
0000
0000
0000
0000
0000
1000
0000
0000
0000
0000
0000
0000
0000
0000
0000
0000
0000
0100
0000
0000
0000
0000
0000
0000
0000
0000
0000
0000
0000
0001
0000
0000
0000
0000
0000
0000
0000
0000
0000
0000
0000
0100
0000
0000
0000
0000
0000
0000
0000
0000
0000
0000
0000
0110
0000
0000
0000
0000
0000
0000
0000
0000
0000
0000
0000
0000
0000
0000
0000
0000
0000
0000
0000
0000
0000
0000
0000
0100
0000
0000
0000
0000
0000
0010
0000
0000
0000
0000
0000
0100
0000
0000
0000
0010
0000
0000
0000
0100
0000
0000
0000
0010
0000
0000
0000
0000
0000
0000
0000
0000
0000
0000
0000
0000
0000
0000
0000
0000
0000
0000
0000
0000
0000
0000
0000
0100
0000
0000
0000
0000
0000
0000
0000
0000
0000
0000
0000
0010
0000
0000
0000
0000
0000
0000
0000
0000
0000
0000
0000
0001
0000
0000
0000
0000
0000
1000
0000
0000
0000
0000
0000
0001
0000
0000
0000
0000
0000
1000
0000
0000
0000
0000
0000
,  // measure 31
0001
0000
0100
0000
0010
0000
1000
0000
1001
0000
1000
0100
0000
0010
0000
0100
,  // measure 32
1000
0000
0000
0000
0010
0000
0000
0000
0001
0000
0000
0000
0010
0000
0000
0000
0100
0000
0000
0000
0001
0000
0000
0000
2000
0000
0000
0000
0000
0000
0001
0000
0000
0000
0000
0000
3100
0000
0000
1000
0000
0000
0100
0000
0000
1000
0000
0000
,  // measure 33
0001
0000
0010
0000
0100
0000
1000
0000
1001
0000
1000
0010
0000
0100
0000
0010
,  // measure 34
1000
0000
0000
0000
0000
0000
0001
0000
0000
1000
0000
0000
0001
0000
1000
0000
0001
0000
1000
0000
0000
0001
0000
0000
1000
0000
0000
0001
0000
0000
0010
0000
0000
0000
0000
0000
0001
0000
0000
0010
0000
0000
0001
0000
0000
0010
0000
0000
,  // measure 35
0100
0000
0010
0000
0001
0000
0100
0000
0110
0000
0100
0001
0000
1000
0000
0001
,  // measure 36
0010
0000
0000
0000
0100
0000
0000
0000
0001
0000
0000
0000
0100
0000
0000
0000
0010
0000
0000
0000
0001
0000
0000
0000
0200
0000
0000
0000
0000
0000
0010
0000
0000
0000
0000
0000
0301
0000
0000
0100
0000
0000
0001
0000
0000
0100
0000
0000
,  // measure 37
0010
0000
0100
0000
0001
0000
0010
0000
0110
0000
0010
0001
0000
1000
0000
0001
,  // measure 38
0100
0000
0000
0000
0000
0000
0001
0000
0000
0100
0000
0000
0010
0000
0100
0000
0010
0000
0100
0000
0000
0001
0000
0000
1000
0000
0000
0000
0000
0000
0100
0000
0000
0000
0000
0000
0010
0000
0000
0100
0000
0000
0010
0000
0000
0100
0000
0000
,  // measure 39
0010
0000
0010
0000
0001
0000
0001
0000
0011
0000
0011
0000
0001
0100
0010
0000
,  // measure 40
0200
0000
1000
0000
0010
0000
0301
0000
0020
0000
1000
0000
0130
0010
0100
1000
,  // measure 41
0001
0000
0100
0010
0001
0010
0100
0000
0010
0000
0100
0010
1000
0001
0010
0100
,  // measure 42
0010
0000
0000
0000
0000
0000
0001
0000
0000
1000
0000
0000
0001
0000
1000
0000
0001
0000
2000
0000
0000
0000
0000
0000
3001
0000
0000
1000
0000
0000
0010
0000
0000
0000
0000
0000
1000
0000
0000
0000
0000
0000
0002
0000
0000
0203
0000
0000
,  // measure 43
0320
0230
2300
3200
0320
0230
0301
0000
0010
0000
0100
0000
1000
0000
0001
0000
,  // measure 44
1000
0010
1000
0010
0100
0010
1000
0001
0200
0000
0010
0000
0301
1000
0001
1000
,  // measure 45
0100
0000
0010
0000
0100
1000
0100
1000
0100
1000
0001
0000
1000
0001
0100
0000
,  // measure 46
0001
0100
0010
1000
0000
1000
0100
0000
0010
0000
0100
0000
1000
0001
1000
0001
,  // measure 47
0100
0000
0101
0000
0110
0000
0110
0000
1010
0000
1000
0001
0000
1000
0100
0010
,  // measure 48
0100
0000
0000
0000
0000
0000
0100
0000
0000
0000
0000
0000
0010
0000
0000
0000
0001
0000
0000
0000
1000
0000
0000
0000
0020
0000
0000
0000
0000
0000
0100
0000
0000
0000
0000
0000
1030
0000
0000
0000
0000
0000
0010
0000
0000
1000
0000
0000
,  // measure 49
0001
0000
1000
0000
0001
0010
0100
1000
0010
0100
0010
1000
0100
0010
0000
0010
,  // measure 50
0002
0000
0000
0000
0000
0000
0013
0000
0000
0001
0000
0000
1000
0000
0001
0000
1000
0000
0001
0000
0000
0000
0000
0000
1000
0000
0000
0010
0000
0000
1000
0000
0000
0010
0000
0000
0100
0000
0000
0010
0000
0000
0100
0000
0000
0010
0000
0000
,  // measure 51
0100
0000
0000
0000
0110
0000
0110
0000
1001
0000
1000
0100
0010
0100
0001
0000
,  // measure 52
0100
0000
0000
0000
0001
0000
0000
0000
0100
0000
0000
0000
1000
0000
0000
0000
0010
0000
0000
0000
1000
0000
0000
0000
0002
0000
0000
0000
0000
0000
1000
0000
0000
0000
0000
0000
0103
0000
0000
0000
0000
0000
0001
0000
0000
1000
0000
0000
,  // measure 53
0010
0100
0010
0000
0200
0000
0320
0000
0002
0003
0002
0003
0100
0000
0130
0000
,  // measure 54
0010
0000
0000
0000
0000
0000
0000
0000
0000
0000
0000
0000
0000
0000
0000
0000
0000
0000
0000
0000
0000
0000
0000
0000
0100
0000
0000
0000
0000
0000
0000
0000
0000
0000
0000
0000
0000
0000
0000
0000
0000
0000
0000
0000
0000
0000
0000
0000
0101
0000
0000
0000
0000
0000
0000
0000
0000
0000
0000
0000
1001
0000
0000
0000
0000
0000
0000
0000
0000
0000
0000
0000
1100
0000
0000
0000
0000
0000
0000
0000
0000
0000
0000
0000
1010
0000
0000
0000
0000
0000
0000
0000
0000
0000
0000
0000
0011
0000
0000
0000
0000
0000
0000
0000
0000
0000
0000
0000
0202
0303
0000
0000
0000
0000
0000
0000
0000
0000
0000
0000
0000
0000
0000
0000
0000
0000
0000
0000
0000
0000
0000
0000
0000
0000
0000
0000
0000
0000
0000
0000
0000
0000
0000
0000
0000
0000
0000
0000
0000
0000
0000
0000
0000
0000
0000
0000
0000
0000
0000
0000
0000
0000
0000
0000
0000
0000
0000
0000
0000
0000
0000
0000
0000
0000
0000
0000
0000
0000
0000
0000
0000
0000
0000
0000
0000
0000
0000
0000
0000
0000
0000
0000
;

//---------------dance-single - ----------------
#NOTES:
     dance-single:
     :
     Medium:
     8:
     0.553109,0.740545,0.055881,0.223524,0.530870,485.000000,478.000000,7.000000,28.000000,0.000000,0.000000,0.553109,0.740545,0.055881,0.223524,0.530870,485.000000,478.000000,7.000000,28.000000,0.000000,0.000000:
0000
0000
0000
0000
,
0000
0000
0000
0000
,
0010
0110
1000
1010
,
0100
0000
0000
0000
0000
0000
0000
0000
1100
0000
0000
0000
0000
0000
0000
0000
0010
0000
0000
0100
0000
0000
0010
0000
0002
0000
2000
0000
0000
0000
3003
0000
,
0201
0000
0000
0000
0000
0000
0000
0000
0000
0000
0000
0000
0000
0000
0000
0000
0000
0000
0000
0000
0000
0000
0000
0000
0000
0000
0000
0000
0000
0000
0000
0000
0000
0000
0000
0000
0000
0000
0000
0000
0000
0000
0000
0000
0000
0000
0000
0000
0310
0000
0000
0000
0000
0000
0000
0000
0000
0000
0000
0000
0100
0000
0000
0000
0000
0000
0000
0000
0000
0000
0000
0000
0001
0000
0000
0000
0000
0000
0100
0000
0000
0000
0000
0000
0000
0000
0000
0000
0000
0000
0001
0000
0000
0000
0000
0000
1000
0000
0000
0000
0000
0000
0000
0000
0001
0000
0000
0000
0000
0000
0000
0000
1000
0000
0000
0000
0000
0000
0000
0000
0001
0000
0000
0000
0000
0000
0000
0000
1000
0000
0000
0000
0000
0000
0000
0000
0001
0000
0000
0000
0000
0000
0000
0000
0020
0000
0000
0000
0000
0000
0000
0000
0000
0000
0000
0000
0000
0000
0000
0000
0000
0000
0000
0000
0000
0000
0000
0000
0031
0000
0000
0000
0000
0000
0000
0000
0000
0000
0000
0000
0020
0000
0000
0000
0000
0000
0000
0000
0000
0000
0000
0000
,
0130
0000
0000
0000
0010
0000
0001
0000
1000
0000
0001
0000
1000
0010
0000
0100
0020
0000
0000
0000
0130
0000
0001
0000
2000
0000
0000
0000
3001
0000
0010
0000
,
0100
0000
0000
0000
0000
0000
0100
0000
0000
0100
0000
0000
0110
0000
0000
0010
0000
0000
0001
0000
0000
1000
0000
0000
0001
0000
1000
0000
0001
0000
1000
0000
0001
0000
1000
0000
0020
0000
0000
0130
0000
0000
0010
0000
0000
1000
0000
0000
,
1000
0000
0000
0000
0000
0000
0000
0000
0000
0000
0000
0000
0100
0000
0000
0000
0000
0000
0000
0000
0000
0000
0000
0000
0010
0000
0000
0000
0000
0000
0000
0000
0000
0000
0000
0000
0100
0000
0000
0000
0000
0000
0000
0000
0000
0000
0000
0000
1000
0000
0000
0000
0000
0000
0000
0000
0000
0000
0000
0000
1000
0000
0000
0000
0000
0000
0000
0000
0000
0000
0000
0000
0001
0000
0000
0000
0000
0000
0000
0000
0000
0000
0000
0000
0001
0000
0000
0000
0000
0000
0000
0000
0000
0000
0000
0000
2000
3000
0000
0000
0000
0000
0000
0000
0000
0000
0000
0000
0000
0000
0000
0000
0000
0000
0000
0000
0000
0000
0000
0000
0001
0000
0000
0000
0000
0000
0000
0000
0000
0000
0000
0000
0100
0000
0000
0000
0000
0000
0000
0000
0000
0000
0000
0000
0010
0000
0000
0000
0000
0000
0000
0000
0000
0000
0000
0000
0000
0000
0000
0000
0000
0000
0000
0000
0000
0000
0000
0000
0100
0000
0000
0000
0000
0000
0000
0000
0000
0000
0000
0000
0000
0000
0000
0000
0000
0000
0000
0000
0000
0000
0000
0000
,
0001
0000
0000
0000
0000
0000
0000
0000
0000
0000
0000
0000
1000
0000
0000
0000
0000
0000
0001
0000
0000
1000
0000
0000
0000
0000
0000
0100
0000
0000
0000
0000
0000
0000
0000
0000
0010
0000
0000
0000
0100
0000
0000
0000
0010
0000
0000
0000
,
0100
0000
0010
0000
0100
0000
0020
0000
0000
0000
0000
0000
0002
0000
0000
0033
0000
0000
0010
0000
0000
0001
0000
0000
,
0100
0000
0000
0000
0001
0000
0100
0001
0000
1000
0000
0000
0001
0000
0000
1000
,
0000
0010
0100
0002
2000
3003
0001
0010
,
0100
0000
0000
0000
0000
0000
0000
0000
0000
0000
0000
0000
0010
0000
0000
0000
0000
0000
0100
0000
0000
0010
0000
0000
0000
0000
0000
0001
0000
0000
0000
0000
0000
0000
0000
0000
1000
0000
0000
0000
0001
0000
0000
0000
1000
0000
0000
0000
,
0001
0000
1000
0000
0001
0000
2000
0000
0000
0000
0000
0000
0020
0000
0000
3030
0000
0000
1000
0000
0000
0010
0000
0000
,
0100
0000
0000
0000
0010
0000
0100
0010
0000
1000
0000
0000
0001
0000
1000
0000
,
0100
0010
0100
1000
0001
1000
0001
0100
0000
0100
0010
0000
0000
0000
0100
0000
,
0100
0010
0010
1000
0100
0010
0100
0100
1000
0001
0100
0010
0100
0001
2000
0001
,
0001
0001
3001
1000
0100
0100
0010
0100
1000
0001
0100
0010
0100
0100
0010
0010
,
0100
0100
0010
0010
0100
0010
1000
0100
0010
0100
1000
1000
0001
0100
0010
0100
,
0001
1000
0002
0000
0000
0000
1003
0000
0100
0000
0010
0000
0100
0000
0010
0000
,
0001
0000
0100
0000
0000
0001
0100
0000
0001
0000
0001
0000
0001
0000
1000
0000
,
0010
0100
0010
1000
0100
0010
0100
1000
,
0010
0010
0010
1000
0010
0100
0001
0100
,
0010
0100
0001
1000
0100
0010
0001
0010
,
0100
0100
0100
0010
0001
0100
0010
1000
,
0010
0001
0010
1000
0100
0010
0100
1000
,
0001
0100
0010
1000
0100
0010
0001
1000
,
0000
0000
0000
0000
0001
0000
0010
0000
0100
0000
1000
0000
0001
0000
0000
0000
0100
0000
0000
0000
0010
0000
0000
0100
0000
0000
0010
0000
0100
0000
0010
0000
,
1000
0000
0100
0000
0010
0000
0100
0000
1000
0000
0001
0000
1000
0000
0000
0000
0010
0000
0000
0000
0100
0000
0000
0100
0000
0000
0100
0000
0010
0000
0100
0000
,
0001
0000
0000
0000
1000
0000
0100
0000
0010
0000
0001
0000
1000
0000
0000
0000
0010
0000
0000
0000
0100
0000
0000
0010
0000
0000
0100
0000
0010
0000
0100
0000
,
0001
0010
0100
0010
0001
1000
0001
0000
0100
0001
1000
0000
0001
0100
0020
0000
,
0130
0000
0010
0000
1000
0000
0000
0000
0001
0000
1000
0001
0000
0010
0000
0000
,
0100
0000
0010
0000
0100
0000
0010
0000
0100
0000
0010
0000
0200
0000
0000
0000
0000
0000
2000
0000
0000
3300
0000
0000
,
0100
0000
1000
0000
0010
0000
0000
0000
1000
0000
0010
1000
0000
0001
0000
0000
,
1000
0000
0000
0001
0000
0000
0100
0000
0010
0000
2000
0000
0002
0000
3003
0000
,
1000
0000
0100
0000
0010
0000
0000
0000
0100
0000
0010
0100
0000
1000
0000
0000
,
0001
0000
1000
0000
0001
0000
1000
0000
0001
0000
1000
0000
0002
0000
0000
0000
0000
0000
0200
0000
0000
0303
0000
0000
,
0001
0000
0100
0000
0010
0000
0000
0000
0100
0000
0010
0100
0000
0001
0000
0000
,
1000
0001
0010
0100
1000
0001
0200
0000
,
0301
0100
1000
0100
0001
0001
0100
0001
,
1000
0100
0010
0100
1000
0000
0010
1000
,
0001
0100
0100
0100
0010
0100
0001
0010
,
0100
0010
0001
0200
0010
0000
0301
0100
,
0010
0001
0010
1000
0001
0001
0010
0010
,
0001
0010
0100
0010
1000
0010
0100
0010
,
0001
1000
0010
0100
0010
1000
0100
0010
,
0100
0000
1000
0100
0000
1000
0010
0000
1000
0000
0001
0000
0200
0000
0000
0000
,
0301
0000
0001
0000
0100
0000
0100
0000
0101
0000
0001
0100
0000
0001
0000
1000
,
0010
0000
0000
0010
0000
0000
1000
0000
0001
0000
1000
0000
0001
0000
0000
0100
0000
0000
0010
0000
0000
0100
0000
0000
,
0001
0000
0010
0000
0100
0000
0010
0000
1000
0000
0010
0000
0100
0010
0000
0100
,
1000
0000
0100
1000
0001
0100
1000
0100
,
0001
0000
0001
0001
0101
0100
0010
0100
,
0001
0000
1000
0000
0001
0000
1000
0000
0001
0000
1000
0000
0001
0000
0000
0010
0000
0000
0100
0000
0000
0010
0000
0000
,
0001
0100
0010
0100
0001
0001
1000
1000
,
0001
0000
0000
0000
0000
0000
0000
0000
0000
0000
0000
0000
0000
0000
0000
0000
0000
0000
0000
0000
0000
0000
0000
0000
0010
0000
0000
0000
0000
0000
0000
0000
0000
0000
0000
0000
0000
0000
0000
0000
0000
0000
0000
0000
0000
0000
0000
0000
0100
0000
0000
0000
0000
0000
0000
0000
0000
0000
0000
0000
0100
0000
0000
0000
0000
0000
0000
0000
0000
0000
0000
0000
0100
0000
0000
0000
0000
0000
0000
0000
0000
0000
0000
0000
0100
0000
0000
0000
0000
0000
0000
0000
0000
0000
0000
0000
0100
0000
0000
0000
0000
0000
0000
0000
0000
0000
0000
0000
0200
0300
0000
0000
0000
0000
0000
0000
0000
0000
0000
0000
0000
0000
0000
0000
0000
0000
0000
0000
0000
0000
0000
0000
0000
0000
0000
0000
0000
0000
0000
0000
0000
0000
0000
0000
0000
0000
0000
0000
0000
0000
0000
0000
0000
0000
0000
0000
0000
0000
0000
0000
0000
0000
0000
0000
0000
0000
0000
0000
0000
0000
0000
0000
0000
0000
0000
0000
0000
0000
0000
0000
0000
0000
0000
0000
0000
0000
0000
0000
0000
0000
0000
0000
;

//---------------dance-single - ----------------
#NOTES:
     dance-single:
     :
     Easy:
     6:
     0.368359,0.500957,0.103779,0.399151,0.103779,323.000000,310.000000,13.000000,50.000000,0.000000,0.000000,0.368359,0.500957,0.103779,0.399151,0.103779,323.000000,310.000000,13.000000,50.000000,0.000000,0.000000:
0000
0000
0000
0000
,
0000
0000
0000
0000
,
1000
0100
0010
0002
,
0103
0001
1000
1002
,
0203
0000
0000
0000
0310
0100
0001
1000
0100
0000
0000
0000
1100
0000
0000
0000
,
1000
0000
0100
0010
0001
1000
0002
0000
0203
0000
0320
0000
0230
0000
0302
0000
,
1003
0000
0001
1000
0001
0010
0100
1000
0001
0000
0000
0000
1001
0000
1000
0000
,
0001
0000
0000
0000
0000
0000
0000
0000
0000
0000
0000
0000
0000
0000
0000
0000
0000
0000
0000
0000
0000
0000
0000
0000
0100
0000
0000
0000
0000
0000
0000
0000
0000
0000
0000
0000
0010
0000
0000
0000
0000
0000
0000
0000
0000
0000
0000
0000
0100
0000
0000
0000
0000
0000
0000
0000
0000
0000
0000
0000
0001
0000
0000
0000
0000
0000
0000
0000
0000
0000
0000
0000
1000
0000
0000
0000
0000
0000
0000
0000
0000
0000
0000
0000
1000
0000
0000
0000
0000
0000
0000
0000
0000
0000
0000
0000
0002
0003
0000
0000
0000
0000
0000
0000
0000
0000
0000
0000
0000
0000
0000
0000
0000
0000
0000
0000
0000
0000
0000
0000
2000
0000
0000
0000
0000
0000
0000
0000
0000
0000
0000
0000
0000
0000
0000
0000
0000
0000
0000
0000
0000
0000
0000
0000
3001
0000
0000
0000
0000
0000
0000
0000
0000
0000
0000
0000
0000
0000
0000
0000
0000
0000
0000
0000
0000
0000
0000
0000
0000
0000
0000
0000
0000
0000
0000
0000
0000
0000
0000
0000
0000
0000
0000
0000
0000
0000
0000
0000
0000
0000
0000
0000
,
0010
0000
0000
0000
0100
0000
0000
0010
0000
0000
0001
0000
0200
0000
0000
0000
,
0302
0000
0203
0000
0020
0330
1000
0000
,
0010
0000
0000
0000
0100
0000
0000
0010
0000
0000
1000
0000
0200
0000
0000
0000
,
0320
0032
2003
3010
,
1000
0000
0000
0000
0001
0000
0000
1000
0000
0000
0010
0000
2000
0000
0000
0000
,
3020
0000
0230
0000
0020
0330
0100
0000
,
0001
0000
0000
0000
1000
0000
0000
0001
0000
0000
0010
0000
0200
0000
0000
0000
,
2300
0000
0001
0000
0010
0000
3100
0000
0000
0100
1000
0000
0000
0000
0100
0000
,
0100
0000
0010
0000
0001
0000
0100
0000
0010
0000
0100
0000
0001
0000
0010
0100
,
1000
0100
1000
0000
1000
0000
0001
0000
0100
0000
0010
0000
0100
0000
0100
0000
,
0001
0000
0001
0000
1000
0001
1000
0000
0100
0000
0010
0000
0010
0000
0001
0000
,
0100
0020
0000
0130
0000
0010
0000
1000
,
0000
0100
0000
0001
0000
0100
0000
0010
,
0000
0001
0000
0010
0000
0100
0000
0010
,
0000
0001
0000
0100
0000
0010
0000
0001
,
0000
0010
0000
0100
0000
0010
0000
1000
,
0000
0100
0000
0010
0000
0100
0000
1000
,
0000
1000
0000
0001
0000
0100
0000
0010
,
0000
0001
0000
0010
0000
1000
0000
1001
,
0000
1000
0100
0110
0010
0001
0100
0110
,
0100
0001
1000
1001
0001
0010
1000
0010
,
0001
0100
0001
1001
1000
0010
1000
1001
,
0001
0010
0100
0110
1001
0000
1000
0001
,
1000
0000
0000
0000
0010
0000
0000
0000
0100
0000
0000
0010
0000
0000
1000
0000
,
0200
0000
2300
0000
3200
0000
0020
0330
,
0001
0000
0000
0000
0010
0000
0000
0000
0100
0000
0000
0010
0000
0000
0001
0000
,
0200
0320
2030
3002
,
0013
0000
0000
0000
0001
0000
0000
0000
1000
0000
0000
0001
0000
0000
0010
0000
,
0002
0000
0023
0000
0230
0000
0020
0330
,
0100
0000
0000
0000
1000
0000
0000
0000
0001
0000
0000
1000
0000
0000
0010
0000
,
2000
0000
3002
0000
0203
0000
0020
0330
,
0100
0100
0001
0000
1000
1000
0100
0000
,
0010
0010
0001
0000
0200
0000
0302
0000
,
1003
0001
0100
0010
0100
0000
0001
0010
,
0100
0010
0002
2000
0000
3003
0001
0100
,
0001
0100
0010
1000
0001
0000
0001
0000
,
1000
0100
0010
0001
1000
0000
0001
0100
,
0010
0000
0100
0001
1000
0000
0100
0010
,
0001
0000
0000
0100
0000
0000
0001
0000
0100
0000
0001
0000
1000
0000
0000
0000
,
0001
0001
0100
0100
0010
0000
0100
0010
,
1000
0000
0001
0000
1001
0000
1000
0200
,
0310
0000
0100
0010
0100
1000
0100
0010
,
0001
0000
0100
0001
1000
0000
1001
0000
,
0001
0000
1000
0001
1000
0010
0100
0010
,
0200
0000
0302
0000
0023
0000
0130
0010
,
0001
0000
1000
0010
0100
0010
1000
1000
,
0100
0000
0000
0000
0000
0000
0000
0000
0000
0000
0000
0000
0000
0000
0000
0000
0000
0000
0000
0000
0000
0000
0000
0000
0010
0000
0000
0000
0000
0000
0000
0000
0000
0000
0000
0000
0000
0000
0000
0000
0000
0000
0000
0000
0000
0000
0000
0000
0100
0000
0000
0000
0000
0000
0000
0000
0000
0000
0000
0000
0010
0000
0000
0000
0000
0000
0000
0000
0000
0000
0000
0000
0100
0000
0000
0000
0000
0000
0000
0000
0000
0000
0000
0000
0010
0000
0000
0000
0000
0000
0000
0000
0000
0000
0000
0000
0100
0000
0000
0000
0000
0000
0000
0000
0000
0000
0000
0000
0020
0030
0000
0000
0000
0000
0000
0000
0000
0000
0000
0000
0000
0000
0000
0000
0000
0000
0000
0000
0000
0000
0000
0000
0000
0000
0000
0000
0000
0000
0000
0000
0000
0000
0000
0000
0000
0000
0000
0000
0000
0000
0000
0000
0000
0000
0000
0000
0000
0000
0000
0000
0000
0000
0000
0000
0000
0000
0000
0000
0000
0000
0000
0000
0000
0000
0000
0000
0000
0000
0000
0000
0000
0000
0000
0000
0000
0000
0000
0000
0000
0000
0000
0000
;
