#VERSION:0.83;
#TITLE:ミュン・ファン・ローン;
#SUBTITLE:;
#ARTIST:マクロスMACROSS 82-99;
#TITLETRANSLIT:Myung Fang Lone;
#SUBTITLETRANSLIT:;
#ARTISTTRANSLIT:MACROSS 82-99;
#GENRE:;
#ORIGIN:;
#CREDIT:;
#BANNER:Myung Fang Lone.png;
#BACKGROUND:Myung Fang Lone-bg.png;
#PREVIEWVID:;
#JACKET:jacket.png;
#CDIMAGE:;
#DISCIMAGE:;
#LYRICSPATH:;
#CDTITLE:;
#MUSIC:Myung Fang Lone.mp3;
#OFFSET:-0.319000;
#SAMPLESTART:7.427111;
#SAMPLELENGTH:12.444445;
#SELECTABLE:YES;
#BPMS:0.000=135.000;
#STOPS:11.500=1.778;
#DELAYS:;
#WARPS:;
#TIMESIGNATURES:0.000=4=4;
#TICKCOUNTS:0.000=4;
#COMBOS:0.000=1;
#SPEEDS:0.000=1.000=0.000=0;
#SCROLLS:0.000=1.000;
#FAKES:;
#LABELS:0.000=Song Start;
#BGCHANGES:;
#KEYSOUNDS:;
#ATTACKS:
;

//---------------dance-single - ----------------
#NOTEDATA:;
#CHARTNAME:;
#STEPSTYPE:dance-single;
#DESCRIPTION:;
#CHARTSTYLE:;
#DIFFICULTY:Hard;
#METER:7;
#RADARVALUES:0.378359,0.493812,0.074257,0.288779,0.255776,321.000000,312.000000,9.000000,35.000000,0.000000,0.000000,4.000000,0.000000,0.000000,0.378359,0.493812,0.074257,0.288779,0.255776,321.000000,312.000000,9.000000,35.000000,0.000000,0.000000,4.000000,0.000000,0.000000;
#CREDIT:;
#NOTES:
// measure 0
0000
0000
0000
0000
,  // measure 1
0000
0000
0000
0000
,  // measure 2
0001
0100
0010
1000
0001
0010
0100
0010
,  // measure 3
0201
0000
0000
0000
0010
0000
0000
0000
0310
0000
0100
0000
0000
0001
0000
0000
,  // measure 4
2000
0000
0000
0000
0100
0000
0000
0000
3100
0000
0010
0000
0000
0001
0000
0000
,  // measure 5
0100
0000
0000
0001
0000
0000
0000
0000
0000
0000
1000
0000
0010
0000
1000
0001
,  // measure 6
0000
0000
0010
0000
0100
0000
0000
1000
0000
0001
0000
0100
0000
0000
0000
0000
,  // measure 7
0020
0000
0000
0000
1000
0000
0000
0000
0130
0000
0001
0000
0000
1000
0000
0000
,  // measure 8
0020
1000
0230
0302
,  // measure 9
2003
0000
0001
0000
0000
0010
3010
0000
,  // measure 10
0100
0000
0010
0000
0000
1000
0010
0100
,  // measure 11
0001
0000
0000
1000
0000
0001
0020
0000
0000
0000
0100
0000
0100
0000
0000
0000
,  // measure 12
0000
0000
0000
0000
0130
0000
1000
0000
0001
0000
0000
0001
0000
0100
0002
0000
,  // measure 13
0000
0000
1000
0000
0000
1000
1000
0000
,  // measure 14
0000
0000
1000
0000
0000
1003
0100
0010
,  // measure 15
0002
0000
0010
0000
0000
0000
0013
0100
,  // measure 16
2000
0000
0000
0010
0000
0000
0000
0000
3000
0000
0001
0000
1000
0000
0010
0100
,  // measure 17
0000
0000
0010
0000
1000
0100
0001
0000
,  // measure 18
0001
0000
0100
0000
1000
0000
0010
0000
4000
0004
0000
0000
0000
0000
3003
0000
,  // measure 19
2000
0000
0000
0000
0100
0000
0000
0000
3010
0000
1000
0000
0000
0001
0000
0000
,  // measure 20
0020
0000
0000
0000
0100
0000
0000
0000
0031
0000
0100
0000
0000
0010
0000
0000
,  // measure 21
0001
0000
0000
1000
0000
0000
0000
0000
0000
0000
1000
0000
0010
0000
0100
0010
,  // measure 22
0000
0000
1000
0000
0001
0000
0000
0010
0000
0001
0000
1000
0000
0000
0000
0000
,  // measure 23
0020
0000
0000
0000
0100
0000
0000
0000
1030
0000
0001
0000
0000
1000
0000
0000
,  // measure 24
0020
0100
2030
3002
,  // measure 25
0203
0000
0010
0000
0000
0010
0010
0000
,  // measure 26
0301
0100
0010
1000
0100
0010
0001
1000
,  // measure 27
0001
0000
0000
0100
0000
0010
2000
0000
0000
0000
0010
0000
0010
0000
0000
0000
,  // measure 28
0000
0000
0000
0000
0010
0000
3010
0000
0100
0000
0000
0001
0000
0100
0020
0000
,  // measure 29
0000
0000
0100
0000
0000
0100
0100
0000
,  // measure 30
0130
0000
0001
0000
1000
0100
0010
0001
,  // measure 31
2000
0000
0001
0000
0000
0001
3001
1000
,  // measure 32
0010
0000
0000
0200
0000
0000
0000
0000
0000
0000
0010
0000
0000
0310
0100
0010
,  // measure 33
0000
0000
0000
0000
1000
0000
0000
0000
0001
0000
0010
0000
0000
0010
0000
0000
,  // measure 34
0100
0010
0001
0100
0010
1000
0100
0001
,  // measure 35
1001
0000
0000
0000
0000
1000
0001
0100
,  // measure 36
0010
0000
0000
1010
0000
0000
0000
0000
0000
0000
1000
0000
0100
0000
1000
0000
,  // measure 37
0001
0000
0000
0101
0000
0000
0000
0000
0000
0000
0001
0000
0100
0000
0010
0000
,  // measure 38
1000
0000
0000
1100
0000
0000
0000
0000
0000
0000
0100
0000
1000
0000
0010
0000
,  // measure 39
0100
0000
0000
0101
0000
0000
0000
0000
0000
0000
0001
0000
0010
0000
0001
0000
,  // measure 40
1000
0000
0000
1010
0000
0000
0000
0000
0000
0000
0010
0000
0100
0000
0001
0000
,  // measure 41
1000
0000
0000
1100
0000
0000
0000
0000
0000
0000
0100
0000
0010
0000
0001
0000
,  // measure 42
1000
0000
0001
0100
0000
0100
0010
0000
0010
1000
0000
1000
0001
0000
1000
0000
,  // measure 43
0010
0000
0000
0100
0000
0001
0020
0000
0100
0000
0000
0000
0000
0000
0000
0000
,  // measure 44
0000
0000
0000
0000
0000
0000
0130
0000
0010
0000
0000
0001
0000
1000
0020
0000
,  // measure 45
0000
0000
0100
0000
,  // measure 46
0000
0000
0000
0000
0130
0010
0001
1000
,  // measure 47
0020
0000
0000
0000
0000
0000
0000
0000
1000
0000
0000
0000
0000
0030
1000
0001
,  // measure 48
1000
0000
0000
0100
0000
0000
0000
0000
0010
0000
0100
0000
0000
1000
0001
1000
,  // measure 49
0000
0001
0011
0000
,  // measure 50
0001
0000
0010
0000
0100
0000
1000
0000
0004
4000
0000
0000
0000
0000
3003
0000
,  // measure 51
0002
0000
0000
0000
0010
0000
0000
0000
0013
0000
0001
0000
0000
0010
0000
0000
,  // measure 52
0200
0000
0000
0000
1000
0000
0000
0000
1300
0000
0010
0000
0000
0100
0000
0000
,  // measure 53
0001
0000
0000
0010
0000
0000
0000
0000
0000
0000
0100
0000
1000
0000
0001
0010
,  // measure 54
0000
0000
0001
0000
1000
0000
0000
0001
0000
0010
0000
0001
0000
0000
0000
0000
,  // measure 55
0002
0000
0000
0000
0010
0000
0000
0000
0103
0000
0010
0000
0000
0100
0000
0000
,  // measure 56
0002
1000
2003
3020
,  // measure 57
0230
0000
0010
0000
0000
0001
0301
0000
,  // measure 58
1000
0010
0100
0001
1000
0100
0010
0100
,  // measure 59
1000
0000
0000
0010
0000
0100
0002
0000
0100
0000
0000
0000
0000
0000
0000
0000
,  // measure 60
0000
0000
0000
0000
0000
0000
0013
0000
0100
0000
0000
1000
0000
0001
0020
0000
,  // measure 61
0000
0000
0100
0000
,  // measure 62
0000
0000
0000
0000
0130
0010
0001
0100
,  // measure 63
0020
0000
0100
0000
,  // measure 64
0000
0000
0100
0000
,  // measure 65
0030
0000
0100
0000
,  // measure 66
0000
0000
0100
0000
;

//---------------dance-single - ----------------
#NOTEDATA:;
#CHARTNAME:;
#STEPSTYPE:dance-single;
#DESCRIPTION:;
#CHARTSTYLE:;
#DIFFICULTY:Medium;
#METER:5;
#RADARVALUES:0.261669,0.384076,0.115512,0.247525,0.115512,222.000000,208.000000,14.000000,30.000000,0.000000,0.000000,0.000000,0.000000,0.000000,0.261669,0.384076,0.115512,0.247525,0.115512,222.000000,208.000000,14.000000,30.000000,0.000000,0.000000,0.000000,0.000000,0.000000;
#CREDIT:;
#NOTES:
// measure 0
0000
0000
0000
0000
,  // measure 1
0000
0000
0000
0000
,  // measure 2
1001
0110
1001
0110
,  // measure 3
1002
0000
0000
0000
0000
0000
0000
0000
0000
0000
1003
0000
0000
0010
0000
0000
,  // measure 4
0200
0000
0000
0000
0000
0000
0000
0000
0000
0000
0310
0000
0000
1000
0000
0000
,  // measure 5
0100
0000
0000
1000
0000
0000
0000
0000
0000
0000
0000
0000
0000
0000
0100
0000
,  // measure 6
1000
0000
0010
0000
0000
0100
0001
0000
,  // measure 7
2000
0000
0000
0000
0000
0000
0000
0000
0000
0000
3001
0000
0000
0100
0000
0000
,  // measure 8
0020
0000
0230
0320
,  // measure 9
2030
0000
0000
0000
,  // measure 10
3001
1000
0100
0010
0001
0000
0010
0001
,  // measure 11
0100
0000
0000
0010
0000
0000
2000
0000
0000
0000
0000
0000
0000
0000
0000
0000
,  // measure 12
0000
0000
0000
0000
0000
0000
3001
0000
0010
0000
0000
0001
0000
0000
2000
0000
,  // measure 13
0000
0000
0000
0000
,  // measure 14
0000
0000
0000
0000
0000
3100
0010
0001
,  // measure 15
2000
0000
0000
0000
0000
0000
3000
0010
,  // measure 16
0100
0000
0000
0001
0000
0000
0000
0000
0000
0000
1000
0000
0000
1000
0000
0000
,  // measure 17
1000
0000
0001
0000
0000
0100
0001
0000
,  // measure 18
1000
0100
0010
0001
2000
0000
0000
3000
,  // measure 19
0102
0000
0000
0000
0000
0000
0000
0000
0003
0000
0100
0000
0000
0010
0000
0000
,  // measure 20
2000
0000
0000
0000
0000
0000
0000
0000
3000
0000
0100
0000
0000
1000
0000
0000
,  // measure 21
0001
0000
0000
1000
0000
0000
0000
0000
0000
0000
0000
0000
0000
0000
0010
0000
,  // measure 22
0100
0000
0010
0000
0000
1000
0010
0000
,  // measure 23
0200
0000
0000
0000
0000
0000
0000
0000
0300
0000
0001
0000
0000
0010
0000
0000
,  // measure 24
0002
0000
1003
0001
,  // measure 25
0200
0000
0000
0300
,  // measure 26
0010
0100
0001
1000
0001
1000
0100
0000
,  // measure 27
1000
0000
0000
0100
0000
0000
0020
0000
0000
0000
0000
0000
0000
0000
0000
0000
,  // measure 28
0030
0000
0000
0000
0000
0000
0100
0000
0010
0000
0000
0001
0000
0000
2000
0000
,  // measure 29
0000
0000
0000
0000
,  // measure 30
0000
0000
3000
0000
0000
0001
0010
0100
,  // measure 31
2000
0000
0000
0000
0000
0000
0000
3100
,  // measure 32
1000
0000
0000
0010
0000
0000
0000
0000
0000
0000
0000
0000
0000
0000
0100
0000
,  // measure 33
0001
0000
0000
0000
0010
0000
0000
0000
0000
0000
0100
0000
0000
1000
0000
0000
,  // measure 34
0001
0010
0100
1000
1000
0100
0010
0001
,  // measure 35
1001
0000
0000
0000
0000
0000
0000
1000
,  // measure 36
0010
0000
0000
0000
,  // measure 37
0100
0000
0000
0001
0000
0000
0000
0000
0000
0000
0000
0000
0000
0000
0010
0000
,  // measure 38
0100
0000
0000
0000
,  // measure 39
1001
0000
0000
1000
0000
0000
0000
0000
0000
0000
0000
0000
0000
0000
0001
0000
,  // measure 40
0010
0000
0000
0000
,  // measure 41
0001
0000
0000
0100
0000
0000
0000
0000
0000
0000
0000
0000
0000
0000
0010
0000
,  // measure 42
1000
0000
0000
0100
0000
0000
0001
0000
0000
0100
0000
0000
1000
0000
0001
0000
,  // measure 43
0100
0000
0000
0010
0000
0000
2000
0000
0001
0000
0000
0000
0000
0000
0000
0000
,  // measure 44
0000
0000
0000
0000
3000
0000
0010
0000
0100
0000
0000
0001
0000
0000
2000
0000
,  // measure 45
0000
0000
0001
0000
,  // measure 46
0000
0000
0000
0000
3001
1000
0100
0010
,  // measure 47
0002
0000
0000
0000
0010
0000
0000
0103
,  // measure 48
0001
0000
0000
1000
0000
0000
0000
0000
0100
0000
0000
0000
0000
0000
0010
0000
,  // measure 49
0001
1000
0011
0000
,  // measure 50
1000
0001
0100
0010
2000
0000
0000
3000
,  // measure 51
0102
0000
0000
0000
0100
0000
0000
0000
0003
0000
0001
0000
0000
1000
0000
0000
,  // measure 52
0200
0000
0000
0000
0010
0000
0000
0000
0300
0000
0100
0000
0000
1000
0000
0000
,  // measure 53
0010
0000
0000
0100
0000
0000
0000
0000
0000
0000
0001
0000
0100
0000
0000
0000
,  // measure 54
0010
0000
1000
0000
0000
0001
1000
0000
,  // measure 55
0200
0000
0000
0000
0010
0000
0000
0000
0000
0000
0310
0000
0000
0100
0000
0000
,  // measure 56
2000
0000
3200
2300
,  // measure 57
3020
0000
0100
0000
0000
0100
0130
0000
,  // measure 58
0010
0000
0100
0000
0001
1000
0001
1000
,  // measure 59
0010
0100
0101
0000
,  // measure 60
0001
0010
1100
0000
,  // measure 61
1000
0001
0011
0000
,  // measure 62
0001
1000
1010
0000
,  // measure 63
0001
0000
0100
0000
,  // measure 64
0000
0000
0100
0000
,  // measure 65
0000
0000
0100
0000
,  // measure 66
0000
0000
0100
0000
;

//---------------dance-single - ----------------
#NOTEDATA:;
#CHARTNAME:;
#STEPSTYPE:dance-single;
#DESCRIPTION:;
#CHARTSTYLE:;
#DIFFICULTY:Easy;
#METER:2;
#RADARVALUES:0.137907,0.219472,0.074257,0.099010,0.000000,117.000000,108.000000,9.000000,12.000000,0.000000,0.000000,0.000000,0.000000,0.000000,0.137907,0.219472,0.074257,0.099010,0.000000,117.000000,108.000000,9.000000,12.000000,0.000000,0.000000,0.000000,0.000000,0.000000;
#CREDIT:;
#NOTES:
// measure 0
0000
0000
0000
0000
,  // measure 1
0000
0000
0000
0000
,  // measure 2
0000
0000
0000
0000
,  // measure 3
1001
0000
0000
0001
,  // measure 4
1000
0000
0000
0001
,  // measure 5
0100
0000
0000
0000
,  // measure 6
0010
0000
0000
0000
,  // measure 7
1001
0000
0000
1000
,  // measure 8
0100
0000
0010
0001
,  // measure 9
0100
0000
0000
0000
,  // measure 10
0010
0000
0000
0000
,  // measure 11
1000
0001
0200
0000
,  // measure 12
0300
0000
0001
1000
,  // measure 13
0200
0000
0300
0000
,  // measure 14
0000
0000
0010
0001
,  // measure 15
2000
0000
3000
0000
,  // measure 16
0001
0000
0000
0000
,  // measure 17
0100
0000
0000
0000
,  // measure 18
0010
0100
0002
0000
,  // measure 19
1003
0000
0000
0100
,  // measure 20
1000
0000
0000
0100
,  // measure 21
0010
0000
0000
0000
,  // measure 22
0001
0000
0000
0000
,  // measure 23
0100
0000
0000
0010
,  // measure 24
0100
0000
0010
1000
,  // measure 25
0001
0000
0000
0000
,  // measure 26
1000
0000
0000
0000
,  // measure 27
0100
1000
0020
0000
,  // measure 28
0030
0000
0100
0001
,  // measure 29
0020
0000
0000
0000
,  // measure 30
0030
0000
0100
0010
,  // measure 31
0002
0000
0000
0000
,  // measure 32
1003
0000
0000
0000
,  // measure 33
0010
0000
0000
0000
,  // measure 34
0100
0000
0010
0000
,  // measure 35
1001
0000
0000
0000
,  // measure 36
1000
0000
0000
0000
,  // measure 37
0010
0000
0000
0000
,  // measure 38
0100
0000
0000
0000
,  // measure 39
1001
0000
0000
0000
,  // measure 40
0001
0000
0000
0000
,  // measure 41
0010
0000
0000
0000
,  // measure 42
2002
0000
0000
0000
0000
0000
0000
3003
,  // measure 43
0001
1000
1001
0000
,  // measure 44
1000
0000
0010
0000
,  // measure 45
0100
0001
1001
0000
,  // measure 46
1000
0000
0010
1000
,  // measure 47
0200
0000
0300
0000
,  // measure 48
1000
0000
0010
0000
,  // measure 49
0100
0000
0001
0000
,  // measure 50
1000
0001
0200
0000
,  // measure 51
0310
0000
0000
1000
,  // measure 52
0001
0000
0000
0001
,  // measure 53
0100
0000
0000
0000
,  // measure 54
0010
0000
0000
0000
,  // measure 55
0100
0000
0000
0010
,  // measure 56
1000
0000
0100
0010
,  // measure 57
0002
0000
0000
0003
,  // measure 58
0010
0000
0001
1000
,  // measure 59
0010
0100
0110
0000
,  // measure 60
0000
0000
0001
1000
,  // measure 61
1001
0000
0000
0000
,  // measure 62
0000
0000
0001
0100
,  // measure 63
0010
0000
0100
0000
,  // measure 64
0000
0000
0100
0000
,  // measure 65
0000
0000
0100
0000
,  // measure 66
0000
0000
0100
0000
;

//---------------dance-single - ----------------
#NOTEDATA:;
#CHARTNAME:;
#STEPSTYPE:dance-single;
#DESCRIPTION:;
#CHARTSTYLE:;
#DIFFICULTY:Beginner;
#METER:1;
#RADARVALUES:0.083687,0.192038,0.057756,0.000000,0.000000,71.000000,64.000000,7.000000,0.000000,0.000000,0.000000,0.000000,0.000000,0.000000,0.083687,0.192038,0.057756,0.000000,0.000000,71.000000,64.000000,7.000000,0.000000,0.000000,0.000000,0.000000,0.000000,0.000000;
#CREDIT:;
#NOTES:
// measure 0
0000
0000
0000
0000
,  // measure 1
0000
0000
0000
0000
,  // measure 2
0000
0000
0000
0000
,  // measure 3
0001
0000
0000
0000
,  // measure 4
1000
0000
0000
0000
,  // measure 5
0010
0000
0000
0000
,  // measure 6
0000
0000
0000
0000
,  // measure 7
1000
0000
0000
0000
,  // measure 8
0100
0000
0000
0000
,  // measure 9
0010
0000
0000
0000
,  // measure 10
0000
0000
0000
0000
,  // measure 11
0001
0000
0000
0000
,  // measure 12
0000
0000
0001
0000
,  // measure 13
0000
0000
0000
0000
,  // measure 14
0000
0000
0000
1000
,  // measure 15
1000
0000
0000
0000
,  // measure 16
0010
0000
0000
0000
,  // measure 17
0000
0000
0000
0000
,  // measure 18
0100
0000
0010
0000
,  // measure 19
1001
0000
0000
0000
,  // measure 20
1000
0000
0000
0000
,  // measure 21
0001
0000
0000
0000
,  // measure 22
0000
0000
0000
0000
,  // measure 23
0001
0000
0000
0000
,  // measure 24
1000
0000
0010
0000
,  // measure 25
0100
0000
0000
0000
,  // measure 26
0010
0000
0000
0000
,  // measure 27
1000
0000
0000
0000
,  // measure 28
0000
0000
1000
0000
,  // measure 29
0000
0000
0000
0000
,  // measure 30
0000
0000
0000
0001
,  // measure 31
0001
0000
0000
0000
,  // measure 32
0010
0000
0000
0000
,  // measure 33
0100
0000
0000
0000
,  // measure 34
1000
0000
0001
0000
,  // measure 35
0110
0000
0000
0000
,  // measure 36
0010
0000
0000
0000
,  // measure 37
0100
0000
0000
0000
,  // measure 38
0010
0000
0000
0000
,  // measure 39
1001
0000
0000
0000
,  // measure 40
1000
0000
0000
0000
,  // measure 41
0001
0000
0000
0000
,  // measure 42
1001
0000
0110
0000
,  // measure 43
1001
0000
0001
0000
,  // measure 44
0000
0000
0001
0000
,  // measure 45
0000
0000
1000
0000
,  // measure 46
0000
0000
1000
0000
,  // measure 47
0000
0000
0010
0000
,  // measure 48
0000
0000
0010
0000
,  // measure 49
0000
0000
0100
0000
,  // measure 50
0000
0000
0100
0000
,  // measure 51
1001
0000
0000
0000
,  // measure 52
0010
0000
0000
0000
,  // measure 53
1000
0000
0000
0000
,  // measure 54
0000
0000
0000
0000
,  // measure 55
0001
0000
0000
0000
,  // measure 56
1000
0000
0001
0000
,  // measure 57
0010
0000
0000
0000
,  // measure 58
0100
0000
0000
0000
,  // measure 59
1000
0000
0010
0000
,  // measure 60
0000
0000
0100
0000
,  // measure 61
0000
0000
0001
0000
,  // measure 62
0000
0000
1000
0000
,  // measure 63
0000
0000
0010
0000
,  // measure 64
0000
0000
0010
0000
,  // measure 65
0000
0000
0010
0000
,  // measure 66
0000
0000
0010
0000
;
