#TITLE:Mint;
#SUBTITLE:;
#ARTIST:Night Tempo;
#TITLETRANSLIT:;
#SUBTITLETRANSLIT:;
#ARTISTTRANSLIT:;
#GENRE:;
#CREDIT:;
#BANNER:[Round 1] - Mint-bn.png;
#BACKGROUND:[Round 1] - Mint-bg.png;
#LYRICSPATH:;
#CDTITLE:cdtitle.png;
#MUSIC:[Round 1] - Mint.ogg;
#OFFSET:-0.058000;
#SAMPLESTART:31.566999;
#SAMPLELENGTH:16.000000;
#SELECTABLE:YES;
#BPMS:0.000000=120.000000
;
#STOPS:
;
#BGCHANGES:;
#KEYSOUNDS:;
#ATTACKS:;

//---------------dance-single - ----------------
#NOTES:
     dance-single:
     :
     Hard:
     5:
     0.261040,0.349839,0.109325,0.281120,0.011713,234.000000,220.000000,14.000000,36.000000,0.000000,0.000000,0.261040,0.349839,0.109325,0.281120,0.011713,234.000000,220.000000,14.000000,36.000000,0.000000,0.000000:
// measure 0
0000
0000
0000
0000
,  // measure 1
0000
0000
0000
0000
,  // measure 2
0000
0000
0000
0000
,  // measure 3
0000
0000
0000
0000
,  // measure 4
0002
0010
0000
0013
,  // measure 5
2000
0100
0000
3100
,  // measure 6
0002
0203
2300
3020
,  // measure 7
0032
0203
0320
0030
,  // measure 8
1000
0100
0010
0000
,  // measure 9
0010
0001
0010
1001
,  // measure 10
0010
0100
0001
0000
,  // measure 11
1000
0000
1000
1001
,  // measure 12
0001
0010
0100
0000
,  // measure 13
0100
1000
0100
1001
,  // measure 14
0100
0000
0010
0000
0100
0000
0001
1000
,  // measure 15
0000
0200
0000
0000
0000
0000
0300
0000
1000
0000
1000
0000
0001
0000
0020
0000
,  // measure 16
0100
1000
0100
0001
,  // measure 17
0100
0000
1030
0000
0001
0100
0010
1000
,  // measure 18
0100
0000
0001
0000
0010
0010
1000
0000
,  // measure 19
0100
0000
0001
0000
0100
0100
1000
0001
,  // measure 20
0200
0010
1000
0010
,  // measure 21
0001
0000
0310
0000
1000
0100
0010
0001
,  // measure 22
0100
0000
1000
0000
0010
0010
0001
0020
,  // measure 23
0000
0000
0000
0030
,  // measure 24
0001
0000
0100
0001
0100
0000
0010
0000
,  // measure 25
1000
0000
1000
1001
,  // measure 26
0001
0000
1000
0100
1000
0000
0100
0000
,  // measure 27
0010
0000
0000
0000
0010
0000
0001
0001
,  // measure 28
1000
0000
1000
0001
1000
0000
0001
0000
,  // measure 29
0010
0000
0010
0011
,  // measure 30
0001
0100
0001
1000
,  // measure 31
0001
0001
0020
0230
,  // measure 32
2300
0000
3200
0000
,  // measure 33
0302
0000
0023
0230
,  // measure 34
0302
0000
0023
0000
,  // measure 35
2030
0000
3020
0032
,  // measure 36
0203
0000
2300
0000
,  // measure 37
3020
0000
0032
0203
,  // measure 38
0320
0000
0000
0000
0000
0000
0000
0000
0130
0000
0000
0100
0000
0000
0110
0000
,  // measure 39
0000
0020
0000
0000
0000
0000
1030
0000
0001
0000
0001
0000
1000
0000
0020
0000
,  // measure 40
0001
0100
1000
0100
,  // measure 41
0001
0000
0130
0000
1000
0010
0100
0001
,  // measure 42
0010
0000
1000
0000
0100
0100
0001
0000
,  // measure 43
0010
0000
1000
0000
0010
0010
0001
1000
,  // measure 44
0200
0010
0001
0010
,  // measure 45
1000
0000
0310
0000
0001
0100
0010
1000
,  // measure 46
0100
0010
0110
0000
0100
1000
0001
2002
,  // measure 47
0000
0000
0000
3003
,  // measure 48
1010
0000
0010
1000
0010
0100
0000
0000
,  // measure 49
0101
0000
0100
0001
0100
0010
1000
0000
,  // measure 50
1000
0100
0010
0000
0100
0000
1000
0100
,  // measure 51
0010
0000
0001
0000
0100
0010
1000
0000
,  // measure 52
0001
0000
1000
0000
0100
0100
0100
0000
,  // measure 53
1000
0000
0001
0000
0100
0100
0100
0000
,  // measure 54
0101
0011
1100
1010
,  // measure 55
0010
1000
0010
0000
1000
0001
1000
0001
,  // measure 56
1000
0000
0000
0000
;

//---------------dance-single - ----------------
#NOTES:
     dance-single:
     :
     Medium:
     3:
     0.196338,0.239440,0.101516,0.320165,0.000000,176.000000,163.000000,13.000000,41.000000,0.000000,0.000000,0.196338,0.239440,0.101516,0.320165,0.000000,176.000000,163.000000,13.000000,41.000000,0.000000,0.000000:
0000
0000
0000
0000
,
0000
0000
0000
0000
,
0000
0000
0000
0000
,
0000
0000
0000
0000
,
0002
0000
0203
0000
,
0320
0000
2030
0000
,
3200
0000
0302
0000
,
0023
0000
2030
0000
,
3001
0000
0001
0000
,
1000
0000
1000
1100
,
0100
0000
0100
0000
,
0010
0000
0010
0011
,
0001
0000
0001
0000
,
1000
0000
1000
1010
,
0010
0000
0010
0110
,
2002
0000
0000
0000
3003
1000
1000
0000
,
0200
0000
0302
0000
,
0023
0000
1030
1000
,
0001
0010
0100
1000
,
0100
0010
0001
0001
,
0200
0000
2300
0000
,
3020
0000
0031
0001
,
1000
0010
0100
0001
,
2002
0000
0000
3003
,
1000
0000
0100
0100
0100
0000
0000
0000
,
0100
0000
0010
0011
,
0001
0000
0100
0100
0100
0000
0000
0000
,
0100
0000
0010
1010
,
1000
0000
0001
0001
0001
0000
1000
0000
,
1000
0000
0010
1010
,
1000
0100
0010
0001
,
0100
0100
0010
0010
,
2000
0000
3200
0000
,
0302
0000
0023
0000
,
2030
0000
3002
0000
,
0023
0000
0230
0000
,
2300
0000
3020
0000
,
0032
0000
0203
0000
,
2300
0000
3010
0110
,
2002
0000
0000
0000
3003
0001
0001
0000
,
0020
1000
2030
0100
,
3200
0001
0301
0001
,
1000
0100
0010
0001
,
0010
0100
1000
1000
,
0020
0001
0032
0100
,
0203
1000
1300
0010
,
1000
1100
0100
0220
,
0000
0000
0000
0330
,
0001
0100
0001
0000
,
1000
0100
1000
1000
,
0010
0010
0010
0000
0010
0000
0100
0100
,
0100
0100
0001
0100
,
0010
1000
0000
1000
,
0100
0000
0010
0000
0001
0001
0001
0000
,
1000
0010
0001
0100
,
1000
1000
1000
0000
0001
0001
0001
0000
;

//---------------dance-single - ----------------
#NOTES:
     dance-single:
     :
     Easy:
     2:
     0.127174,0.173358,0.023427,0.257694,0.000000,114.000000,111.000000,3.000000,33.000000,0.000000,0.000000,0.127174,0.173358,0.023427,0.257694,0.000000,114.000000,111.000000,3.000000,33.000000,0.000000,0.000000:
0000
0000
0000
0000
,
0000
0000
0000
0000
,
0000
0000
0000
0000
,
0000
0000
0000
0000
,
0001
0000
0001
0000
,
1000
0000
1000
0000
,
0001
0000
0001
0000
,
1000
0000
1000
0000
,
0010
0000
0010
0000
,
0010
0000
0000
0010
,
0100
0000
0100
0000
,
0100
0000
0000
0100
,
0001
0000
0001
0000
,
0001
0000
0000
0001
,
1000
0000
1000
0000
,
1001
0000
0000
0000
,
0020
0030
0002
0003
,
0200
0300
2000
3000
,
0001
0001
0001
0000
,
1000
1000
1000
0000
,
0200
0300
0002
0003
,
0020
0030
2000
3000
,
0001
0001
0001
0002
,
0000
0000
0000
0003
,
0010
0000
0010
0000
,
0010
0000
0000
0010
,
0100
0000
0100
0000
,
0100
0000
0000
0100
,
1000
0000
1000
0000
,
1000
0000
0000
1000
,
0001
0000
0001
0000
,
0001
0001
1000
1000
,
0020
0030
0020
0030
,
0200
0300
0200
0300
,
0002
0003
0002
0003
,
2000
3000
2000
3000
,
0200
0300
0200
0300
,
0020
0030
0020
0030
,
0002
0003
2000
3000
,
1001
0000
0000
0000
,
0200
0300
0002
0003
,
0020
0030
2000
3000
,
0001
0001
0001
0000
,
1000
1000
1000
1000
,
0020
0030
0002
0003
,
0200
0300
2000
3000
,
0010
0010
0100
0100
,
0220
0000
0000
0330
,
0010
0000
0010
0000
,
0100
0000
0100
0000
,
0001
0001
0000
1000
,
1000
0000
1000
0000
,
0001
0000
0010
0000
,
1000
0000
0100
0000
,
0001
0000
0001
0000
,
1000
0000
1000
0000
;
