#TITLE:Let Me Be Free;
#SUBTITLE:;
#ARTIST:Samantha Fox;
#TITLETRANSLIT:;
#SUBTITLETRANSLIT:;
#ARTISTTRANSLIT:;
#CREDIT:;
#BANNER:Let Me Be Free.png;
#BACKGROUND:Let Me Be Free-bg.png;
#LYRICSPATH:;
#CDTITLE:Dance Mania Delux 2.png;
#MUSIC:Let Me Be Free.ogg;
#OFFSET:-0.073;
#SAMPLESTART:74.615;
#SAMPLELENGTH:12.000;
#SELECTABLE:YES;
#BPMS:0.000=132.036;
#STOPS:;
#BGCHANGES:;

//---------------dance-single - ----------------
#NOTES:
     dance-single:
     :
     Hard:
     7:
     0.481,0.617,0.283,0.000,0.175: // measure 1
0000
0000
0000
0000
,  // measure 2
0000
0000
0000
0000
,  // measure 3
0000
0000
0000
0000
,  // measure 4
0000
0000
0000
0000
,  // measure 5
0000
0000
0000
0000
,  // measure 6
1001
1000
0000
0100
0000
0010
0000
0001
,  // measure 7
0000
0101
0000
0010
0000
1000
0000
0001
,  // measure 8
0000
1100
0000
1000
0000
0010
0000
0100
,  // measure 9
0001
0000
0000
0001
0000
0000
0001
0000
1000
0000
0000
1000
0001
0000
1000
0000
,  // measure 10
1001
0000
1000
0100
0010
0000
0010
0001
,  // measure 11
0000
0001
0100
0001
1000
1000
1000
0000
,  // measure 12
1010
0000
1000
0100
0010
0000
0010
0001
,  // measure 13
0100
0000
0000
0100
0000
0000
0100
0000
0010
0000
0000
0010
0000
0000
0010
0000
,  // measure 14
0110
0000
0010
1000
0100
0000
0100
0010
,  // measure 15
0000
0010
0001
1000
0001
0001
0001
0000
,  // measure 16
0101
0000
0001
0100
0010
0000
0010
1000
,  // measure 17
0100
0000
0000
0100
0000
0000
0100
0000
0010
0000
0000
0010
0000
0000
0010
0000
,  // measure 18
1001
1000
0001
0010
0000
0001
0000
1000
,  // measure 19
0010
1000
0100
0010
0000
0001
0000
0100
,  // measure 20
0001
1000
0001
0010
0000
0000
0100
1000
,  // measure 21
0001
0000
0000
0001
0000
0000
0001
0000
0010
0000
0000
0010
0000
0000
0010
0000
,  // measure 22
0001
1000
0010
1000
0000
1001
0000
1000
,  // measure 23
0100
0010
0001
1000
0000
1001
0000
0001
,  // measure 24
0100
0010
1000
0001
0000
0000
0001
1000
,  // measure 25
0001
0000
0000
0100
0000
0000
0010
0000
0010
0000
0000
1000
0000
0000
0100
0000
,  // measure 26
1001
1001
0000
0000
1000
0100
0010
0001
,  // measure 27
1000
0000
0000
1000
0000
0000
1000
0000
0000
0000
0001
0000
0100
0000
1000
0000
,  // measure 28
0100
0001
1000
0001
0000
0110
0000
1001
,  // measure 29
0001
0000
1000
0000
0100
0000
1000
0000
0010
0000
0000
0010
0000
0000
0010
0000
,  // measure 30
1000
1000
0100
0010
0001
0010
1000
0010
,  // measure 31
0001
0000
0000
0001
0000
0000
0001
0000
0000
0000
0001
0000
0100
0000
0010
0000
,  // measure 32
1000
0100
1000
0000
0000
0100
1000
0010
,  // measure 33
0100
0001
0010
0100
1000
0010
0100
0001
,  // measure 34
1001
1001
0100
0010
1000
0100
0001
0100
,  // measure 35
1000
0000
0000
1000
0000
0000
1000
0000
0001
0000
0100
0000
0001
0000
0010
0000
,  // measure 36
0001
0000
0000
0100
0000
0000
1000
0000
0000
0000
1000
0000
0100
0000
0001
0000
,  // measure 37
0010
0001
1000
0100
0000
1100
1000
0001
,  // measure 38
0000
0000
0000
0001
0100
0000
0000
0100
0010
0000
0000
0010
1000
0000
0000
1000
,  // measure 39
0001
0000
0000
1000
0000
0000
0001
0000
0000
0000
1001
0000
0000
0000
1000
0000
,  // measure 40
0000
0000
0100
0000
0001
0000
0100
0000
0000
0000
1000
0000
0000
0000
0001
1000
,  // measure 41
0001
1000
0001
1000
0001
1000
0001
1000
0100
0010
0100
0010
0100
0010
0100
0010
,  // measure 42
0100
0000
1000
0010
0100
0100
0000
0110
,  // measure 43
0000
0000
0100
0001
1000
1000
0000
0000
,  // measure 44
1001
0000
1000
0100
0001
0001
0000
0001
,  // measure 45
1000
0000
0000
0001
0000
0000
0100
0000
1000
0000
0000
0000
1000
0000
0010
0000
,  // measure 46
0110
0000
0100
0001
1000
1000
0000
1001
,  // measure 47
0000
0000
1000
0010
0100
0100
0000
0000
,  // measure 48
0110
0000
0100
0001
1000
1000
0000
1000
,  // measure 49
0001
0000
0000
0010
0000
0000
0100
0000
1000
0000
0000
0000
1000
0000
0100
0000
,  // measure 50
0011
0001
1000
0001
0000
1001
0000
0001
,  // measure 51
1000
0100
0010
0001
0000
1001
0000
1000
,  // measure 52
0001
0100
0010
1000
0000
0100
0000
0001
,  // measure 53
0100
0000
1000
0100
0000
1000
0100
0000
0010
0000
0000
0010
0000
0000
0010
0000
,  // measure 54
0011
0100
0010
1000
0000
1001
0000
1000
,  // measure 55
0010
0100
0001
1000
0000
1001
0000
1000
,  // measure 56
0001
0100
0010
1000
0000
1001
0000
1000
,  // measure 57
0100
0000
0001
0100
0000
0001
0100
0000
0010
0000
0000
0010
0000
0000
0010
0000
;

//---------------dance-single - ----------------
#NOTES:
     dance-single:
     :
     Easy:
     4:
     0.270,0.294,0.151,0.000,0.000:
0000
0000
0000
0000
,
0000
0000
0000
0000
,
0000
0000
0000
0000
,
0000
0000
0000
0000
,
0000
0000
0000
0000
,
1001
1000
0100
0010
,
0001
0100
0010
1000
,
0100
0010
0001
0100
,
1000
1000
0100
0100
,
1001
0000
0000
0000
,
0000
1000
0100
0010
,
1001
0000
0000
0000
,
0001
0100
0010
1000
,
0110
0000
0000
0000
,
0000
0010
0001
0100
,
0110
0000
0000
0000
,
0010
1000
0010
1000
,
0001
0010
0100
1000
,
0001
0100
0001
1000
,
0010
1000
0100
0010
,
0001
0100
1000
0100
,
0001
0010
0100
1000
,
0001
1000
0100
0010
,
0001
1000
0010
0100
,
0001
0010
1000
0010
,
0001
0001
0000
0000
0001
0000
0100
0000
,
0101
0000
0000
0001
,
1000
0100
0010
0001
,
0010
0100
1000
0001
,
1000
1000
1000
0000
0100
0000
0010
0000
,
0100
1000
0000
1000
,
0001
0100
0000
1000
,
0100
0001
0010
1000
,
0010
0001
0100
1000
,
0010
0001
0001
1000
,
0001
0100
0100
0000
,
0010
1000
0100
1000
,
0010
1000
0011
0001
,
1010
1000
0001
0100
,
0010
0100
0001
0010
,
1000
0010
0001
1000
,
1001
0000
0001
0000
1000
0000
0000
1100
,
0000
1000
0001
0000
,
0101
0001
1000
0000
,
1000
0010
0100
0001
,
0110
0000
1000
0000
0001
0000
0000
1001
,
0000
1000
0010
0000
,
0110
0001
1000
0000
,
1000
0100
0010
0010
,
0001
0100
0010
0100
,
0001
0010
0100
1000
,
0010
1000
0100
1000
,
0010
0010
0100
0100
,
1001
0001
0010
1000
,
0010
0001
0100
1000
,
0100
0001
0010
1000
,
0010
0001
1000
1001
;

//---------------dance-double - ----------------
#NOTES:
     dance-double:
     :
     Hard:
     8:
     0.565,0.644,0.132,0.000,0.316:
00000000
00000000
00000000
00000000
,
00000000
00000000
00000000
00000000
,
00000000
00000000
00000000
00000000
,
00000000
00000000
00000000
00000000
,
00000000
00000000
00000000
00000000
,
10000000
01000000
00010000
10000000
00100000
00010000
00001000
00000100
,
00000001
00001000
00000001
00000000
00000100
00000000
00001000
00000000
00010000
00000000
00001000
00000000
00000100
00000000
00000001
00000000
,
00000100
00010000
00001000
00100000
00010000
01000000
00100000
10000000
,
10000000
00000000
00000000
01000000
00000000
00000000
00010000
00000000
00001000
00000000
00000000
00000100
00001000
00000000
00010000
00000000
,
00011000
00000000
00010000
01000000
10000000
01000000
00010000
00001000
,
00000000
00001000
00000100
00000001
00000100
00000100
00000100
00000000
,
00001000
00000100
00000001
00000100
00001000
00010000
01000000
00010000
,
00001000
00000000
00000000
00001000
00000000
00000000
00001000
00000000
00010000
00000000
00000000
00010000
00000000
00000000
00010000
00000000
,
00100000
00000000
10000000
01000000
00100000
01000000
10000000
00010000
,
00000000
10000000
00010000
10000000
01000000
01000000
01000000
00000000
,
01000000
00010000
00001000
00010000
00100000
00010000
00001000
00000010
,
00001000
00010000
00001000
00010000
00001000
00010000
00001000
00010000
00001000
00010000
00001000
00010000
00001000
00010000
00001000
00010000
,
00001000
00010000
00001000
00100000
00010000
10000000
00000000
10000000
,
00100000
01000000
00001000
00010000
00001000
00000100
00000000
00000100
,
00000001
00000010
00000001
00000100
00001000
00010000
00000000
00010000
,
00001000
00000000
00100000
00010000
00000000
10000000
00100000
00000000
10000000
00010000
00000000
00100000
00000000
00001000
00010000
00000000
,
00000100
00001000
00000100
00000010
00000001
00001000
00000000
00000001
,
00000100
00001000
00010000
00001000
00100000
00010000
00000000
00010000
,
10000000
00100000
01000000
00001000
00010000
00001000
00000000
00010000
,
00000100
00000010
00000100
00000010
00000100
00000010
00000100
00000010
00000001
00001000
00000001
00001000
00000001
00001000
00000001
00001000
,
00000100
00000100
00000000
00000000
00000100
00001000
00010000
01000000
,
10000000
00000000
00000000
10000000
00000000
00000000
10000000
00000000
00000000
00000000
01000000
00000000
00010000
00000000
00100000
00000000
,
00001000
00010000
00001000
00000100
00000000
00000001
00000000
00000010
,
00000100
00001000
00000100
00000010
00001000
00010000
00100000
00010000
,
00011000
00011000
00001000
00100000
00010000
10000000
00100000
00010000
,
00001000
00000000
00000000
00001000
00000000
00000000
00001000
00000000
00000000
00000000
00001000
00000000
00000100
00000000
00000001
00000000
,
00000010
00000000
00000010
00000000
00000010
00000000
00000000
00000000
00000000
00000000
00000010
00000000
00000001
00000000
00001000
00000100
,
00001000
00000100
00010000
00001000
00010000
00001000
00100000
00010000
00100000
00010000
10000000
01000000
10000000
01000000
10000000
01000000
,
10000000
00010000
10000000
01000000
00100000
00001000
00000000
00010000
,
00000100
00001000
00000100
00000010
00000001
00000100
00001000
00010000
,
00100000
00000000
00000000
10000000
00000000
00000000
01000000
00000000
00000000
00000000
00100000
00000000
00001000
00000000
00010000
00000000
,
00000100
00000100
00000010
00000001
00000100
00001000
00000100
00000001
,
00000010
00000011
00001010
00110000
,
10100000
00000000
00000000
10000000
00000000
00000000
00010000
00000000
00000000
00000000
10010000
00000000
00000000
00000000
10000000
00000000
,
00100000
00000000
01000000
00000000
00010000
00000000
10000000
00000000
00000000
00000000
00010000
00000000
00100000
00000000
00001000
00010000
,
00001000
00010000
00000100
00010000
00000100
00010000
00001000
00010000
00001000
00100000
00001000
00100000
00001000
00010000
00001000
00010000
,
00001000
00000000
00010000
00000100
00000010
00000010
00000000
00000110
,
00000000
00000000
00000001
00000100
00001000
00001000
00000000
00000000
,
00011000
00000000
00001000
00100000
00010000
00010000
00000000
00010000
,
10000000
00000000
00000000
00100000
00000000
00000000
00010000
00000000
00001000
00000000
00000000
00000000
00001000
00000000
00000010
00000000
,
00001001
00000000
00000001
00000100
00000010
00000010
00000000
00001010
,
00000000
00000000
00000010
00001000
00000001
00000001
00000000
00000000
,
00000101
00000000
00000001
00000100
00001000
00001000
00000000
00000100
,
00000001
00000010
00000001
00000010
00001000
00000010
00001000
00010000
00001000
00010000
00001000
00100000
00001000
00100000
00001000
00100000
,
00001000
00001000
00100000
00010000
10000000
00100000
00000000
00100000
,
10000000
01000000
00010000
00001000
00000100
00001000
00000000
00000100
,
00000001
00000010
00001000
00010000
00001000
00000010
00000000
00000010
,
00000001
00000000
00000100
00000001
00000000
00001000
00000100
00000000
00010000
00001000
00000000
00100000
00000000
00010000
10000000
00000000
,
10100000
10000000
01000000
00100000
00001000
00010000
00000000
00010000
,
00000100
00000001
00000100
00001000
00000010
00000100
00000000
00000100
,
00000001
00000010
00001000
00010000
00100000
10000000
00000000
10000000
,
01000000
00000000
00100000
00001000
00000000
00010000
00001000
00000000
00010000
00000100
00000000
00010000
00000000
00001000
00010000
00000000
;

//---------------dance-double - ----------------
#NOTES:
     dance-double:
     :
     Easy:
     4:
     0.263,0.348,0.142,0.000,0.000:
00000000
00000000
00000000
00000000
,
00000000
00000000
00000000
00000000
,
00000000
00000000
00000000
00000000
,
00000000
00000000
00000000
00000000
,
00000000
00000000
00000000
00000000
,
10000000
01000000
00100000
00010000
,
10000000
00010000
00100000
01000000
,
10000000
00100000
00010000
00001000
,
00000100
00000100
00000001
00000001
,
00000101
00000000
00000000
00000000
,
00000000
00000001
00000100
00001000
,
00010000
00000000
00000000
00000000
,
00010000
00010000
01000000
01000000
,
11000000
00000000
00000000
00000000
,
00000000
10000000
01000000
00010000
,
00001000
00000000
00000000
00000000
,
00000100
00000100
00000010
00000010
,
00001001
00000001
00000100
00000010
,
00001000
00001000
00000100
00010000
,
00001000
00001000
00100000
00010000
,
10000000
10000000
00100000
00100000
,
01000000
01000000
00010000
00100000
,
00001000
00001000
00010000
00000100
,
00001000
00001000
00000010
00000100
,
00000001
00000010
00000100
00001000
,
00001100
00000000
00000100
00010000
,
00000000
00000000
00010000
00001000
,
00100000
00010000
00100000
01000000
,
10000000
00010000
10000000
00100000
,
01100000
01000000
00001000
00000100
,
00001000
00000000
00000000
00001000
,
00001000
00010000
00000000
00000100
,
00000010
00000001
00000100
00001000
,
00010000
01000000
10000000
01000000
,
00010000
00001000
00010000
00000100
,
00000001
00000100
00001000
00000010
,
00000100
00000100
00000001
00000001
,
00000010
00000011
00001010
00110000
,
10100000
00000000
00000000
10000000
,
01000000
00100000
00010000
00001000
,
00000100
00000010
00000001
00000100
,
00011000
00000000
00010000
00000000
00001000
00000000
00000000
00011000
,
00000000
00001000
00100000
00000000
,
00110000
00010000
10000000
00000000
,
00100000
10000000
01000000
00010000
,
00011000
00000000
00010000
00000000
00001000
00000000
00000000
00011000
,
00000000
00001000
00010000
00000000
,
00100100
00010000
00001000
00000000
,
00000100
00000001
00000010
00001000
,
00010000
00001000
00100000
00010000
,
01000000
10000000
01000000
00010000
,
00100000
00010000
01000000
00001000
,
00010000
00010000
00001000
00001000
,
00000010
00000001
00000100
00001000
,
00000100
00000001
00000010
00000001
,
00000100
00000010
00010000
00001000
,
00100000
01000000
00010000
00001000
;

//---------------dance-single - ----------------
#NOTES:
     dance-single:
     :
     Medium:
     6:
     0.371,0.402,0.179,0.000,0.075:
0000
0000
0000
0000
,
0000
0000
0000
0000
,
0000
0000
0000
0000
,
0000
0000
0000
0000
,
0000
0000
0000
0000
,
1000
0100
0000
0010
0000
0001
0000
0100
,
0000
0110
0000
1000
0000
0100
0000
0010
,
0000
1001
0000
0100
0000
0010
0000
1000
,
0001
0000
0000
0001
0000
0000
0001
0000
1000
0000
0000
1000
0000
0000
1000
0000
,
0100
0000
0010
0000
0001
0000
1000
0001
,
0000
0000
1001
0000
1000
1000
1000
0000
,
1100
0000
1000
0000
0010
0000
0100
0001
,
1000
0000
0000
1000
0000
0000
1000
0000
0001
0000
0000
0001
0000
0000
0001
0000
,
0100
0000
0010
0000
0100
0000
0001
1000
,
0000
0000
1000
0000
0001
0001
0001
0000
,
0100
0001
0010
0100
,
1100
0000
0101
0000
1100
0000
1000
0001
,
1000
0100
1000
0100
0000
0000
0000
0100
,
0010
0100
0010
0001
0000
0000
0000
0001
,
0100
0001
0100
0010
0000
0000
0000
0010
,
1000
0000
0000
1000
0000
0000
1000
0000
0001
0000
0000
0001
0000
0000
0001
0000
,
1000
0100
1000
0100
0000
0000
0000
1000
,
0100
1000
0100
0010
0000
0000
0000
0100
,
0010
0100
0010
0001
0000
0000
0000
0001
,
0100
0000
0000
0100
0000
0000
0100
0000
0010
0000
0000
0010
0000
0000
0010
0000
,
1000
1000
0000
0000
1000
0100
1000
0000
,
0001
0000
0000
0001
0000
0000
0001
0000
0000
0000
0000
0000
0001
0000
0000
0000
,
0100
0010
0100
0000
1000
0000
0100
0000
,
0001
1000
0001
0000
1000
0000
0100
0000
,
0010
0010
0010
0000
0001
0001
0001
0000
,
1000
0000
0000
1000
0000
0000
1000
0000
0000
0000
0000
0000
1000
0000
0000
0000
,
0100
0010
0100
0000
1000
0001
1000
0000
,
0001
1000
0001
0000
0100
0010
0100
0000
,
0001
0001
0100
0000
0100
0100
0000
0110
,
0000
0000
0000
0010
1000
0100
1000
0010
,
0000
1010
0000
0000
0000
0000
1000
0000
,
0010
1000
0100
0010
0000
0010
0010
0010
,
0000
0011
1010
0011
,
0101
0000
0000
0000
0000
0100
0000
0010
,
0000
1000
0000
0001
0000
1000
0000
1100
,
0000
1000
0001
1001
0000
0000
1000
0100
,
1000
0000
0001
0100
0001
0000
0000
1001
,
0000
0000
1000
0001
1000
0000
0000
0000
,
1001
0000
1000
0001
1000
0000
0000
0001
,
0100
0000
0000
0100
0000
0000
0100
0000
0100
0000
0000
0000
0001
0000
0010
0000
,
0100
0000
1000
0010
0100
0000
0000
1001
,
0000
0000
1000
0001
0100
0000
0000
0000
,
0110
0000
0100
0001
0010
0000
0000
1000
,
0010
0000
0000
0010
0000
0000
0010
0000
0010
0000
0000
0000
0010
0000
0000
0000
,
0001
1000
0001
0100
0000
0000
0000
0010
,
1000
0001
1000
0100
0000
0000
0000
0100
,
1000
0001
1000
0010
0000
0000
0010
1000
,
0001
0000
0000
0001
0000
0000
0001
0000
1000
0000
0000
1000
0000
0000
1000
0000
,
0001
0010
0001
1000
0000
0000
0000
1000
,
0001
0010
0001
0100
0000
0000
0000
0100
,
0001
1000
0001
0010
0000
0000
0010
0100
,
1000
0000
0000
1000
0000
0000
1000
0000
0001
0000
0000
0001
0000
0000
0001
0000
;

//---------------dance-double - ----------------
#NOTES:
     dance-double:
     :
     Medium:
     6:
     0.389,0.402,0.123,0.000,0.071:
00000000
00000000
00000000
00000000
,
00000000
00000000
00000000
00000000
,
00000000
00000000
00000000
00000000
,
00000000
00000000
00000000
00000000
,
00000000
00000000
00000000
00000000
,
10000000
01000000
00000000
00010000
00000000
00001000
00000000
00000100
,
00000000
00000101
00000000
00000001
00000000
00000010
00000000
00001000
,
00000000
00011000
00000000
00001000
00000000
00100000
00000000
00010000
,
10000000
00000000
00000000
10000000
00000000
00000000
10000000
00000000
01000000
00000000
00000000
01000000
00000000
00000000
01000000
00000000
,
00010000
00000000
00001000
00010000
00001000
00000000
00010000
00001000
,
00000000
00000000
00000100
00000000
00000001
00000010
00000100
00000000
,
00010000
00000000
00001000
00100000
00010000
00000000
00010000
10000000
,
00010000
00000000
00000000
00010000
00000000
00000000
00010000
00000000
00100000
00000000
00000000
00100000
00000000
00000000
00100000
00000000
,
00001000
00000000
00010000
00001000
00010000
00000000
00001000
00010000
,
00000000
00000000
00010000
00000000
00000100
00001000
00000010
00000000
,
00000100
00000000
00000001
00000010
00000100
00000000
00000100
00010000
,
00001000
00000000
00000000
00001000
00000000
00000000
00001000
00000000
00010000
00000000
00000000
00010000
00000000
00000000
00010000
00000000
,
00001000
00100000
00010000
00100000
00000000
01000000
00000000
10000000
,
00100000
10000000
00010000
01000000
00000000
00001000
00000000
00010000
,
00000100
00001000
00000100
00000010
00000000
00000000
00000001
00000100
,
00000010
00000000
00000000
00000010
00000000
00000000
00000010
00000000
00010000
00000000
00000000
00010000
00000000
00000000
00010000
00000000
,
00001000
00100000
00010000
00100000
00000000
10000000
00000000
00100000
,
00001000
00010000
00001000
00000100
00000000
00000001
00000000
00000010
,
00000001
00001000
00000010
00000100
00000000
00000000
00000000
00000100
,
00001000
00000000
00000000
00001000
00000000
00000000
00001000
00000000
00010000
00000000
00000000
00010000
00000000
00000000
00010000
00000000
,
00001000
00001000
00000000
00000000
00010000
00001000
00100000
00010000
,
00000000
00000000
00000000
00000000
00000000
00010000
00100000
00010000
,
01000000
10000000
01000000
00010000
00000000
00100000
00000000
00001000
,
00000000
00010000
00001000
00010000
00000000
00000000
00000000
00000000
,
00010000
00010000
00010000
00000000
00001000
00001000
00001000
00000000
,
00011000
00000000
00000000
00000000
00000000
00010000
00001000
00010000
,
00000100
00001000
00000100
00000000
00000000
00000010
00000001
00000010
,
00000000
00000100
00000000
00010000
00000000
00000000
00000000
00000000
,
00001000
00010000
01000000
00000000
00010000
00001000
00000100
00000000
,
00000001
00000000
00000001
00000000
00000010
00000100
00001000
00000100
,
00000010
00000001
00000100
00001000
,
00010000
01000000
10000000
01000000
00000000
00010000
00001000
00000100
,
00000000
00000101
00001100
01010000
,
11000000
00000000
00000000
00000000
00000000
10000000
00000000
01000000
,
00000000
00010000
00000000
00000100
00000000
00000001
00000000
00000100
,
00000000
00010000
00001000
00010000
00000000
00000000
00001000
00010000
,
00011000
00000000
00010000
00001000
01000000
00010000
00000000
10010000
,
00000000
00000000
10000000
00100000
01000000
00010000
00000000
00000000
,
00011000
00000000
00010000
00000100
00001000
00000100
00000000
00000100
,
00000010
00000000
00000000
00000001
00000000
00000000
00000100
00000000
00001000
00000000
00000000
00000000
00001000
00000000
00010000
00000000
,
00011000
00000000
00001000
00010000
00000010
00001000
00000000
00001010
,
00000000
00000000
00001000
00000010
00000100
00000001
00000000
00000000
,
00001001
00000000
00000001
00000100
00000010
00000100
00000000
00001000
,
00010000
01000000
00000000
10000000
00100000
00000000
01000000
00010000
,
00100000
00010000
01000000
00010000
00000000
00100000
00000000
00001000
,
00010000
00000100
00010000
00001000
00000000
00010000
00000000
00000100
,
00001000
00000100
00000010
00000100
00000000
00001000
00000000
00000010
,
00000100
00000000
00000000
00000100
00000000
00000000
00000100
00000000
00001000
00000000
00000000
00001000
00000000
00000000
00001000
00000000
,
00010000
00001000
00010000
01000000
00000000
10000000
00000000
01000000
,
00010000
00001000
00010000
00001000
00000000
00000100
00000000
00001000
,
00010000
00100000
00010000
00001000
00000000
00010000
00000000
00001000
,
00010000
00000000
00000000
00010000
00000000
00000000
00010000
00000000
00100000
00000000
00000000
00100000
00000000
00000000
00100000
00000000
;
