#VERSION:0.83;
#TITLE:Death By Glamour;
#SUBTITLE:(KAZOO'd);
#ARTIST:Tsuko G. vs Toby Fox;
#TITLETRANSLIT:;
#SUBTITLETRANSLIT:;
#ARTISTTRANSLIT:;
#GENRE:;
#ORIGIN:;
#CREDIT:;
#BANNER:[Round 1] - Death By Glamour (KAZOO'd).png;
#BACKGROUND:[Round 1] - Death By Glamour (KAZOO'd)-bg.png;
#PREVIEWVID:;
#JACKET:[Round 1] - Death By Glamour (KAZOO'd)-jacket.png;
#CDIMAGE:;
#DISCIMAGE:;
#LYRICSPATH:;
#CDTITLE:cdtitle.png;
#MUSIC:[Round 1] - Death By Glamour (KAZOO'd).ogg;
#OFFSET:-0.200000;
#SAMPLESTART:39.099998;
#SAMPLELENGTH:13.000000;
#SELECTABLE:YES;
#BPMS:0.000=148.000;
#STOPS:;
#DELAYS:;
#WARPS:;
#TIMESIGNATURES:0.000=4=4;
#TICKCOUNTS:0.000=4;
#COMBOS:0.000=1;
#SPEEDS:0.000=1.000=0.000=0;
#SCROLLS:0.000=1.000;
#FAKES:;
#LABELS:0.000=Song Start;
#LASTSECONDHINT:120.000000;
#BGCHANGES:;
#KEYSOUNDS:;
#ATTACKS:
;

//---------------dance-single - ----------------
#NOTEDATA:;
#CHARTNAME:;
#STEPSTYPE:dance-single;
#DESCRIPTION:;
#CHARTSTYLE:;
#DIFFICULTY:Beginner;
#METER:2;
#RADARVALUES:0.164107,0.183550,0.016648,0.108215,0.000000,138.000000,136.000000,2.000000,13.000000,0.000000,0.000000,0.000000,0.000000,0.000000,0.164107,0.183550,0.016648,0.108215,0.000000,138.000000,136.000000,2.000000,13.000000,0.000000,0.000000,0.000000,0.000000,0.000000;
#CREDIT:;
#NOTES:
0000
0000
0000
0000
,
0000
0000
0000
0000
,
0000
0000
0000
0000
,
0000
0000
0000
0000
,
1000
0000
1000
0000
,
0100
0000
0010
0000
,
0001
0000
0001
0000
,
0100
0000
0010
0000
,
2000
0000
0000
0000
,
0000
0000
3100
0000
,
0002
0000
0000
0000
,
0000
0000
0103
0000
,
1000
0000
0010
0000
,
0100
0000
0001
0000
,
0010
0000
0100
0000
,
1000
0000
0001
0000
,
1000
0000
1000
0000
,
0001
0000
0001
0000
,
1000
0000
0010
0000
,
0001
0000
0010
0000
,
1000
0000
0100
0000
,
0001
0000
0100
0000
,
0010
0000
0010
0000
,
0100
0000
0100
0000
,
2000
0000
0010
0000
,
0010
0000
3010
0000
,
0002
0000
0100
0000
,
0100
0000
0103
0000
,
2000
0000
0100
0000
,
0100
0000
3100
0000
,
0002
0000
0010
0000
,
0010
0000
0013
0000
,
1000
0000
0100
0000
,
0010
0000
0001
0000
,
1000
1000
0000
0000
,
0001
0001
0000
0100
,
0001
0000
0100
0000
,
0010
0000
1000
0000
,
0001
0000
1000
0000
,
0010
0000
0110
0000
,
0002
0000
0103
0000
,
2000
0000
3100
0000
,
0002
0000
0013
0000
,
0100
0100
0100
0000
,
2000
0000
3100
0000
,
0002
0000
0103
0000
,
2000
0000
3010
0000
,
0100
0000
0000
0000
,
0001
0000
0001
0000
,
0100
0000
0001
0000
,
1000
0000
1000
0000
,
0001
0000
0010
0000
,
0100
0000
1000
0000
,
0010
0000
1000
0000
,
0001
0000
0001
0000
,
1000
0000
0100
0000
,
0010
0000
0010
0000
,
0001
0000
0010
0000
,
0100
0000
1000
0000
,
0100
0000
0010
0000
,
0001
0000
0100
0000
,
1000
0000
0100
0000
,
0010
0000
0010
0000
,
0100
0000
0001
0000
,
1000
0000
0100
0000
,
0001
0000
0100
0000
,
1000
0000
0010
0000
,
0001
0000
0010
0000
,
0010
0000
1000
0000
,
0100
0000
1000
0000
,
0010
0000
0100
0000
,
0001
0000
0010
0000
,
0200
0000
0000
0000
,
0310
0000
1001
0000
;

//---------------dance-single - ----------------
#NOTEDATA:;
#CHARTNAME:;
#STEPSTYPE:dance-single;
#DESCRIPTION:;
#CHARTSTYLE:;
#DIFFICULTY:Easy;
#METER:4;
#RADARVALUES:0.344862,0.368348,0.241403,0.166485,0.000000,290.000000,261.000000,29.000000,20.000000,0.000000,0.000000,0.000000,0.000000,0.000000,0.344862,0.368348,0.241403,0.166485,0.000000,290.000000,261.000000,29.000000,20.000000,0.000000,0.000000,0.000000,0.000000,0.000000;
#CREDIT:;
#NOTES:
0000
0000
0000
0000
,
0000
0000
0000
0000
,
0000
0000
0000
0000
,
0000
0000
0000
0000
,
0100
0100
1000
1000
,
0001
0001
0100
0100
,
0010
0010
1000
1000
,
0001
0001
0010
0010
,
0002
0100
1000
1000
,
0100
0100
0010
0013
,
2000
0010
0100
0100
,
0001
0001
0100
3100
,
0001
0010
0100
1000
,
0010
1000
0001
0100
,
0001
1000
0100
0010
,
0001
1000
0110
1001
,
1000
0010
0001
1000
,
0100
0001
1001
1001
,
0001
0010
1000
0001
,
0100
1000
0110
0110
,
0010
1000
0100
0010
,
0001
0100
1001
1001
,
0100
0010
1000
0100
,
0010
0001
0110
0110
,
0200
0001
0001
1000
,
1000
0301
0101
1010
,
0020
1000
1000
0001
,
0001
1030
1010
0101
,
2000
0010
0010
0100
,
0100
3010
0110
1001
,
0002
0100
0100
0010
,
0010
0103
1001
1001
,
1000
0100
0100
1000
,
0010
0100
0100
0001
,
0010
0020
0000
0030
,
0100
0100
1001
1001
,
0001
0010
0010
0001
,
0100
0010
0010
1000
,
0200
0310
0020
0130
,
1000
0001
1001
0000
,
2000
0000
3100
0000
,
2000
3100
0010
0001
,
0200
0000
0320
0000
,
0130
1010
0011
0000
,
0002
0000
0103
0000
,
0002
0103
0010
1000
,
0200
0000
0320
0030
,
1001
0000
0000
0000
,
0010
1000
0001
0001
,
1000
0001
0100
0000
,
0001
1000
0100
0000
,
1000
0001
0010
0100
,
0010
0001
1000
1000
,
0001
1000
0100
0000
,
1000
0001
0100
0000
,
0001
1000
0010
0110
,
0001
1000
1000
0100
,
1000
0001
0001
0100
,
0010
1000
1000
0001
,
0100
0001
0001
1000
,
0001
0010
0100
1000
,
1000
0100
0010
0001
,
1000
0001
1000
0001
,
0100
0010
0100
0010
,
0200
1000
0010
0010
,
1000
1000
0001
0301
,
0020
0001
1000
1000
,
0100
0100
1000
1000
,
0130
1100
0010
0011
,
0001
0010
0100
1000
,
0100
0010
0001
1000
,
0010
0100
0110
1002
,
0013
0001
0100
0010
,
1000
1000
0001
0100
;

//---------------dance-single - ----------------
#NOTEDATA:;
#CHARTNAME:;
#STEPSTYPE:dance-single;
#DESCRIPTION:;
#CHARTSTYLE:;
#DIFFICULTY:Medium;
#METER:7;
#RADARVALUES:0.499455,0.491131,0.332970,0.191458,0.000000,420.000000,380.000000,40.000000,23.000000,0.000000,0.000000,0.000000,0.000000,0.000000,0.499455,0.491131,0.332970,0.191458,0.000000,420.000000,380.000000,40.000000,23.000000,0.000000,0.000000,0.000000,0.000000,0.000000;
#CREDIT:;
#NOTES:
0000
0000
0000
0000
,
0000
0000
0000
0000
,
0000
0000
0000
0000
,
0000
0000
0000
0000
,
0100
0000
1000
0100
1000
0010
0100
0001
,
0000
0001
0100
0000
0110
0000
1001
0000
,
0100
0000
0001
0100
0001
0010
0100
1000
,
0000
1000
0100
0000
0110
0000
1001
0000
,
0200
1000
0010
0001
,
1000
0001
0010
1300
,
0020
0001
1000
0100
,
0001
0100
1030
1001
,
0100
0001
0100
0000
0010
1000
0010
0000
,
1000
0100
1000
0000
0001
0010
0001
0000
,
0100
0010
0100
0000
0001
0010
0100
0000
,
1000
0100
0010
0000
0110
0000
1001
0000
,
0001
0100
0010
0100
0001
0010
0100
0000
,
1000
0000
1000
0010
0100
0000
1001
0000
,
1000
0100
0010
0100
1000
0010
0100
0000
,
0001
0000
0001
0100
0010
0000
0110
0000
,
0100
0001
0010
0100
1000
0001
0100
0000
,
0010
0000
0010
0100
0001
0000
1001
0000
,
0100
1000
0010
0100
0001
1000
0100
0000
,
0010
0000
0001
1000
0100
0000
0110
0000
,
0100
0000
1100
0000
1000
0100
0010
0001
,
0000
0001
0010
0100
1000
0000
1001
0000
,
0110
0000
0011
0000
0001
0010
0100
1000
,
0000
1000
0100
0010
0001
0000
1001
0000
,
0110
0000
1010
0000
1000
0010
0100
0001
,
0000
0001
0100
0010
1000
0000
1001
0000
,
0110
0000
0101
0000
0001
0100
0010
1000
,
0000
1000
0100
0010
0001
0000
1001
0000
,
1000
0100
1000
0000
0001
0100
0001
0000
,
1000
0100
0010
0000
0001
0100
0010
1000
,
0001
0001
0001
0000
0000
1000
1000
0000
,
0010
0000
0010
0000
1000
0001
0100
0000
,
0001
0010
0001
0000
1000
0010
1000
0000
,
0001
0010
0100
0000
1000
0010
0100
0001
,
1000
1000
0100
0000
0001
0001
0100
0000
,
0010
0001
0100
0010
1000
0000
1000
0100
,
0020
0000
0032
0000
,
2003
3200
0320
0032
,
0203
0000
0000
0000
2300
0000
0000
3001
,
0010
1000
0010
0001
0020
0000
0130
0000
,
0020
0000
2030
0000
,
3002
0203
0320
2030
,
3200
0000
0000
0000
0320
0000
0000
0032
,
2000
0000
0000
3003
,
0010
0000
1000
0010
0100
0000
0001
0100
,
0010
1000
0010
0100
0001
0000
1000
0001
,
1000
0000
1100
0000
1100
0000
0010
0100
,
1000
0000
0011
0000
0011
0000
0001
0100
,
0000
0010
1000
0001
0010
0000
0100
0010
,
0001
1000
0001
0010
0100
0000
1000
0001
,
1000
0000
1010
0000
1010
0000
0010
0100
,
0001
0101
0101
1001
,
0100
1000
0010
0100
0001
0000
0100
0001
,
0010
0001
0100
0001
0010
0000
0100
0010
,
0100
0000
1100
0000
0011
0000
0010
0100
,
1000
0101
1010
0001
,
0010
0001
0100
0010
1000
0000
0100
1000
,
0010
1000
0100
1000
0001
0000
0100
0001
,
1000
0000
1001
0000
0110
0000
0010
0100
,
0001
0110
1001
0200
,
1300
0010
0001
0010
1000
0010
0100
0000
,
0001
0100
1000
0100
0001
0100
0010
0000
,
0010
1000
0100
1000
0010
0100
0001
0000
,
0010
0001
0100
0001
0010
0100
1000
0000
,
0100
0010
1000
0001
0100
1000
0001
0000
,
0100
0010
1000
0001
0100
1000
0001
0000
,
0010
0100
0010
0100
0001
0010
0100
0000
,
1000
0001
1000
0001
0010
1000
0001
0100
,
2000
0000
0000
0000
,
3001
1000
1001
0100
;

//---------------dance-single - ----------------
#NOTEDATA:;
#CHARTNAME:;
#STEPSTYPE:dance-single;
#DESCRIPTION:;
#CHARTSTYLE:;
#DIFFICULTY:Hard;
#METER:10;
#RADARVALUES:0.702804,0.798087,0.049945,0.374591,0.636805,591.000000,585.000000,6.000000,45.000000,0.000000,0.000000,0.000000,0.000000,0.000000,0.702804,0.798087,0.049945,0.374591,0.636805,591.000000,585.000000,6.000000,45.000000,0.000000,0.000000,0.000000,0.000000,0.000000;
#CREDIT:;
#NOTES:
// measure 0
0000
0000
0000
0000
,  // measure 1
0000
0000
0000
0000
,  // measure 2
0000
0000
0000
0000
,  // measure 3
0000
0000
0000
0000
,  // measure 4
0100
0000
0000
0100
1000
0000
0100
0000
1000
0000
0010
0000
0100
0000
0002
0000
,  // measure 5
0000
0000
1003
0000
0010
0000
0100
0000
0001
0000
0010
0002
0000
0000
0103
0000
,  // measure 6
0100
0000
0000
0100
0001
0000
0100
0000
0001
0000
0010
0000
0100
0000
2000
0000
,  // measure 7
0000
0000
3001
0000
0010
0000
0100
0000
1000
0000
0010
2000
0000
0000
3001
0000
,  // measure 8
0010
0000
0000
0001
0010
0000
0100
0000
1000
0000
0000
1000
0000
0000
0001
0000
,  // measure 9
0000
0000
1000
0000
0010
0000
1000
0000
0001
0000
0001
2000
0000
0000
0000
0000
,  // measure 10
3010
0000
0000
1000
0010
0000
0100
0000
0001
0000
0000
0001
0000
0000
1000
0000
,  // measure 11
0000
0000
1000
0000
0010
0000
0100
0000
0001
0000
0001
2000
0000
0000
0000
0000
,  // measure 12
3100
0000
0010
0000
0001
0000
0010
0100
0010
0100
0010
0000
0001
0000
1000
0000
,  // measure 13
0010
0000
0100
0000
0001
0000
1000
0001
1000
0001
1000
0000
0010
0000
0000
0000
,  // measure 14
1000
0000
0100
0000
0010
0000
0001
1000
0001
1000
0001
0000
0100
0000
0010
0000
,  // measure 15
1000
0000
0001
0000
0010
0000
0100
0010
0100
0010
0100
0000
0110
0000
0000
0000
,  // measure 16
1000
0000
0001
0000
0010
0000
1000
0000
0010
0000
0001
0100
0000
1000
0100
0000
,  // measure 17
0000
0000
0200
0000
0301
0000
1000
0000
0010
0000
1000
0001
0000
0000
0020
0000
,  // measure 18
0031
0000
1000
0000
0010
0000
0001
0000
0010
0000
1000
0100
0000
0001
0100
0000
,  // measure 19
0000
0000
0200
0000
1300
0000
0001
0000
0010
0000
0001
0100
0000
0000
0001
1000
,  // measure 20
0001
0000
0100
0000
0010
0000
1000
0000
0010
0000
1000
0001
0000
0010
0100
0000
,  // measure 21
0000
0000
0200
0000
1300
0000
0001
0000
0010
0000
0001
1000
0000
0000
0020
0000
,  // measure 22
1030
0000
0100
0000
0010
0000
0001
0000
0010
0000
0001
1000
0000
0010
0100
0000
,  // measure 23
0000
0000
0100
0000
0001
0000
1000
0000
0010
0000
1000
0001
0000
0000
0001
0100
,  // measure 24
0010
0000
1000
0000
0010
0000
0100
0001
0000
0001
1000
0001
0010
0000
0100
0000
,  // measure 25
1000
0000
0100
0000
1000
0010
0000
1000
0000
1000
0001
0000
0100
0000
0001
0000
,  // measure 26
1000
0000
0000
0100
0000
0000
1000
0000
0000
0010
0000
0000
1000
0000
0000
0000
0000
0000
0000
0000
0000
0000
0000
0000
0000
0000
0000
0000
0000
0000
0001
0000
0000
0000
0000
0000
0001
0000
0000
0000
0000
0000
0100
0000
0001
0000
1000
0000
,  // measure 27
0010
0000
0000
0010
0000
0000
2000
0000
3001
0000
0001
0000
0100
0000
0000
0000
,  // measure 28
0100
0000
0001
0000
0100
0000
0010
1000
0000
1000
0001
1000
0100
0000
0010
0000
,  // measure 29
0001
0000
0010
0000
0001
0100
0000
0001
0000
0001
1000
0000
0010
0000
1000
0000
,  // measure 30
0001
0000
0000
0010
0000
0000
0001
0000
0000
0100
0000
0000
0001
0000
0000
0000
0000
0000
0000
0000
0000
0000
0000
0000
0000
0000
0000
0000
0000
0000
1000
0000
0000
0000
0000
0000
1000
0000
0000
0000
0000
0000
0100
0000
1000
0000
0001
0000
,  // measure 31
0010
0000
0000
0010
0000
0000
0002
0000
1003
0000
1000
0000
1001
0000
0000
0000
,  // measure 32
0001
0000
1000
0000
0010
0000
0100
0001
0000
0100
0001
1000
0010
0000
0100
0000
,  // measure 33
0001
0000
1000
0000
0100
0010
0000
0001
0000
0001
1000
0000
0100
0000
1000
0000
,  // measure 34
0001
0000
0000
0100
0000
0000
0001
0000
0000
0010
0000
0000
0001
0000
0000
0000
0000
0000
0000
0000
0000
0000
0000
0000
0000
0000
0000
0000
0000
0000
1001
0000
0000
0000
0000
0000
1001
0000
0000
0000
0000
0000
0001
0000
1000
0000
0001
0000
,  // measure 35
0010
0000
0000
0010
0000
0000
0002
0000
1003
0000
1100
0000
0101
0000
0000
0000
,  // measure 36
1000
0000
0001
0000
0100
0000
0010
1000
0000
1000
0001
0100
0010
0000
1000
0000
,  // measure 37
0100
0000
1000
0000
0001
0010
0000
0001
0000
1000
0001
0000
0100
0000
0001
0000
,  // measure 38
1000
0100
1000
0010
0100
0000
0000
0000
0001
0100
0001
0010
0100
0000
0000
0000
,  // measure 39
1000
0001
1000
0001
0010
0100
0010
0100
1000
0000
0000
0000
0100
1000
0100
1000
,  // measure 40
0020
0000
0000
0000
1030
0000
0000
0100
0000
0100
1000
0000
0010
0000
0100
0000
,  // measure 41
0002
0000
0000
0000
2003
0000
0000
3010
0000
0010
1000
0000
0002
0000
0000
0000
,  // measure 42
2003
0000
0000
0000
3010
0000
0000
0100
0000
0100
0001
0000
1000
0000
0001
0000
,  // measure 43
0010
0001
1000
0000
0010
1000
0001
0000
0020
0000
0000
0000
0130
1000
0001
0100
,  // measure 44
0020
0000
0000
0000
1030
0000
0000
0100
0000
0100
0010
0000
0001
0000
0001
0000
,  // measure 45
2000
0000
0000
0000
3002
0000
0000
0013
0000
0010
0001
0000
2000
0000
0000
0000
,  // measure 46
3002
0000
0000
0000
0013
0000
0000
0100
0000
0100
1000
0000
0001
0000
1000
0000
,  // measure 47
0020
0000
0000
1030
0000
0000
0001
0000
0002
0000
0000
0000
0023
0000
0000
0000
,  // measure 48
0032
0000
0000
0000
0103
0000
0001
0020
0000
0000
0000
0000
0130
0000
0010
0000
,  // measure 49
0001
0000
0010
0000
1000
0000
0010
0200
0000
0000
0000
0000
1300
0000
0001
0000
,  // measure 50
1000
0000
0000
0001
1000
0000
0010
0000
0200
0000
0000
0000
0310
0000
1000
0000
,  // measure 51
0001
0000
0000
1000
0001
0000
0100
0000
0020
0000
0000
0000
1030
0000
0001
0000
,  // measure 52
0000
0000
0010
0000
0001
0000
1000
0020
0000
0000
0000
0000
1030
0000
0010
0000
,  // measure 53
0001
0000
0010
0000
1000
0000
0001
0200
0000
0000
0000
0000
0301
0000
1000
0000
,  // measure 54
0100
0000
0000
0100
0000
0000
0010
0000
0200
0000
0000
0000
0310
0000
0001
0000
,  // measure 55
1000
0000
0000
1000
0000
0000
0001
0000
0020
0000
0000
0000
0130
0000
1000
0000
,  // measure 56
0020
0000
0000
0000
1030
0000
1000
0002
0000
0000
0103
0000
0001
0000
0010
0000
,  // measure 57
0100
0000
0100
0000
1000
0000
1000
0020
0000
0000
1030
0000
0100
0000
0010
0000
,  // measure 58
0001
0100
0000
0001
0100
0000
0010
0000
1000
0001
0000
1000
0001
0000
0010
0000
,  // measure 59
0100
1000
0000
0100
1000
0000
0010
0000
0100
0010
0000
0100
0010
0000
1000
0000
,  // measure 60
0000
0000
0010
0000
0100
0000
0001
0020
0000
0000
0130
0000
1000
0000
0100
0000
,  // measure 61
0010
0000
0001
0000
0100
0000
0001
2000
0000
0000
3001
0000
0010
0000
0100
0000
,  // measure 62
1000
0010
0000
1000
0010
0000
0100
0000
0001
1000
0000
0001
1000
0000
0100
0000
,  // measure 63
0010
0001
0000
0010
0001
0000
0100
0000
0020
0000
0000
0000
0230
0000
0000
0000
,  // measure 64
0301
0000
0010
0000
1000
0000
0010
0100
0010
0100
0010
0000
0001
0000
1000
0000
,  // measure 65
0100
0000
1000
0000
0010
0000
1000
0001
1000
0001
1000
0000
0100
0000
0000
0000
,  // measure 66
1000
0000
0100
0000
0001
0000
0100
0010
0100
0010
0100
0000
1000
0000
0001
0000
,  // measure 67
0010
0000
0001
0000
0100
0000
0001
1000
0001
1000
0001
0000
0010
0000
0001
0000
,  // measure 68
0010
0001
0010
0001
1000
0100
1000
0100
0010
0001
0010
0001
1000
0000
0010
0000
,  // measure 69
0000
0000
1000
0000
0100
0000
0010
0000
0001
0100
0001
0000
0010
0100
1000
0010
,  // measure 70
1000
0000
0100
0000
0001
0000
0100
0000
0010
0001
0100
0000
0010
0000
1000
0000
,  // measure 71
0001
1000
0001
0000
0010
0000
0100
0000
1000
0010
0100
0000
0010
0000
0000
0000
,  // measure 72
0010
1000
0010
1000
0001
0100
0001
0100
0001
1000
0001
1000
0100
0010
0100
1000
,  // measure 73
0010
0000
0000
0010
0000
0000
2000
0000
3001
0000
1000
0000
0100
0000
0000
0000
;
