#TITLE:DOES NOT COMPUTE;
#SUBTITLE:;
#ARTIST:フレディ波多江とエレハモニカ feat. ALT;
#TITLETRANSLIT:;
#SUBTITLETRANSLIT:;
#ARTISTTRANSLIT:Freddie Hatae and Helearmonica feat. ALT;
#GENRE:DARK TECHNO POP;
#CREDIT:;
#BANNER:[Round 1] - DOES NOT COMPUTE.png;
#BACKGROUND:[Round 1] - DOES NOT COMPUTE-bg.png;
#LYRICSPATH:;
#CDTITLE:cdtitle.png;
#MUSIC:[Round 1] - DOES NOT COMPUTE.ogg;
#OFFSET:-0.260000;
#SAMPLESTART:36.854218;
#SAMPLELENGTH:10.184208;
#SELECTABLE:YES;
#BPMS:0.000000=190.000000
,212.000000=95.000000
,228.000000=190.000000
,303.000000=180.000000
,305.000000=170.000000
,307.000000=160.000000
,309.000000=150.000000
,311.000000=130.000000
,313.000000=110.000000
,315.000000=80.000000
,316.000000=60.000000
;
#STOPS:228.000000=0.947000
;
#BGCHANGES:;
#KEYSOUNDS:;
#ATTACKS:;

//---------------dance-single - ----------------
#NOTES:
     dance-single:
     :
     Hard:
     9:
     0.632411,1.006539,0.192854,0.420772,0.162173,505.000000,483.000000,22.000000,48.000000,0.000000,0.000000,0.632411,1.006539,0.192854,0.420772,0.162173,505.000000,483.000000,22.000000,48.000000,0.000000,0.000000:
0000
0000
0000
0000
,
0000
0000
0000
0000
,
0000
0000
0000
0000
,
0000
0000
0000
0000
,
0000
0000
0000
0000
,
1000
0000
0001
0010
0100
0000
1000
0010
,
1000
0100
0001
0100
1000
0000
0010
0100
,
0001
0000
1000
0100
0010
0001
0100
0010
,
1000
0000
0000
0000
0001
0000
0010
0000
0001
0000
0010
0000
0001
1000
0001
0000
,
1000
0000
0001
0100
0010
0000
1000
0100
,
1000
0010
0001
0010
1000
0000
0100
0000
,
0010
0000
0001
0100
1000
0100
0001
0010
,
0100
0000
0000
0000
1000
0000
0000
0000
0010
0000
0100
0000
0010
0000
0100
0010
,
0100
0001
0010
0001
1000
0010
0001
0010
,
1000
0100
1000
0010
0100
1000
0100
0001
,
0010
0100
0010
0001
0100
0010
1000
0010
,
1000
0000
0100
0000
0001
0000
0100
0000
1000
0000
0001
0000
1000
0001
1000
0000
,
0010
1000
0100
1000
0001
0100
1000
0100
,
0001
0010
0001
0100
0010
0001
0010
1000
,
0100
0010
0100
1000
0010
0100
0001
0100
,
0001
0000
0010
0000
0001
1000
0001
0000
1000
0000
0100
0000
0010
0000
0001
0000
,
1000
0010
0001
0010
1000
0000
0100
0010
,
0001
0100
0010
1000
0000
1001
0000
0000
,
0001
0010
1000
0010
0001
0000
0100
0010
,
1000
0100
0010
0001
0000
1001
0000
0000
,
1000
0010
0100
0010
0001
0010
0000
0200
,
0000
0310
1000
0100
1000
0001
0100
0001
,
0000
0010
0100
0010
0100
0000
0000
1000
,
1000
0001
0100
0010
0000
1000
0100
0010
,
0001
0000
0101
0000
0100
0010
0000
1010
,
0000
1000
0100
0000
2000
0000
3020
0000
,
1030
0000
1100
0000
0100
0010
0000
0011
,
0000
0001
0100
0000
0020
0000
2030
0000
,
3001
0010
1000
0010
0001
0100
0010
1000
,
0000
1100
0000
0101
0000
0001
0010
0100
,
1000
0010
0001
0010
1000
0000
0100
0010
,
0000
0000
0001
0000
0100
0000
0000
0000
0010
0000
1000
0000
0001
1000
0001
1000
,
0001
0000
0011
0000
0010
0100
0000
1100
,
0000
1000
0010
0000
2000
0000
3200
0000
,
1300
0000
1010
0000
0010
0100
0000
0101
,
0000
0001
0010
0000
0200
0000
2300
0000
,
3001
0100
1000
0100
0001
0010
0100
1000
,
0000
1010
0000
0011
0000
0001
0100
0010
,
2000
3200
0302
0203
,
1300
0000
0010
0000
1000
0000
0010
0000
0100
0001
0100
0001
0100
0001
0100
0001
,
1000
0010
0100
1000
0100
0001
1000
0100
,
0010
0001
0010
1000
0010
0100
1000
0001
,
0100
0010
0001
0010
1000
0100
0010
0001
,
1000
0000
0010
0000
0100
0000
0010
0000
0001
0000
0010
0000
0100
0010
0100
0000
,
0001
0000
1000
0100
1000
0000
0001
0000
0100
0000
0010
0000
0100
0000
0001
0000
,
1000
0100
1000
0100
0010
0000
0001
0000
0100
0000
0010
0000
1000
0000
0001
0000
,
0010
0100
0010
0100
0010
0100
0010
0100
1000
0010
1000
0010
0100
0001
0100
0001
,
1000
0100
1000
0100
0010
0001
0010
0001
0100
0000
0010
0000
1000
0000
0000
0000
,
0002
0000
2003
0000
,
3200
0000
0320
0032
,
2003
0000
3002
0000
,
0203
0000
0320
0000
,
0030
0000
1000
0000
1100
0000
0100
0010
,
0001
0100
0000
0001
1000
0000
0200
0000
,
0320
0000
0031
0000
0101
0000
0100
0010
,
1000
0100
0000
1000
0001
0000
0200
0000
,
0320
0000
1030
0100
0001
0100
1000
0010
,
0100
0001
0000
0011
0000
1010
0000
1000
,
0100
0010
0001
0100
1000
0100
0001
0000
,
0010
0100
1000
0010
1000
0001
0010
0100
,
1000
0001
1000
0000
0001
0000
0000
0000
0101
0000
0000
0000
0100
0000
0010
0000
,
1000
0100
0000
1000
0001
0000
0200
0000
,
0320
0000
1030
0000
1100
0000
0100
0010
,
0001
0100
0000
0001
1000
0000
0200
0000
,
0320
0000
0031
0100
1000
0100
0001
0010
,
0100
1000
0000
1010
0000
0011
0000
0001
,
0100
0010
2000
0000
3200
0000
0302
0000
,
0203
2300
3020
0032
,
0023
0000
1030
0100
1000
0100
0010
0001
,
0010
0000
0001
0000
0100
0010
0100
0010
0100
0010
0100
0010
1000
0001
1000
0001
,
1000
0001
1000
0001
1000
0000
0100
0000
0020
0000
0000
0000
0032
0000
0000
0000
,
0203
0000
0000
0000
0320
0000
0000
0000
0000
0000
1030
0001
2000
0000
0000
0000
,
3100
0010
0200
0000
0000
0000
2300
0000
,
0000
0000
0000
0000
3002
0000
0000
0000
0000
0000
1003
0010
2000
0000
0000
0000
,
0002
0000
0000
3003
0000
0000
0000
0000
0000
0000
0000
0000
0000
0000
0000
0000
;

//---------------dance-single - ----------------
#NOTES:
     dance-single:
     :
     Medium:
     7:
     0.487144,0.520623,0.245450,0.166556,0.000000,389.000000,361.000000,28.000000,19.000000,0.000000,0.000000,0.487144,0.520623,0.245450,0.166556,0.000000,389.000000,361.000000,28.000000,19.000000,0.000000,0.000000:
0000
0000
0000
0000
,
0000
0000
0000
0000
,
0000
0000
0000
0000
,
0000
0000
0000
0000
,
0000
0000
0000
0000
,
1000
0000
0001
0100
0001
0000
1000
0100
,
1000
0010
0100
0001
,
0010
0000
0001
0100
0001
0000
1000
0000
,
0100
0000
0010
0000
0001
1000
0001
1000
,
0001
0000
1000
0100
0010
0000
0100
1000
,
0001
0100
0010
0100
,
0001
0000
1000
0100
1000
0000
0001
0100
,
0001
0010
0100
1000
,
0010
0100
0010
0100
0001
0000
1000
0000
,
0100
0010
0100
0010
0001
0000
1000
0001
,
1000
0000
0010
0100
0010
0000
1000
0100
,
0010
0001
0100
0010
,
1000
0000
0001
0100
1000
0000
1000
0100
,
0001
1000
0100
0010
,
0001
0000
1000
0010
1000
0000
0001
1000
,
0001
0000
0010
0100
0010
0100
1000
0000
,
0001
0100
0010
0100
0001
0000
1000
0100
,
0010
0000
0100
1000
0000
0001
0000
0000
,
1000
0010
0100
0010
1000
0000
0001
0010
,
0100
0000
0010
0001
0000
1000
0000
0000
,
0001
0100
0001
0100
0010
1000
0000
0100
,
0000
0010
0001
0010
0001
0000
1000
0001
,
0000
1000
0100
0000
0010
0000
0000
0001
,
0100
1000
0100
0001
0000
0010
0100
0010
,
0100
0000
0110
0000
0010
0001
0000
1001
,
0000
1000
0010
0000
1000
0000
0100
0000
,
0010
0000
0110
0000
0100
1000
0000
1001
,
0000
0001
0100
0000
0001
0000
0010
0000
,
0001
1000
0001
1000
0001
0000
0000
1010
,
0000
1001
0000
0011
0000
1000
0001
0000
,
1000
0000
0100
0000
0010
0000
0001
0100
,
0000
0010
0100
0000
0001
1000
0000
0000
,
0100
0000
0110
0000
0010
0001
0000
1001
,
0000
1000
0010
0000
1000
0000
0100
0000
,
0010
0000
0110
0000
0100
1000
0000
1001
,
0000
0001
0100
0000
0001
0000
0010
0000
,
0001
1000
0001
1000
0001
0000
0000
1010
,
0000
1001
0000
0011
0000
0001
1000
0000
,
0001
0100
1000
0100
,
0001
0010
1000
0010
,
0001
1000
0001
0000
1000
0100
0010
0000
,
0100
1000
0010
0000
0100
0001
0100
0000
,
0001
0010
0100
0000
0010
0001
1000
0000
,
0010
0100
0010
0100
0001
0010
0100
0000
,
1000
0010
1000
0000
0100
0000
0010
0000
,
0001
0100
0001
0000
0010
0000
0100
0000
,
1000
0010
1000
0010
0100
0001
0100
0001
,
0010
0100
1000
0010
,
2000
0000
3200
0000
,
0320
0000
0032
0000
,
0203
0000
0320
0000
,
2030
0000
3002
0000
,
0003
0000
1000
0000
1001
0000
0001
0010
,
0000
0110
0000
0100
1000
0000
0010
0000
,
0100
0000
0001
0000
1001
0000
1000
0100
,
0000
0110
0000
0010
0001
0000
0100
0000
,
0010
0000
0100
0010
0100
0010
0100
0000
,
0000
1001
0000
0110
0000
1001
0000
1000
,
0100
1000
0010
0100
,
0001
0010
0000
0001
0100
0000
0010
1000
,
0000
0000
0001
0000
1001
0000
1000
0100
,
0000
0110
0000
0010
0001
0000
0100
0000
,
0010
0000
1000
0000
1001
0000
0001
0010
,
0000
0110
0000
0100
1000
0000
0010
0000
,
0100
0000
0010
0100
0010
0100
0010
0000
,
0000
1001
0000
0110
0000
1001
0000
0001
,
0010
0001
0100
1000
,
0100
0001
0010
1000
,
0010
0000
0001
0100
0001
0000
1000
0100
,
1000
0000
0010
0100
0010
0000
1000
0001
,
1000
0001
0200
0000
0320
0000
2030
0000
,
3200
0000
0320
0000
0030
0001
2000
0000
,
3001
0100
0002
0000
0000
0000
0023
0000
,
0000
0000
0230
0000
0000
1300
0002
0000
,
2003
0000
0000
3000
0000
0000
0000
0000
0000
0000
0000
0000
0000
0000
0000
0000
;

//---------------dance-single - ----------------
#NOTES:
     dance-single:
     :
     Easy:
     5:
     0.330607,0.381790,0.070129,0.149023,0.000000,264.000000,256.000000,8.000000,17.000000,0.000000,0.000000,0.330607,0.381790,0.070129,0.149023,0.000000,264.000000,256.000000,8.000000,17.000000,0.000000,0.000000:
0000
0000
0000
0000
,
0000
0000
0000
0000
,
0000
0000
0000
0000
,
0000
0000
0000
0000
,
0000
0000
0000
0000
,
1000
0100
0010
0001
,
0100
0010
1000
0100
,
0010
0100
1000
0001
,
2000
0000
3000
0001
,
1000
0010
0100
0001
,
0010
0100
1000
0010
,
0100
0010
1000
0001
,
1000
0100
0010
0001
,
0100
0010
0100
0010
,
1000
0100
1000
0100
,
0010
0001
0010
0001
,
0100
0010
0100
0010
,
1000
0001
1000
0001
,
1000
0010
1000
0010
,
0100
0001
0100
0001
,
1000
0001
1000
0001
,
1000
0100
0010
0100
,
1000
0010
0100
0000
,
0001
0010
0100
0010
,
0001
0100
0010
0000
,
1000
0001
1000
0000
,
0010
0100
0010
1000
,
0002
0000
0000
0000
0000
0000
0003
1000
,
1000
0100
0010
0001
,
1000
1010
0010
0100
,
0001
0010
0000
0000
,
0001
0101
0100
0010
,
1000
0100
0000
0000
,
1000
0000
0001
0000
1000
0000
0000
0010
,
0000
0100
0000
0010
0000
0000
1000
0000
,
0001
0010
0100
0010
,
0001
1000
0001
0000
,
1000
1010
0010
0100
,
0001
0010
0000
0000
,
0001
0101
0100
0010
,
1000
0100
0000
0000
,
1000
0000
0001
0000
1000
0000
0000
0010
,
0000
0100
0000
0010
0000
0000
1000
0000
,
0001
0010
0100
0010
,
0001
1000
0010
1000
,
0001
0001
0100
0100
,
0010
0010
1000
1000
,
0100
0100
0010
0010
,
0001
0001
1000
1000
,
0001
0010
0100
1000
,
0001
0100
0010
1000
,
0100
0010
0001
1000
,
0010
0100
0001
1000
,
0002
0000
2003
0000
,
3200
0000
0320
0000
,
0032
0000
2003
0000
,
3020
0000
0230
0000
,
0300
0001
0011
0010
,
0100
1000
0010
0000
,
0000
1000
1100
0100
,
0010
0001
0100
0000
,
0000
0001
1000
0001
,
0000
0010
0000
0100
0000
0010
0000
0000
,
0001
0100
0010
0100
,
0001
0010
0100
1000
,
0000
0001
0101
0100
,
0010
1000
0100
0000
,
0000
1000
1010
0010
,
0100
0001
0010
0000
,
0000
0001
1000
0001
,
0000
0100
0000
0010
0000
0100
0000
0000
,
0001
1000
0100
0010
,
0001
1000
0010
0100
,
0001
1000
1000
0001
,
0001
0000
1000
0010
1000
0000
0001
0100
,
0001
0010
0100
1000
,
0010
0200
0000
0302
,
0000
2003
0000
3200
,
0000
0320
0000
0032
,
2003
0000
0000
3000
0000
0000
0000
0000
0000
0000
0000
0000
0000
0000
0000
0000
;

//---------------dance-single - ----------------
#NOTES:
     dance-single:
     :
     Beginner:
     2:
     0.139005,0.173541,0.000000,0.087661,0.000000,111.000000,111.000000,0.000000,10.000000,0.000000,0.000000,0.139005,0.173541,0.000000,0.087661,0.000000,111.000000,111.000000,0.000000,10.000000,0.000000,0.000000:
// measure 0
0000
0000
0000
0000
,  // measure 1
0000
0000
0000
0000
,  // measure 2
0000
0000
0000
0000
,  // measure 3
0000
0000
0000
0000
,  // measure 4
0000
0000
0000
0000
,  // measure 5
1000
0000
1000
0000
,  // measure 6
1000
0000
1000
0000
,  // measure 7
0001
0000
0001
0000
,  // measure 8
0001
0000
0001
0000
,  // measure 9
0100
0000
0100
0000
,  // measure 10
0100
0000
0100
0000
,  // measure 11
0010
0000
0010
0000
,  // measure 12
0010
0000
0010
0000
,  // measure 13
1000
0000
1000
0000
,  // measure 14
0100
0000
0100
0000
,  // measure 15
0010
0000
0010
0000
,  // measure 16
0001
0000
0001
0000
,  // measure 17
1000
0000
1000
0000
,  // measure 18
0010
0000
0010
0000
,  // measure 19
0100
0000
0100
0000
,  // measure 20
0001
0000
0001
0000
,  // measure 21
1000
0000
0000
0000
,  // measure 22
0001
0000
0000
0000
,  // measure 23
0100
0000
0000
0000
,  // measure 24
0010
0000
0000
0000
,  // measure 25
1000
0000
0000
0000
,  // measure 26
0001
0000
0000
0000
,  // measure 27
0010
0000
0000
0000
,  // measure 28
0100
0000
0000
0000
,  // measure 29
1000
0000
0001
0000
,  // measure 30
1000
0000
0000
0000
,  // measure 31
0001
0000
1000
0000
,  // measure 32
0001
0000
0000
0000
,  // measure 33
1000
0000
0000
0000
,  // measure 34
0010
0000
0000
0000
,  // measure 35
0100
0000
0000
0000
,  // measure 36
0001
0000
0000
0000
,  // measure 37
1000
0000
0001
0000
,  // measure 38
1000
0000
0000
0000
,  // measure 39
0001
0000
1000
0000
,  // measure 40
0001
0000
0000
0000
,  // measure 41
1000
0000
0000
0000
,  // measure 42
0100
0000
0000
0000
,  // measure 43
0010
0000
0000
0000
,  // measure 44
0001
0000
0000
0000
,  // measure 45
1000
0000
1000
0000
,  // measure 46
0001
0000
0001
0000
,  // measure 47
0100
0000
0100
0000
,  // measure 48
0010
0000
0010
0000
,  // measure 49
1000
0000
1000
0000
,  // measure 50
0001
0000
0001
0000
,  // measure 51
0010
0000
0010
0000
,  // measure 52
0100
0000
0100
0000
,  // measure 53
2000
0000
0000
3000
,  // measure 54
0002
0000
0000
0003
,  // measure 55
0200
0000
0000
0300
,  // measure 56
0020
0000
0000
0030
,  // measure 57
0000
1000
0000
0001
,  // measure 58
0000
1000
0000
0000
,  // measure 59
0000
0001
0000
1000
,  // measure 60
0000
0001
0000
0000
,  // measure 61
0000
1000
0000
0000
,  // measure 62
0000
0100
0000
0000
,  // measure 63
0000
0010
0000
0000
,  // measure 64
0000
0001
0000
0000
,  // measure 65
0000
1000
0000
0001
,  // measure 66
0000
1000
0000
0000
,  // measure 67
0000
0001
0000
1000
,  // measure 68
0000
0001
0000
0000
,  // measure 69
0000
1000
0000
0000
,  // measure 70
0000
0010
0000
0000
,  // measure 71
0000
0100
0000
0000
,  // measure 72
0000
0001
0000
0000
,  // measure 73
0000
1000
0000
0001
,  // measure 74
0000
1000
0000
0001
,  // measure 75
0000
2000
0000
0000
,  // measure 76
3000
0200
0000
0000
,  // measure 77
0300
0020
0030
0002
,  // measure 78
0003
2000
3000
0001
,  // measure 79
0200
0000
0000
0300
0000
0000
0000
0000
0000
0000
0000
0000
0000
0000
0000
0000
;
