#TITLE:セシボン・キブン;
#SUBTITLE:;
#ARTIST:LADYBABY;
#TITLETRANSLIT:C'est si bon Kibun;
#SUBTITLETRANSLIT:;
#ARTISTTRANSLIT:;
#GENRE:;
#CREDIT:mf32892;
#BANNER:C'est si bon Kibun-bn.png;
#BACKGROUND:C'est si bon Kibun-jacket.jpg;
#LYRICSPATH:;
#CDTITLE:cdtitle.png;
#MUSIC:C'est si bon Kibun.ogg;
#OFFSET:0.225370;
#SAMPLESTART:70.000000;
#SAMPLELENGTH:25.000000;
#SELECTABLE:YES;
#BPMS:0.000000=140.000000
,224.000000=139.451004
,228.000000=139.990997
,244.000000=139.910995
;
#STOPS:
;
#BGCHANGES:0.000=C'est Si Bon Kibun.mp4=1.000=0=0=0=StretchNoLoop====,
99999=-nosongbg-=1.000=0=0=0 // don't automatically add -songbackground-
;
#KEYSOUNDS:;
#ATTACKS:;

//---------------dance-single - ----------------
#NOTES:
     dance-single:
     :
     Hard:
     9:
     0.615016,0.623802,0.175719,0.247604,0.495208,486.000000,22.000000,31.000000,0.000000,0.000000,0.000000,0.615016,0.623802,0.175719,0.247604,0.495208,486.000000,22.000000,31.000000,0.000000,0.000000,0.000000:
// measure 0
0000
0000
0000
0000
,  // measure 1
0000
0000
0000
0000
,  // measure 2
0000
0000
0000
0000
,  // measure 3
0000
0000
0000
0000
,  // measure 4
0000
0000
0000
0000
,  // measure 5
1000
1000
0000
1000
1000
0001
0010
0000
,  // measure 6
0001
1000
0010
0000
1000
0001
0100
0000
,  // measure 7
0010
0010
0000
0010
0010
1000
0001
0000
,  // measure 8
1000
0000
0000
0110
,  // measure 9
1000
0000
0001
0100
0000
0100
0010
0000
1000
0000
0001
1000
0000
1000
0100
0000
,  // measure 10
0010
0000
0001
1000
0000
1000
0010
0000
0100
0000
0001
0010
0000
0010
0100
0000
,  // measure 11
1100
0000
1000
0001
0000
0001
0100
0000
0010
0000
1000
0100
0000
0100
0010
0000
,  // measure 12
0001
0000
1000
0001
0000
0001
0100
0000
0010
0000
1000
0001
1000
0001
1000
0001
,  // measure 13
0010
0000
0001
1000
0000
1000
0100
0000
0010
0000
0001
1000
0000
1000
0010
0000
,  // measure 14
0100
0000
0001
0010
0000
0010
0100
0000
0010
0000
0001
1000
0000
1000
0010
0000
,  // measure 15
0110
0000
1000
0001
0000
0001
0010
0000
0100
0000
1000
0001
0000
0001
0100
0000
,  // measure 16
0010
0000
1000
0100
0000
0100
0010
0000
0001
0000
1000
0001
1000
0001
1000
0001
,  // measure 17
0010
0000
0000
0000
0010
0000
0100
0000
0020
0000
0000
0030
0000
0000
0002
0000
,  // measure 18
0000
1003
0010
0001
0010
1000
0001
0010
,  // measure 19
0000
0000
0200
0000
0010
0310
0000
0002
,  // measure 20
0000
0000
0103
0000
0010
0000
1000
0000
0100
0000
0010
0000
0200
0000
0000
0300
,  // measure 21
0000
0000
0000
0000
1000
0100
1000
0000
0001
0000
0100
0000
0000
0000
0020
0000
,  // measure 22
0000
1030
0100
0010
0001
0100
0001
1000
,  // measure 23
0000
0000
0001
0010
0001
0100
0000
0020
,  // measure 24
0000
1030
0100
0010
0001
0000
0000
0000
,  // measure 25
1000
0000
0010
0000
0100
0000
0001
1000
0001
0000
0010
0000
0100
0000
1000
0000
,  // measure 26
0100
0001
0100
1000
0020
0100
0000
0130
,  // measure 27
0001
0000
1000
0000
0001
0000
0010
0100
0010
0000
0001
0000
1000
0000
0001
0000
,  // measure 28
0100
1000
0100
0001
0200
0010
0000
0310
,  // measure 29
1000
0000
0100
0000
0001
0000
0100
1000
0100
0000
0010
0000
0001
0000
1000
0000
,  // measure 30
0010
0001
0010
1000
2000
0001
0000
3001
,  // measure 31
0001
0000
0010
0000
1000
0000
0010
0100
0010
0000
0001
0000
1000
0000
0001
0000
,  // measure 32
0100
0000
1000
0000
0100
0000
0001
0000
2000
0000
3100
0010
0100
0010
0100
0010
,  // measure 33
0001
0000
0000
1000
0001
0000
0000
1000
0000
0100
0000
1000
0010
0000
0100
0000
,  // measure 34
0001
0000
0000
0001
1000
0000
0000
0001
0000
0100
0000
0001
0010
0000
0100
0000
,  // measure 35
1000
0000
0000
0010
0100
0000
0000
0010
0000
1000
0000
0100
1000
0000
0001
0000
,  // measure 36
0010
0000
0000
0100
0010
0000
0000
0001
0000
0100
0000
0010
0100
0001
0100
0001
,  // measure 37
1000
0000
0001
0000
0010
0000
0100
0010
0000
0001
0000
0100
0001
0000
1000
0000
,  // measure 38
0001
0000
0100
0000
0010
0000
1000
0100
0000
1000
0000
0001
0100
0000
0010
0000
,  // measure 39
2010
3010
0102
0103
,  // measure 40
0001
0010
0100
1000
0001
0000
0000
0000
,  // measure 41
1000
0000
0100
0000
0010
0000
0000
0001
0100
0001
1000
0000
0010
0000
0100
0000
,  // measure 42
0001
0010
1000
0010
0002
0000
2003
0000
,  // measure 43
3001
0000
0100
0000
0010
0000
0000
1000
0100
1000
0001
0000
0100
0000
0010
0000
,  // measure 44
1000
0100
0001
0100
2000
0000
3010
0000
,  // measure 45
0102
0000
0000
0000
1003
0000
0000
0001
0100
0000
0001
0000
0010
0000
0100
0000
,  // measure 46
2100
0000
0000
0000
3001
0000
0000
1000
0100
0000
1000
0000
0010
0000
0100
0000
,  // measure 47
0201
0310
1200
0310
,  // measure 48
0101
1100
1010
0011
,  // measure 49
1000
0000
0000
0000
0010
0000
0000
0010
0100
0000
0000
0100
0001
0000
0000
0000
,  // measure 50
1000
0100
0010
0001
2000
0000
3010
0000
,  // measure 51
0110
0000
0101
0000
1001
2000
0000
3001
,  // measure 52
0010
1000
0010
0001
1000
0000
1010
0000
,  // measure 53
0201
0000
0310
1000
0002
0000
0013
0100
,  // measure 54
0020
0031
0200
0310
,  // measure 55
2010
0000
3001
1000
0200
0000
0310
0000
,  // measure 56
1001
0000
0000
0000
,  // measure 57
0001
0000
0100
0010
0000
0010
1000
0000
0001
0000
1000
0100
1000
0100
1000
0100
,  // measure 58
0010
0000
0000
0000
,  // measure 59
0100
0000
1000
0010
0000
0010
0100
0000
0001
0000
0010
0100
0010
0100
0010
0100
,  // measure 60
1000
0000
0000
1000
0000
0000
1000
0000
0010
0000
0000
0000
1001
0000
0000
0000
,  // measure 61
1000
0000
0001
0100
0000
0010
1000
0000
0100
0010
0000
0001
0100
0001
1000
0000
,  // measure 62
0001
0000
1000
0100
0000
0010
0001
0000
0100
0010
0000
1000
0100
1000
0001
0000
,  // measure 63
1000
0000
0001
0100
0000
0010
1000
0000
0100
1000
0000
0001
0010
0100
0010
0000
,  // measure 64
0001
0000
1000
0010
0000
0100
0001
1000
0200
0000
0000
0000
0310
0000
0000
0000
,  // measure 65
1001
0000
0001
0100
0000
1000
0100
0000
0001
1000
0000
1000
0100
0000
0010
0001
,  // measure 66
1000
0000
1000
0100
0000
0001
0100
0000
1000
0001
0000
0001
0100
0000
0010
1000
,  // measure 67
0001
0000
0001
0010
0000
1000
0010
0000
0001
1000
0000
1000
0010
0000
0100
0001
,  // measure 68
1000
0000
1000
0100
0000
0001
0100
0000
1000
0001
0100
0001
0010
0100
1000
0002
,  // measure 69
0200
0000
0000
0000
,  // measure 70
0000
0000
0000
0000
,  // measure 71
0303
0000
0000
0000
;

//---------------dance-single - ----------------
#NOTES:
     dance-single:
     :
     Challenge:
     10:
     0.698311,0.680511,0.143770,0.135783,0.786741,577.000000,18.000000,17.000000,0.000000,0.000000,2.000000,0.698311,0.680511,0.143770,0.135783,0.786741,577.000000,18.000000,17.000000,0.000000,0.000000,2.000000:
// measure 0
0000
0000
0000
0000
,  // measure 1
0000
0000
0000
0000
,  // measure 2
0000
0000
0000
0000
,  // measure 3
0000
0000
0000
0000
,  // measure 4
0000
0000
0000
0000
,  // measure 5
0001
0001
0000
0001
0001
0010
0100
0000
,  // measure 6
1000
0001
0100
0000
0010
1000
0100
0000
,  // measure 7
0010
0010
0000
0010
0010
0001
1000
0000
,  // measure 8
0010
0000
0110
0000
0010
1000
0002
0003
,  // measure 9
0001
0000
1000
0100
0000
1000
0000
0010
0000
0100
0000
0001
1000
0100
0010
0001
,  // measure 10
0100
0000
0010
1000
0000
0001
0000
0010
0000
0100
0000
0010
0001
0100
0010
1000
,  // measure 11
0001
0000
0100
0010
0000
1000
0000
0100
0000
0010
0000
0100
1000
0010
0100
0001
,  // measure 12
1000
0000
0001
0010
0000
1000
0000
0010
0000
0100
0000
0010
0001
1000
0001
1000
,  // measure 13
0010
0000
1000
0100
0000
0010
0000
0001
0000
1000
0000
0001
0100
0010
1000
0100
,  // measure 14
0010
0000
0100
1000
0000
0001
0000
0100
0000
1000
0000
0100
0010
1000
0100
0010
,  // measure 15
0001
0000
1000
0100
0000
0001
0000
0100
0000
1000
0000
0001
0100
0010
1000
0100
,  // measure 16
0010
0000
0001
0100
0000
0010
0000
1000
0000
0100
0000
0001
0100
1000
0010
1000
,  // measure 17
0001
0000
1000
0000
0010
0000
0000
0100
0000
0001
0100
0000
0000
0000
0001
0000
,  // measure 18
0000
0000
1000
0000
0100
0000
0000
0010
0000
0001
0010
0000
0400
0000
0000
0000
,  // measure 19
1300
0000
1000
0000
0001
0000
0000
0010
0000
0100
0010
0000
0001
1000
0000
0001
,  // measure 20
0100
0000
0100
0000
0010
0000
0000
0010
1000
0000
0001
0100
0001
0000
1000
0010
,  // measure 21
1000
0000
1000
0000
0001
0000
0000
0010
0000
0100
0010
0000
0000
0000
0001
0000
,  // measure 22
0000
0000
0001
0000
1000
0000
0000
1000
0010
1000
0010
0000
0400
0000
0000
0000
,  // measure 23
0301
0000
0001
0000
0010
0000
0000
0100
0000
1000
0100
0000
0010
0001
0000
0001
,  // measure 24
1000
1000
0001
0100
0110
0000
1001
0000
,  // measure 25
1000
0000
0100
0000
0010
0000
0001
0100
0000
0100
0010
0000
1000
0000
0001
0000
,  // measure 26
1000
0000
0100
0000
0001
0000
0100
1000
0000
1000
0001
0000
0100
0000
0010
0000
,  // measure 27
1000
0000
0100
0000
0010
0000
0100
1000
0000
1000
0001
0000
0100
0000
1000
0000
,  // measure 28
0100
0000
0001
0100
0000
0100
0010
1000
0000
1000
0001
0010
0100
0000
0010
0100
,  // measure 29
1000
0000
0001
0000
0010
0000
1000
0010
0000
0010
0100
0000
1000
0000
0001
0000
,  // measure 30
0100
0000
0001
0000
0010
0000
0001
0100
0000
0100
0010
0000
1000
0000
1001
0000
,  // measure 31
0001
0000
0010
0000
1000
0000
0010
0100
0000
0100
0010
0000
0001
0000
1000
0000
,  // measure 32
0010
0000
0001
0010
0000
0010
1000
0001
0000
0010
0100
1000
0001
0100
0001
0100
,  // measure 33
0010
0000
1000
0100
1000
0000
1000
0001
0000
0010
0000
0100
1000
0000
0001
0000
,  // measure 34
1000
0000
0001
0100
0001
0000
0001
1000
0000
0100
0000
0010
0001
0000
1000
0000
,  // measure 35
0001
0000
0100
0010
0100
0000
0100
0001
0000
0010
0000
0100
1000
0000
0001
0000
,  // measure 36
1000
0000
0010
0100
0010
0000
0010
1000
0000
0100
0000
0010
0001
1000
0001
1000
,  // measure 37
0010
0000
0100
0001
1000
0000
0100
0010
0000
0001
1000
0010
0100
0000
0001
0000
,  // measure 38
1000
0000
0100
1000
0001
0000
0100
0010
0000
1000
0100
0010
0001
0000
1000
0000
,  // measure 39
0201
0000
0310
1000
1100
0100
0020
0000
,  // measure 40
0031
0010
0100
1000
0101
0000
0000
0000
,  // measure 41
0010
0000
0000
1000
0100
0000
0000
1000
0001
0010
0100
0000
0010
0000
0001
0000
,  // measure 42
1000
0000
0000
0001
0100
0000
0000
0001
0010
0100
1000
0000
0001
0000
1000
0000
,  // measure 43
0010
0000
0000
0100
0001
0000
0000
1000
0001
0010
0100
0000
1000
0000
0001
0000
,  // measure 44
0100
0000
0000
0010
1000
0000
0000
0100
1000
0001
0010
0000
0100
0000
0010
0000
,  // measure 45
0001
0000
0000
0001
1000
0000
0000
1000
0010
0000
0100
0000
0001
0000
1000
0000
,  // measure 46
0001
0000
0000
0001
0010
0000
0000
0010
1000
0000
0010
0000
0001
0000
1000
0000
,  // measure 47
1020
0031
0021
1030
,  // measure 48
1020
0000
0000
0000
0031
0000
0010
0000
0100
0000
0100
0000
0001
1000
0001
1000
,  // measure 49
0100
0000
1000
0001
0100
0000
0001
1000
0100
0000
1000
0001
0100
0000
0001
0000
,  // measure 50
1000
0010
0001
0010
2000
0000
3200
0000
,  // measure 51
0310
0000
0001
1000
0100
0000
1000
0001
0100
0000
0100
0000
0010
0000
1000
0000
,  // measure 52
0001
0010
1000
0010
0001
0000
1001
0000
,  // measure 53
0012
0000
0000
0000
0013
0000
0100
0000
1000
0001
1000
0000
0010
0000
0100
0000
,  // measure 54
0102
0000
0000
0000
1003
0000
0001
0000
0010
0100
0010
0000
0001
0000
1000
0000
,  // measure 55
0010
0100
0001
1000
0001
0010
0100
0000
,  // measure 56
2002
3003
0000
0000
,  // measure 57
0001
0000
0100
0010
0000
0010
1000
0000
0001
0000
1000
0100
0010
0001
0100
0010
,  // measure 58
1000
0000
0000
0000
,  // measure 59
1001
0000
0002
0010
0000
1003
0100
0000
1000
0000
0010
1000
0100
0010
0001
0100
,  // measure 60
0010
0000
0000
1001
0000
0000
0110
0000
1000
0100
0010
0001
2000
0000
0000
0000
,  // measure 61
3001
0000
0100
0010
0100
0001
1000
0000
0100
0000
0010
0001
0010
0100
1000
0000
,  // measure 62
0001
0000
0100
0010
1000
0010
0100
0000
0001
0000
1000
0100
0010
0001
1000
0000
,  // measure 63
0001
0000
0100
1000
0100
0010
1000
0000
0100
0000
0001
0100
0010
0001
1000
0000
,  // measure 64
0001
0000
0010
1000
0010
0001
1000
0100
0020
0000
0000
0000
0130
0000
0000
0000
,  // measure 65
1002
0000
0103
0001
1000
0010
0100
0000
0001
0000
0100
0001
0010
0100
1000
0000
,  // measure 66
0001
0000
1000
0100
0010
0100
1000
0000
0010
0000
0100
0001
0010
0100
1000
0000
,  // measure 67
0001
0000
1000
0010
0001
0010
1000
0000
0001
0000
0010
0100
1000
0010
0100
0000
,  // measure 68
0001
0000
1000
0100
0001
0100
1000
0000
0001
0100
1000
0100
0001
0010
0100
1000
,  // measure 69
0020
0000
0000
0000
,  // measure 70
0000
0000
0000
0000
,  // measure 71
0030
0000
0000
0000
;

//---------------dance-single - ----------------
#NOTES:
     dance-single:
     :
     Medium:
     7:
     0.439297,0.453674,0.207668,0.319489,0.051917,319.000000,26.000000,40.000000,0.000000,0.000000,0.000000,0.439297,0.453674,0.207668,0.319489,0.051917,319.000000,26.000000,40.000000,0.000000,0.000000,0.000000:
// measure 0
0000
0000
0000
0000
,  // measure 1
0000
0000
0000
0000
,  // measure 2
0000
0000
0000
0000
,  // measure 3
0000
0000
0000
0000
,  // measure 4
0000
0000
0000
0000
,  // measure 5
0001
0001
0000
0001
0001
1000
0010
0000
,  // measure 6
1000
0001
0010
0000
0001
1000
0100
0000
,  // measure 7
1000
1000
0000
1000
1000
0001
0100
0000
,  // measure 8
0110
0000
0000
1002
,  // measure 9
0013
0100
0010
0000
0001
0100
0010
0000
,  // measure 10
0100
0001
0100
0000
0010
1000
0001
0000
,  // measure 11
0010
0100
0010
0000
0001
1000
0001
0000
,  // measure 12
0100
0010
0100
0000
0020
1000
1000
1030
,  // measure 13
0001
1000
0100
0000
1000
0001
0010
0000
,  // measure 14
0001
0100
0010
0000
1000
0100
0010
0000
,  // measure 15
0001
1000
0100
0000
1000
0001
0100
0000
,  // measure 16
0010
1000
0100
0000
0020
0001
0001
0031
,  // measure 17
1000
1000
0000
0000
0000
0000
0000
0000
,  // measure 18
0001
0001
0000
0000
0100
0100
0000
0000
,  // measure 19
0010
0010
0000
0000
0000
0000
0000
0000
,  // measure 20
1000
1000
0000
0000
0001
0001
0000
0000
,  // measure 21
0010
0010
0000
0000
0000
0000
0000
0000
,  // measure 22
0100
0100
0000
0000
1000
1000
0000
0000
,  // measure 23
0010
0010
0000
0000
0000
0000
0000
0000
,  // measure 24
0100
0100
0000
0000
0002
0003
0000
0000
,  // measure 25
1000
0000
0001
1000
0001
0010
0000
0100
,  // measure 26
0000
0100
0000
1000
0002
0000
0103
0000
,  // measure 27
0010
0000
1000
0001
1000
0100
0000
0010
,  // measure 28
0000
0010
0000
0001
2000
0000
3010
0000
,  // measure 29
0100
0000
0001
0010
0100
0010
0000
0001
,  // measure 30
0000
0001
0000
1000
0020
0000
0130
0000
,  // measure 31
0001
0000
1000
0100
0010
0100
0000
1000
,  // measure 32
0000
1000
0000
0001
0200
0000
0310
0000
,  // measure 33
1001
0000
0000
0000
1000
0000
0000
0001
0000
1000
0000
0000
0100
0000
0000
0000
,  // measure 34
0110
0000
0000
0000
0001
0000
0000
1000
0000
0001
0000
0000
0100
0000
0000
0000
,  // measure 35
0101
0000
0000
0000
0010
0000
0000
1000
0000
0001
0000
0000
1000
0000
0000
0000
,  // measure 36
1100
0000
0000
0000
0010
0000
0000
0001
0000
1000
0000
0000
0002
0000
0000
0000
,  // measure 37
0103
0000
0000
0000
0010
0000
0000
1000
0000
0100
0000
0000
0020
0000
0000
0000
,  // measure 38
0031
0000
0000
0000
1000
0000
0000
0001
0000
0100
0000
0000
0010
0000
1000
0000
,  // measure 39
2020
3030
0202
0303
,  // measure 40
1000
0001
1000
0001
0100
0000
0000
0000
,  // measure 41
0001
0010
0100
0000
0010
0100
0000
1000
,  // measure 42
0100
0010
0001
1000
0010
0000
0101
0000
,  // measure 43
1000
0100
0010
0000
0100
0010
0000
0001
,  // measure 44
0100
0010
1000
0001
0010
0000
0110
0000
,  // measure 45
2100
0000
0001
0000
3010
0100
0001
1000
,  // measure 46
0200
0000
0010
0000
1300
0001
0100
0010
,  // measure 47
1020
0130
0021
0130
,  // measure 48
1100
0101
0011
1010
,  // measure 49
1001
0000
0001
0000
1000
0100
0010
0000
,  // measure 50
0001
0010
0100
0010
0002
0000
1003
0000
,  // measure 51
0101
0000
0001
0000
0100
0010
0000
1000
,  // measure 52
0001
0010
0100
0010
0001
0000
0011
0000
,  // measure 53
2100
0000
3010
0100
0010
0000
1000
0100
,  // measure 54
0020
0001
0230
0001
,  // measure 55
2300
0000
3010
0100
0200
0000
0310
0000
,  // measure 56
1001
0000
0000
0000
,  // measure 57
0002
0000
0010
0000
1003
0001
0100
0000
,  // measure 58
0110
0000
0000
0000
,  // measure 59
2000
0000
0010
0000
3001
1000
0100
0000
,  // measure 60
0010
0000
0000
0010
0000
0000
0010
0000
0100
0000
0000
0000
1001
0000
0000
0000
,  // measure 61
0001
0100
0200
0000
0310
1000
0002
0000
,  // measure 62
0013
0100
0200
0000
1300
0001
0020
0000
,  // measure 63
0031
0100
0200
0000
0310
1000
0200
0000
,  // measure 64
0310
0001
2000
0000
3010
0100
0110
0000
,  // measure 65
1001
0001
0100
0000
0010
1000
0002
0000
,  // measure 66
0013
0001
0200
0000
0310
1000
0200
0000
,  // measure 67
0310
0100
2000
0000
3001
0010
0200
0000
,  // measure 68
0310
0001
0200
0000
0301
1000
0001
0010
,  // measure 69
0200
0000
0000
0000
,  // measure 70
0000
0000
0000
0000
,  // measure 71
0300
0000
0000
0000
;

//---------------dance-single - ----------------
#NOTES:
     dance-single:
     :
     Easy:
     4:
     0.302373,0.368610,0.231629,0.199681,0.000000,211.000000,29.000000,25.000000,0.000000,0.000000,0.000000,0.302373,0.368610,0.231629,0.199681,0.000000,211.000000,29.000000,25.000000,0.000000,0.000000,0.000000:
// measure 0
0000
0000
0000
0000
,  // measure 1
0000
0000
0000
0000
,  // measure 2
0000
0000
0000
0000
,  // measure 3
0000
0000
0000
0000
,  // measure 4
0000
0000
0000
0000
,  // measure 5
1000
0000
1000
0001
,  // measure 6
0010
0001
0100
0010
,  // measure 7
1000
0000
1000
0001
,  // measure 8
0010
0000
0000
0200
,  // measure 9
1300
0100
1000
0001
,  // measure 10
0100
0010
1000
0000
,  // measure 11
0001
0010
0100
1000
,  // measure 12
0001
0010
0001
2000
,  // measure 13
3001
0100
0010
1000
,  // measure 14
0100
1000
0002
0003
,  // measure 15
1000
0100
1000
0001
,  // measure 16
0010
0100
1000
0002
,  // measure 17
1003
0000
0000
0000
,  // measure 18
0001
0000
0100
0000
,  // measure 19
0010
0000
0000
0000
,  // measure 20
1000
0000
0100
0000
,  // measure 21
0020
0030
0000
0000
,  // measure 22
0001
0000
1000
0000
,  // measure 23
0020
0030
0000
0000
,  // measure 24
1000
0001
1001
0000
,  // measure 25
1000
0001
0100
0001
,  // measure 26
0010
0100
0010
0010
,  // measure 27
0001
0100
0001
1000
,  // measure 28
0010
0100
0010
0010
,  // measure 29
1000
0100
0010
0001
,  // measure 30
1000
0001
0100
0100
,  // measure 31
0001
0010
0100
1000
,  // measure 32
0001
1000
0010
0010
,  // measure 33
1010
0101
1000
0100
,  // measure 34
1100
0011
0001
1000
,  // measure 35
0101
1010
1000
0001
,  // measure 36
0011
1100
1000
0001
,  // measure 37
0101
0110
1001
1000
,  // measure 38
1100
0110
1001
0001
,  // measure 39
0012
0003
2100
3000
,  // measure 40
1002
0000
0103
0000
,  // measure 41
0010
1000
0002
0000
,  // measure 42
0013
0100
0010
0010
,  // measure 43
0001
0100
0020
0000
,  // measure 44
1030
0001
0100
0000
,  // measure 45
0010
0010
1000
0100
,  // measure 46
0010
0010
0001
0100
,  // measure 47
0220
0330
2002
3003
,  // measure 48
0110
1001
0110
1001
,  // measure 49
0001
0010
0100
1000
,  // measure 50
0010
0100
0020
0030
,  // measure 51
1000
0100
0010
0001
,  // measure 52
0100
0010
0100
0001
,  // measure 53
0021
0000
0130
1000
,  // measure 54
1020
0000
0130
0001
,  // measure 55
1002
0000
0013
0100
,  // measure 56
0110
0000
0000
0000
,  // measure 57
2000
0100
0001
3010
,  // measure 58
0200
0300
0000
0000
,  // measure 59
0002
0010
1000
0103
,  // measure 60
0020
0000
0130
1001
,  // measure 61
1000
0100
0001
0100
,  // measure 62
1000
0010
0001
0010
,  // measure 63
1000
0100
0001
0100
,  // measure 64
1000
0001
0020
0030
,  // measure 65
0001
0100
1000
0100
,  // measure 66
0001
0010
1000
0010
,  // measure 67
0001
0100
1000
0100
,  // measure 68
0001
0010
0100
1000
,  // measure 69
0020
0000
0000
0000
,  // measure 70
0000
0000
0000
0000
,  // measure 71
0030
0000
0000
0000
;

//---------------dance-single - ----------------
#NOTES:
     dance-single:
     :
     Beginner:
     1:
     0.135783,0.166534,0.015974,0.071885,0.000000,108.000000,2.000000,9.000000,0.000000,0.000000,0.000000,0.135783,0.166534,0.015974,0.071885,0.000000,108.000000,2.000000,9.000000,0.000000,0.000000,0.000000:
0000
0000
0000
0000
,
0000
0000
0000
0000
,
0000
0000
0000
0000
,
0000
0000
0000
0000
,
0000
0000
0000
0000
,
1000
0000
1000
0000
,
0000
0000
0000
0000
,
0001
0000
0001
0000
,
0000
0000
0000
0000
,
0010
0000
0000
0000
,
0001
0000
1000
0000
,
0010
0000
0000
0000
,
0100
0000
0001
0000
,
0100
0000
0000
0000
,
0010
0000
1000
0000
,
0001
0000
0000
0000
,
0010
0000
0100
0000
,
1000
0000
0000
0000
,
0001
0000
1000
0000
,
0001
0000
0000
0000
,
0010
0000
0100
0000
,
0010
0000
0000
0000
,
0001
0000
0100
0000
,
0001
0000
0000
0000
,
1000
0000
0100
0000
,
1000
0000
0000
0000
,
0100
0000
0010
0000
,
0001
0000
0000
0000
,
0010
0000
0001
0000
,
1000
0000
0000
0000
,
0010
0000
0100
0000
,
0001
0000
0000
0000
,
1000
0000
0001
0000
,
0010
0000
0000
0000
,
0001
0000
0000
0000
,
1000
0000
0000
0000
,
0010
0000
0000
0000
,
0100
0000
0100
0000
,
0001
0000
0001
0000
,
2000
3000
0002
0003
,
0020
0000
0130
0000
,
1000
0000
1000
0000
,
0001
0000
0000
0000
,
0100
0000
0100
0000
,
0010
0000
0000
0000
,
1000
0000
1000
0000
,
0001
0000
0001
0000
,
0020
0030
0200
0300
,
1000
0001
1000
0000
,
0001
0000
0100
0000
,
0010
0010
0010
0000
,
1000
0000
0001
0000
,
1000
1000
1000
0000
,
1001
0000
0001
0000
,
0010
0100
1000
0000
,
0010
0000
0100
0000
,
0110
0000
0000
0000
,
2000
0000
0000
0000
,
3001
0000
0000
0000
,
0002
0000
0000
0000
,
1003
0000
0000
0000
,
0001
0000
0001
0000
,
0100
0000
0100
0000
,
0010
0000
0010
0000
,
1000
0100
0020
0030
,
0001
0000
0001
0000
,
1000
0000
1000
0000
,
0010
0000
0010
0000
,
0100
0000
0100
0001
,
2000
0000
3000
0000
;
