#TITLE:(electron)(positron);
#SUBTITLE:;
#ARTIST:xaos.tek;
#TITLETRANSLIT:;
#SUBTITLETRANSLIT:;
#ARTISTTRANSLIT:;
#GENRE:;
#CREDIT:;
#BANNER:(electron)(positron)-bn.png;
#BACKGROUND:(electron)(positron)-bg.png;
#LYRICSPATH:;
#CDTITLE:12274193_1672431306361112_1864186863820496453_n.png;
#MUSIC:(electron)(positron).ogg;
#OFFSET:0.000;
#SAMPLESTART:84.094;
#SAMPLELENGTH:25.694;
#SELECTABLE:YES;
#BPMS:0.000=254.000,292.000=127.000,325.000=131.000,326.000=135.000,327.000=139.000,328.000=143.000,329.000=147.000,330.000=151.000,331.000=155.000,332.000=159.000,333.000=163.000,334.000=167.000,335.000=171.000,336.000=175.000,337.000=179.000,338.000=183.000,339.000=187.000,340.000=191.000,341.000=195.000,342.000=199.000,343.000=203.000,344.000=207.000,345.000=211.000,346.000=215.000,347.000=219.000,348.000=223.000,349.000=227.000,350.000=231.000,351.000=235.000,352.000=239.000,353.000=243.000,354.000=247.000,355.000=251.000,356.000=254.000;
#STOPS:;
#TIMESIGNATURES:0.000=4=4
;
#BGCHANGES:;
#KEYSOUNDS:;

//---------------dance-single - ----------------
#NOTES:
     dance-single:
     :
     Challenge:
     14:
     1.000,1.000,0.370,0.733,1.000,1056.000,47.000,93.000,1.000,0.000,0.000,1.000,1.000,0.370,0.733,1.000,1056.000,47.000,93.000,1.000,0.000,0.000: // measure 1
0000
0000
0000
0000
,  // measure 2
2002
3003
0000
0000
0000
0000
0000
0000
0000
0000
0000
0000
0000
0000
0000
0000
,  // measure 3
0000
0000
0000
0000
,  // measure 4
2002
3003
0000
0000
0000
0000
0000
0000
0000
0000
0000
0000
0001
1000
0001
1000
,  // measure 5
0001
0000
0100
0000
0010
0000
1000
0000
0001
0000
1000
0000
0100
0010
0100
0010
,  // measure 6
0100
0000
1000
0000
0001
0100
0001
0100
0001
0000
0000
0000
0010
0000
0001
1000
,  // measure 7
0001
0000
0100
0001
0200
0000
0000
0000
0310
0000
1000
0000
0001
0000
0000
0000
,  // measure 8
0101
0000
0100
0001
0100
0000
0001
0100
0002
0000
0000
0000
1003
0000
0100
0000
,  // measure 9
1000
0100
1000
0100
1000
0000
0000
0000
0001
0000
0000
0000
0000
0000
0010
0001
,  // measure 10
0010
0000
0100
0000
2000
0000
0000
0000
3002
0000
0000
0000
0103
0001
0100
0000
,  // measure 11
0002
0000
0000
0000
0000
0000
0000
0000
0000
0000
0000
0000
0000
0000
0000
0000
0000
0000
0000
0000
0000
0000
0000
0000
0203
0000
0000
0000
0000
0000
0000
0000
0000
0000
0000
0000
0000
0000
0000
0000
0000
0000
0000
0000
0000
0000
0000
0000
0320
0000
0000
0000
0000
0000
0000
0000
0000
0000
0000
0000
0000
0000
0000
0000
0000
0000
0000
0000
0000
0000
0000
0000
0230
0000
0000
0000
0000
0000
0000
0000
0000
0000
0000
0000
0000
0000
0000
0000
0000
0000
0000
0000
0000
0000
0000
0000
0302
0000
0000
0000
0000
0000
0000
0000
0000
0000
0000
0000
0000
0000
0000
0000
0000
0000
0000
0000
0000
0000
0000
0000
2003
0000
0000
0000
0000
0000
0000
0000
0000
0000
0000
0000
0000
0000
0000
0000
0000
0000
0000
0000
0000
0000
0000
0000
0200
0000
0000
0000
0000
0000
0000
0000
0000
0000
0000
0000
0000
0000
0000
0000
0000
0000
0000
0000
0000
0000
0000
0000
0000
0000
0000
0000
0000
0000
0000
0000
0000
0000
0000
0000
0000
0000
0000
0000
0000
0000
0000
0000
0000
0000
0000
3300
,  // measure 12
2200
0000
0000
0000
3300
0000
0000
0000
2000
0000
0000
0000
3001
0010
0001
0010
,  // measure 13
0001
0000
0010
0001
0010
0000
0001
0000
1000
0000
0000
0000
0001
0000
0000
0000
,  // measure 14
0202
0000
0000
0000
0000
0000
0303
0000
0100
0001
0100
0001
0100
0001
0100
0001
,  // measure 15
1000
0000
0100
0010
0100
0000
1000
0000
0000
0000
0001
0000
0000
0000
0100
0000
,  // measure 16
0110
0000
0000
0000
0010
0100
0010
1000
0001
0000
1000
0000
0100
0000
0010
0000
,  // measure 17
0011
0001
1001
1000
,  // measure 18
1010
0000
0010
0000
0110
0000
0100
0001
,  // measure 19
0101
0001
0011
0010
,  // measure 20
0110
0000
0000
0000
0100
0000
0000
0000
1100
0000
0100
1000
0100
0000
1000
0001
,  // measure 21
1000
0001
0101
0100
,  // measure 22
0110
0000
0000
0000
0010
0000
0000
0000
1000
0010
0100
0010
1000
0000
0001
0000
,  // measure 23
1000
0000
1000
0000
0100
0000
0000
0000
0100
0000
0010
0001
0010
0000
0001
0000
,  // measure 24
1000
0000
1000
0000
0010
1000
0010
1000
0001
0010
0100
1000
0001
0000
0010
0000
,  // measure 25
0100
1000
0100
0010
0100
1000
0100
0010
,  // measure 26
0001
1000
0010
0100
0001
1000
0100
M100
,  // measure 27
0001
1000
0010
1000
0001
1000
0010
1000
,  // measure 28
0001
0000
0010
0000
0100
0000
1000
0000
0001
0000
1000
0100
1000
0000
0001
0100
,  // measure 29
0001
1000
0010
1000
0001
1000
0010
1000
,  // measure 30
0001
0000
0100
0000
0001
0000
1000
0000
0001
0010
0100
0010
0001
0000
1000
0000
,  // measure 31
0001
0000
0001
0000
0200
0000
0000
0000
0310
0000
1000
0010
1000
0000
0001
0000
,  // measure 32
0010
0000
0010
0000
0001
1000
0100
0010
0001
0000
1000
0000
0010
0000
1000
0000
,  // measure 33
0001
0000
1000
0000
0100
0000
0010
0000
0001
0010
0100
0010
0001
0000
1000
0010
,  // measure 34
1000
0000
0001
0000
0100
0000
0010
0000
0100
0001
1000
0001
0100
0000
0010
1000
,  // measure 35
0010
0000
0100
0000
0001
0000
1000
0000
0100
0010
0001
0010
0100
0000
1000
0001
,  // measure 36
1000
0000
0010
0000
0100
0000
0010
0000
1000
0001
0010
0001
1000
0000
0010
0100
,  // measure 37
0010
0000
1000
0000
0001
0000
0010
0000
0100
1000
0001
0100
0010
0000
1000
0001
,  // measure 38
0100
0000
0001
0000
1000
0000
0100
0000
0010
0001
1000
0100
0010
0000
0001
1000
,  // measure 39
0010
0000
1000
0000
0001
0000
0010
0000
0001
1000
0010
0100
0001
0000
1000
0001
,  // measure 40
0010
0000
0001
1000
0001
0100
0010
0100
0001
1000
0010
1000
0001
0000
0001
0000
,  // measure 41
1000
0000
0100
0000
0010
0000
0001
0000
0100
0010
1000
0001
0010
0000
0100
1000
,  // measure 42
0010
0000
0100
0000
0001
0000
0010
0000
0001
1000
0100
0010
0001
0000
0010
0100
,  // measure 43
1000
0000
0001
0000
1000
0000
0100
0000
0010
0001
1000
0001
0010
0000
0100
1000
,  // measure 44
0001
0000
0100
0000
0010
0000
1000
0000
0001
0100
0001
0100
0001
0000
1000
0010
,  // measure 45
2000
0000
3002
0000
2003
3200
0320
0230
,  // measure 46
2300
0000
3002
0000
2003
0000
3002
0203
,  // measure 47
0320
0000
0000
0000
0000
0000
0000
0030
0000
0000
0000
0000
0000
0000
0000
0000
2000
0000
0000
0000
0000
0000
3000
0000
0000
0000
0000
0000
0000
0000
0000
0000
0200
0000
0000
0000
0000
0300
0000
0000
0000
0000
0000
0000
0000
0000
0000
0000
0020
0000
0000
0000
0030
0000
0000
0000
0000
0000
0000
0000
0000
0000
0000
0000
,  // measure 48
0002
0000
0000
0003
0000
0000
0000
0000
0000
0000
0000
0000
0000
0000
0000
0000
0000
0000
0000
0000
0000
0000
0000
0000
0000
0000
0000
0000
0000
0000
0000
0000
0000
0000
0000
0000
0000
0000
0000
0000
0100
0000
0000
0000
0010
0000
0000
0000
1000
0000
0000
0000
0000
0000
0000
0000
0001
0000
0000
0000
0000
0000
0000
0000
,  // measure 49
2002
0000
0000
0000
,  // measure 50
0000
0000
0000
0000
,  // measure 51
0000
0000
0000
0000
,  // measure 52
0000
0000
0000
0000
,  // measure 53
0000
0000
0000
0000
,  // measure 54
0000
0000
0000
0000
,  // measure 55
0000
0000
0000
0000
,  // measure 56
0000
0000
0000
0000
3003
0000
0000
0000
0001
1000
0001
1000
0010
0100
0001
1000
,  // measure 57
0100
0010
0001
0000
0011
0000
1001
0000
,  // measure 58
0001
1000
0100
1000
0001
0100
0010
1000
0001
0000
0000
0000
1000
0000
0010
0000
,  // measure 59
1010
0000
0000
0000
1000
0010
1000
0001
1000
0100
0010
0001
1000
0000
0001
0000
,  // measure 60
2000
3200
0320
0032
2003
3020
0230
0302
,  // measure 61
1003
0100
1000
0000
0001
0100
0001
0000
1000
0001
0010
0100
1000
0010
1000
0010
,  // measure 62
1000
0000
0001
0000
1000
0000
0010
1000
0001
1000
0100
0010
0001
1000
0010
1000
,  // measure 63
0002
0000
0023
0000
0230
0000
0320
0000
0031
1000
0001
0100
0010
0100
0001
1000
,  // measure 64
0100
0000
0010
0001
0010
0000
0001
1000
0001
0000
0100
0010
1000
0001
0100
0010
,  // measure 65
2000
0000
3020
0000
0230
0000
0302
0000
2003
0000
3200
0000
0310
0001
1000
0100
,  // measure 66
0020
0000
0000
0000
0002
0000
0000
0000
0000
0000
0000
0033
0001
0010
0001
0010
,  // measure 67
0001
0000
0000
1000
0000
0000
0010
0000
0000
0000
0000
0000
1000
0000
0000
1000
0000
0000
0001
0100
0001
0100
0000
0000
,  // measure 68
0001
1000
0010
1000
0001
0100
0010
1000
0001
1000
0100
0010
0001
1000
0001
0010
,  // measure 69
0100
0000
0000
0000
0000
0000
1000
0000
0100
0000
1000
0000
0100
0000
0000
0000
0000
0000
1000
0000
0000
0000
0000
0000
0001
0000
0000
0000
0000
0000
0100
0000
0000
0010
0000
0000
0100
0000
0000
0000
0000
0000
0001
0000
0000
0100
0000
0000
,  // measure 70
0001
1000
0100
0010
0100
1000
0001
1000
0020
0000
0000
0000
0130
0001
0100
0001
,  // measure 71
0200
0000
0302
0000
0023
0000
0032
0000
1003
0001
1000
0010
0100
0001
1000
0010
,  // measure 72
1000
0001
0100
0010
1000
0001
1000
0010
0100
0001
1000
0001
0010
0100
1000
0001
,  // measure 73
2000
0000
3200
0000
2300
0000
3200
0000
0310
0001
1000
0001
0010
0100
1000
0001
,  // measure 74
0010
0000
0001
0000
0101
0000
0000
0100
0000
0010
0000
1000
0010
0000
0000
1000
,  // measure 75
0100
0000
1000
0000
1001
0000
0000
0001
0000
0010
0000
0000
0011
0000
0001
0000
,  // measure 76
1000
0000
0100
1000
1100
0000
0000
1000
0100
0000
0010
0000
0011
0000
0001
0000
,  // measure 77
1001
0000
1000
0010
1010
0000
0000
1000
0000
0000
0001
0000
0101
0000
0000
0000
,  // measure 78
0100
0000
0001
0000
1001
0000
0000
1000
0000
0100
0000
0000
0110
0000
0000
0010
,  // measure 79
0001
0000
1000
0000
1010
0000
0000
0010
0100
0001
0000
0000
0101
0000
0100
0000
,  // measure 80
0001
0000
1000
0100
1100
0000
0000
1000
0010
0000
0100
0000
0110
0000
0010
0000
,  // measure 81
1010
0000
1000
0001
0011
0000
0000
0010
0100
0000
1000
0000
1001
0000
0000
0000
,  // measure 82
0001
0000
1000
0000
0100
0000
1000
0001
0100
0001
1000
0010
1000
0000
0001
0010
,  // measure 83
0100
0000
1000
0000
0001
0000
0010
0001
1000
0001
0010
0100
1000
0000
0001
0000
,  // measure 84
1000
0000
0010
1000
0001
0000
0100
0010
1000
0010
0100
0010
1000
0000
0001
1000
,  // measure 85
0100
0000
0010
0001
1000
0000
0100
0010
0001
0000
1000
0000
1001
0000
0000
0000
,  // measure 86
0001
0000
1000
0000
0010
0000
1000
0001
0010
0001
1000
0100
1000
0000
0001
0100
,  // measure 87
0010
0000
1000
0000
0001
0000
0100
0001
1000
0001
0100
0010
1000
0000
0001
0000
,  // measure 88
1000
0000
0100
1000
0001
0000
0010
0100
1000
0100
0010
0100
1000
0000
0001
1000
,  // measure 89
0010
0000
0100
0001
1000
0000
0010
0100
0001
0000
0100
0000
0010
0000
0100
0000
,  // measure 90
0001
1000
0100
1000
0001
1000
0100
1000
,  // measure 91
0002
0023
0230
0320
0032
1003
0020
2030
,  // measure 92
3002
0103
0010
0100
0001
0100
0010
1000
,  // measure 93
0100
0000
0010
0001
0010
0000
0001
1000
0002
0000
0000
0000
1003
0010
1000
0010
,  // measure 94
1000
0001
0100
0001
1000
0001
0010
0100
,  // measure 95
1000
0001
0000
1000
0001
0000
1000
0010
1000
0000
0001
0000
0010
0001
0010
0001
,  // measure 96
1000
0000
0000
0000
0001
1000
0000
0001
1000
0000
0001
1000
0000
0000
0000
0000
,  // measure 97
0010
0000
0000
1000
0000
0000
0010
0000
0000
1000
0000
0000
0001
0000
0100
0000
0001
0000
0100
0000
0000
0000
0000
0000
0001
0000
0100
0000
0001
0000
0100
0000
0000
0000
0000
0000
0001
0000
0000
0000
0000
0000
1000
0000
0000
0000
0000
0000
,  // measure 98
0100
0110
0010
0011
,  // measure 99
0001
0000
1001
0000
1000
0000
0010
0100
,  // measure 100
0001
1001
1000
1100
,  // measure 101
0100
0000
0010
0001
0010
0000
0100
1000
0100
0000
0000
0000
0010
0001
1000
0100
,  // measure 102
0010
0011
0001
0101
,  // measure 103
0100
0010
0000
0100
0001
0000
0100
0010
0100
0000
0000
0000
0001
0000
0100
0000
,  // measure 104
0010
2000
3001
2000
3010
2000
3001
0010
,  // measure 105
0100
1000
0100
0010
0001
1000
0100
0010
0100
1000
0001
0010
0001
1000
0010
1000
,  // measure 106
0001
0100
0010
0000
1000
0010
0100
0000
0001
0000
0000
0000
1000
0000
0001
0000
,  // measure 107
0010
0000
0100
0010
0001
0000
0010
0100
1000
0000
0100
0010
0001
0000
1000
0000
,  // measure 108
0002
0203
0320
0230
0302
0000
1003
1000
,  // measure 109
0001
0100
0001
0100
0001
0100
0001
0100
0002
0000
0000
0000
1003
0010
0100
0001
,  // measure 110
1000
0000
0100
1000
0100
0000
1000
0100
1000
0000
0001
0000
0010
0000
0100
0000
,  // measure 111
1000
0010
1000
0000
0010
1000
0100
1000
0001
0010
0100
0000
1000
0100
1000
0100
,  // measure 112
0010
0000
0000
0000
0001
0010
0100
0000
1000
0000
0001
0000
0010
0000
0000
0000
,  // measure 113
0001
0000
0000
1000
0000
0000
0001
0000
0000
1000
0000
0000
0001
0000
1000
0000
0001
0000
0000
0000
0000
0000
0000
0000
1000
0000
0001
0000
1000
0000
0000
0000
0000
0000
0000
0000
0001
0000
0000
0100
0000
0000
0001
0000
0000
0100
0000
0000
,  // measure 114
0010
0000
1000
0000
0100
0000
0000
0000
0010
0100
1000
0000
0001
0000
0100
0000
,  // measure 115
0202
0000
0303
0000
0202
0000
0303
0000
0001
0100
0010
0100
0001
1000
0100
0010
,  // measure 116
0001
0000
0010
0000
0001
0000
0000
0000
0000
0000
0000
0000
0010
0000
0000
0000
0000
0000
0010
0000
0000
0000
0000
0000
0001
0000
0000
1000
0000
0000
0100
0000
0000
0010
0000
0000
0001
0000
0000
1000
0000
0000
0010
0000
0000
1000
0000
0000
,  // measure 117
0002
0000
0103
0000
0002
0000
1003
0000
0001
0010
0001
1000
0001
0100
0010
1000
,  // measure 118
0100
0000
0000
0000
0000
0000
0010
0100
0010
0000
0000
0000
0001
0000
0000
1000
0000
0000
0010
0000
0000
0100
0000
0000
,  // measure 119
0001
0100
0001
0000
0100
0001
1000
0100
0010
0000
0001
0000
1000
0000
0001
0000
,  // measure 120
0100
0010
1000
0001
1000
0100
0010
0001
1000
0000
0001
0000
0010
0000
0100
0000
,  // measure 121
1000
0000
0000
0001
0000
0000
1000
0000
0000
0001
0000
0000
0100
0000
0001
0000
0100
0000
0001
0000
0000
0000
0000
0000
1000
0000
0001
0000
1000
0000
0001
0000
0000
0010
0000
0000
0100
0000
0000
0000
0000
0000
1000
0000
0000
0000
0000
0000
,  // measure 122
0001
0000
0000
0001
0000
0000
0001
0000
0000
0000
0000
0000
1000
0001
1000
0000
0000
0000
0100
0000
0000
0000
1000
0001
,  // measure 123
2000
0000
0000
3000
;

//---------------dance-single - ----------------
#NOTES:
     dance-single:
     :
     Hard:
     12:
     1.000,1.000,0.307,0.788,0.899,907.000,39.000,100.000,2.000,0.000,0.000,1.000,1.000,0.307,0.788,0.899,907.000,39.000,100.000,2.000,0.000,0.000: // measure 1
0000
0000
0000
0000
,  // measure 2
2002
3003
0000
0000
0000
0000
0000
0000
0000
0000
0000
0000
0000
0000
0000
0000
,  // measure 3
0000
0000
0000
0000
,  // measure 4
2002
0000
0000
3003
0000
0000
0000
0000
0000
0000
0000
0000
0000
0000
0000
0000
0000
0000
0000
0000
0000
0000
0000
0000
0000
0000
0000
0000
0000
0000
0000
0000
0000
0000
0000
0000
1000
0000
0000
0000
0001
0000
0000
0000
1000
0000
0000
0000
,  // measure 5
0001
0000
0000
0100
0000
0000
0010
0000
0000
1000
0000
0000
0001
0000
0000
1000
0000
0000
0100
0000
0010
0000
0100
0000
,  // measure 6
0010
0000
0000
0000
0000
0000
0001
0000
0000
0000
0000
0000
0100
0000
0000
0000
0001
0000
0000
0000
0100
0000
0000
0000
0001
0000
0000
0000
0000
0000
0000
0000
0000
0000
0000
0000
0010
0000
0000
0000
0000
0000
0001
0000
0000
1000
0000
0000
,  // measure 7
0001
0000
0100
0001
0200
0000
0000
0000
0310
0000
1000
0000
0001
0000
0000
0000
,  // measure 8
0001
0000
0100
0001
0100
0000
0001
0100
0002
0000
0000
0000
1003
0000
0100
0000
,  // measure 9
1000
0000
0000
0000
0100
0000
0000
0000
1000
0000
0000
0000
0100
0000
0000
0000
0000
0000
0000
0000
0000
0000
0000
0000
0020
0000
0000
0000
0000
0000
0000
0000
0000
0000
0000
0000
0000
0000
0000
0000
0000
0000
0000
0000
0000
0031
0000
0000
,  // measure 10
0010
0000
0100
0000
2000
0000
0000
0000
3002
0000
0000
0000
0103
0001
0100
0000
,  // measure 11
0002
0000
0000
0000
0000
0000
0000
0000
0000
0000
0000
0000
0000
0000
0000
0000
0000
0000
0000
0000
0000
0000
0000
0000
0203
0000
0000
0000
0000
0000
0000
0000
0000
0000
0000
0000
0000
0000
0000
0000
0000
0000
0000
0000
0000
0000
0000
0000
0320
0000
0000
0000
0000
0000
0000
0000
0000
0000
0000
0000
0000
0000
0000
0000
0000
0000
0000
0000
0000
0000
0000
0000
0230
0000
0000
0000
0000
0000
0000
0000
0000
0000
0000
0000
0000
0000
0000
0000
0000
0000
0000
0000
0000
0000
0000
0000
0302
0000
0000
0000
0000
0000
0000
0000
0000
0000
0000
0000
0000
0000
0000
0000
0000
0000
0000
0000
0000
0000
0000
0000
2003
0000
0000
0000
0000
0000
0000
0000
0000
0000
0000
0000
0000
0000
0000
0000
0000
0000
0000
0000
0000
0000
0000
0000
0200
0000
0000
0000
0000
0000
0000
0000
0000
0000
0000
0000
0000
0000
0000
0000
0000
0000
0000
0000
0000
0000
0000
0000
0000
0000
0000
0000
0000
0000
0000
0000
0000
0000
0000
0000
0000
0000
0000
0000
0000
0000
0000
0000
0000
0000
0000
3300
,  // measure 12
2200
0000
0000
3300
0000
0000
2000
0000
0000
3001
0010
0001
,  // measure 13
0010
0001
1000
0001
0100
0000
0001
0000
,  // measure 14
0202
0000
0000
0000
0000
0000
0000
0000
0000
0303
0000
0000
0100
0000
0001
0000
0100
0000
0001
0000
0100
0000
0001
0000
,  // measure 15
1000
0000
0100
1000
0100
0000
1000
0000
0000
0000
0001
0000
0000
0000
0100
0000
,  // measure 16
0110
0000
0000
0000
0000
0000
0010
0000
1000
0000
0001
0000
1000
0000
0000
0100
0000
0000
0010
0000
0000
0001
0000
0000
,  // measure 17
0011
0001
1001
1000
,  // measure 18
1010
0000
0010
0000
0110
0000
0100
0001
,  // measure 19
0101
0001
0011
0010
,  // measure 20
0110
0000
0000
0000
0100
0000
0000
0000
1000
0000
0100
1000
0100
0000
1000
0100
,  // measure 21
1000
0001
0101
0100
,  // measure 22
0110
0000
0000
0000
0000
0000
0100
0000
0000
0000
0000
0000
0010
0000
1000
0000
0001
0000
1000
0000
0000
0010
0000
0000
,  // measure 23
1000
0000
1000
0000
0100
0000
0000
0000
0100
0000
0010
0001
0010
0000
0001
0000
,  // measure 24
1000
0000
0000
1000
0000
0000
0001
0000
1000
0000
0100
0000
0010
0000
0001
0000
1000
0000
0001
0000
0000
0010
0000
0000
,  // measure 25
0100
1000
0100
0010
0100
1000
0100
0010
,  // measure 26
0001
1000
0010
0100
0001
1000
0100
M100
,  // measure 27
0001
1000
0010
1000
0001
1000
0010
1000
,  // measure 28
0001
0000
0010
0000
0100
0000
1000
0000
0001
0000
0100
0001
0100
0000
0001
0100
,  // measure 29
0001
1000
0010
1000
0001
1000
0010
1000
,  // measure 30
0001
0000
0000
0100
0000
0000
0001
0000
0000
1000
0000
0000
0001
0000
0010
0000
0001
0000
0010
0000
0000
0001
0000
0000
,  // measure 31
0100
0000
0010
0000
0200
0000
0000
0000
0310
0000
1000
0010
1000
0000
0001
0000
,  // measure 32
0010
0000
0000
0001
0000
0000
1000
0000
0100
0000
0010
0000
0001
0000
0000
1000
0000
0000
0010
0000
0000
1000
0000
0000
,  // measure 33
0001
0000
1000
0000
0100
0000
0010
0000
0001
1000
0001
1000
0001
0000
1000
0000
,  // measure 34
0010
0000
1000
0000
0001
0000
0010
0000
0001
0100
0001
0100
0001
0000
1000
0000
,  // measure 35
0010
0000
0100
0000
0001
0000
1000
0000
0100
0010
0100
0010
0100
0000
1000
0000
,  // measure 36
0001
0000
0100
0000
0010
0000
1000
0000
0001
1000
0001
1000
0001
0000
0100
0000
,  // measure 37
0001
0000
1000
0000
0001
0000
0010
0000
0001
0100
0001
0100
0010
0000
1000
0000
,  // measure 38
0100
0000
0010
0000
0001
0000
1000
0000
0010
1000
0010
1000
0001
0000
0010
0000
,  // measure 39
0001
0000
1000
0000
0100
0000
0010
0000
0001
0010
0001
0010
0100
0000
1000
0000
,  // measure 40
0010
0000
0000
1000
0000
0000
0001
0000
0010
0000
0100
0000
1000
0000
0100
0000
0010
0000
0001
0000
0000
0001
0000
0000
,  // measure 41
1000
0000
0100
0000
0010
0000
0001
0000
1000
0001
1000
0001
1000
0000
0100
1000
,  // measure 42
0100
0000
0010
0000
0001
0000
0010
0000
0001
0100
0001
0100
0001
0000
1000
0001
,  // measure 43
1000
0000
0001
0000
1000
0000
0100
0000
0010
0001
0010
0001
0010
0000
0100
1000
,  // measure 44
0100
0000
0010
0000
0001
0000
1000
0000
0001
0100
0001
0100
0001
0000
1000
0010
,  // measure 45
2000
0000
3002
0000
2003
3200
0320
0230
,  // measure 46
2300
0000
3002
0000
2003
0000
3002
0203
,  // measure 47
0320
0000
0000
0000
0000
0000
0000
0030
0000
0000
0000
0000
0000
0000
0000
0000
2000
0000
0000
0000
0000
0000
3000
0000
0000
0000
0000
0000
0000
0000
0000
0000
0200
0000
0000
0000
0000
0300
0000
0000
0000
0000
0000
0000
0000
0000
0000
0000
0020
0000
0000
0000
0030
0000
0000
0000
0000
0000
0000
0000
0000
0000
0000
0000
,  // measure 48
0002
0000
0000
0003
0000
0000
0000
0000
0000
0000
0000
0000
0000
0000
0000
0000
0000
0000
0000
0000
0000
0000
0000
0000
0000
0000
0000
0000
0000
0000
0000
0000
0000
0000
0000
0000
0000
0000
0000
0000
1000
0000
0000
0000
0010
0000
0000
0000
1000
0000
0000
0000
0000
0000
0000
0000
0002
0000
0000
0000
0000
0000
0000
0000
,  // measure 49
2000
0000
0000
0000
,  // measure 50
0000
0000
0000
0000
,  // measure 51
0000
0000
0000
0000
,  // measure 52
0000
0000
0000
0000
,  // measure 53
0000
0000
0000
0000
,  // measure 54
0000
0000
0000
0000
,  // measure 55
0000
0000
0000
0000
,  // measure 56
0000
0000
0000
3003
0000
0000
0001
1000
0010
1000
0001
0010
,  // measure 57
0100
0010
0001
0000
0011
0000
1001
0000
,  // measure 58
0001
0001
1000
1000
0001
0000
1000
0010
,  // measure 59
1000
0000
1000
0010
0100
0010
1000
0001
,  // measure 60
2000
3200
0320
0032
2003
3020
0230
0302
,  // measure 61
1003
0000
0000
0001
0000
0000
0010
0000
0000
0100
0000
0000
1000
0000
0000
0000
0000
0000
0001
0000
1000
0000
0001
0000
,  // measure 62
1000
0000
0000
0001
0000
0000
1000
0000
0000
0000
0000
0000
0001
0000
1000
0000
0100
0000
0010
0000
0001
0000
1000
0000
,  // measure 63
0002
0000
0000
0023
0000
0000
0230
0000
0000
0320
0000
0000
0031
0000
1000
0000
0001
0000
0100
0000
0010
0000
0100
0000
,  // measure 64
0002
0000
0003
0000
0002
0000
0003
0000
0002
0000
1003
0100
1000
0100
1000
0100
,  // measure 65
2000
0000
0000
3020
0000
0000
0230
0000
0000
0302
0000
0000
2003
0000
0000
3200
0000
0000
0310
0000
0001
0000
0010
0000
,  // measure 66
0002
0000
0000
0000
0000
0000
0000
0000
0000
0000
0000
0000
0020
0000
0000
0000
0000
0000
0000
0000
0000
0000
0000
0000
0000
0000
0000
0000
0000
0000
0000
0000
0000
0033
0000
0000
0010
0000
0000
0000
0001
0000
0000
0000
0010
0000
0000
0000
,  // measure 67
0001
0000
1000
0000
0010
0000
0000
0000
1000
0000
1000
0000
0001
0100
0001
0000
,  // measure 68
1000
0001
0010
0100
2000
3002
0203
0320
,  // measure 69
1030
0000
0100
1000
0100
0000
1000
0000
0001
0000
0100
0010
0100
0000
0001
0000
,  // measure 70
1000
0000
0100
0000
0010
0000
0001
0000
1000
0000
0100
0000
0010
0000
0000
0001
0000
0000
0100
0000
0001
0000
0100
0000
,  // measure 71
0001
0000
0000
0010
0000
0000
0001
0000
0000
0010
0000
0000
0001
0000
1000
0000
0001
0000
0100
0000
0001
0000
1000
0000
,  // measure 72
0100
0010
0100
1000
0001
1000
0010
0100
0001
1000
0100
0010
,  // measure 73
0002
0000
0023
0000
0032
0000
0023
0000
0031
1000
0001
1000
0001
1000
0001
1000
,  // measure 74
0001
0000
0100
0000
0101
0000
0000
0100
0000
0010
0000
1000
0010
0000
0000
1000
,  // measure 75
0100
0000
1000
0000
1001
0000
0000
0001
0000
0010
0000
0000
0011
0000
0001
0000
,  // measure 76
1000
0000
0100
1000
0100
0000
0000
1000
0100
0000
0010
0000
0011
0000
0001
0000
,  // measure 77
1001
0000
1000
0010
1000
0000
0000
1000
0000
0000
0001
0000
0101
0000
0000
0000
,  // measure 78
0100
0000
0001
0000
1001
0000
0000
1000
0000
0100
0000
0000
0110
0000
0000
0010
,  // measure 79
0001
0000
1000
0000
1010
0000
0000
0010
0100
0001
0000
0000
0101
0000
0100
0000
,  // measure 80
0001
0000
1000
0100
1000
0000
0000
1000
0010
0000
0100
0000
0110
0000
0010
0000
,  // measure 81
1010
0000
1000
0001
0010
0000
0000
0010
0100
0000
1000
0000
1001
0000
0000
0000
,  // measure 82
0001
0000
1000
0000
0100
0000
1000
0001
0010
0001
1000
0001
0010
0000
0100
1000
,  // measure 83
0100
0000
1000
0000
0001
0000
0100
0001
1000
0001
0100
0001
1000
0000
0001
0000
,  // measure 84
1000
0000
0010
1000
0010
0000
0100
0010
1000
0010
0100
0010
1000
0000
0001
0010
,  // measure 85
0001
0000
1000
0100
1000
0000
0001
0010
0001
0000
1000
0000
1001
0000
0000
0000
,  // measure 86
1000
0000
0001
0000
0010
0000
0001
1000
0001
1000
0001
1000
0100
0000
0010
0001
,  // measure 87
0010
0000
0001
0000
1000
0000
0010
1000
0010
1000
0010
1000
0001
0000
1000
0000
,  // measure 88
0001
0000
0100
0001
0100
0000
0010
0100
0010
0100
0010
0100
0001
0000
1000
0100
,  // measure 89
1000
0000
0001
0100
0001
0000
1000
0000
0001
0000
0100
0000
0010
0000
0100
0000
,  // measure 90
0001
1000
0100
0010
,  // measure 91
0001
0010
0100
0010
0001
0000
1000
0001
,  // measure 92
1000
0001
1000
0010
,  // measure 93
1000
0000
0000
0020
0000
0000
1030
0000
0000
0020
0000
0000
1030
0000
0000
0000
0000
0000
0010
0000
1000
0000
0001
0000
,  // measure 94
1000
0001
1000
0100
,  // measure 95
1000
0000
0000
0001
0000
0000
0000
0000
0000
1000
0000
0000
0001
0000
0000
0000
0000
0000
1000
0000
0000
0001
0000
0000
0000
0000
0000
0000
0000
0000
0000
0000
0000
0000
0000
0000
0001
0000
0000
0000
0010
0000
0000
0000
0001
0000
0000
0000
,  // measure 96
1000
0000
0000
0000
0001
1000
0000
0001
1000
0000
0001
1000
0000
0000
0000
0000
,  // measure 97
0010
1000
0010
1000
0002
0000
0003
0000
0002
0000
0003
0000
0001
0000
1000
0000
,  // measure 98
0100
0110
0010
0011
,  // measure 99
0001
0000
1001
0000
1000
0000
0010
0100
,  // measure 100
0001
1001
1000
1100
,  // measure 101
0100
0000
0000
2000
0000
0000
3100
0000
0000
2000
0000
0000
3100
0000
0000
0000
0000
0000
1000
0000
0100
0000
0010
0000
,  // measure 102
0001
0011
0001
0101
,  // measure 103
0100
0010
0000
0100
0010
0000
0100
0010
0100
0000
0000
0000
0001
0000
0100
0000
,  // measure 104
0010
2000
3001
2000
3010
2000
3001
0010
,  // measure 105
0001
1000
0010
1000
0001
0010
0100
1000
0100
0010
0001
1000
,  // measure 106
0001
2000
3001
2000
3001
0000
1000
0001
,  // measure 107
1000
0020
0130
0020
1030
0000
0001
1000
,  // measure 108
0002
0203
0320
0230
0302
0000
1003
1000
,  // measure 109
0001
0000
0000
0100
0000
0000
0001
0000
0000
0100
0000
0000
0002
0000
0000
0000
0000
0000
1003
0000
0001
0000
1000
0000
,  // measure 110
0001
1000
0001
0010
0001
1000
0100
M100
,  // measure 111
0001
0000
0000
1000
0000
0000
0001
0000
1000
0000
0001
0000
0010
0000
0100
0000
0010
0000
0001
0000
1000
0000
0001
0000
,  // measure 112
0100
0000
0000
0000
0000
0000
0001
0000
0010
0000
0001
0000
1000
0000
0000
0100
0000
0000
1000
0000
0000
0000
0000
0000
,  // measure 113
0001
0100
0001
1000
0000
0000
0001
0000
0000
0100
0001
1000
,  // measure 114
0001
0000
1000
0000
0100
0000
0000
0000
1000
0100
1000
0000
0001
0000
0100
0000
,  // measure 115
0202
0000
0000
0303
0000
0000
0202
0000
0000
0303
0000
0000
0001
0000
0100
0000
0010
0000
0100
0000
0001
0000
1000
0000
,  // measure 116
0001
0000
0000
0000
0000
0000
0010
0000
0000
0010
0000
0000
0001
0000
1000
0000
0100
0000
1000
0000
0001
0000
0010
0000
,  // measure 117
0002
0000
0000
0103
0000
0000
0002
0000
0000
1003
0000
0000
0001
0000
0010
0000
0100
0000
0010
0000
0001
0000
1000
0000
,  // measure 118
0001
0000
0020
0030
0001
1000
0010
0100
,  // measure 119
0001
0000
1000
0000
0010
0000
1000
0000
0001
0000
0100
0000
0001
0000
0000
1000
0000
0000
0001
0000
0000
0010
0000
0000
,  // measure 120
0100
0000
1000
0000
0001
0000
0100
0000
0010
0000
1000
0000
0010
0000
0000
0100
0000
0000
0001
0000
0000
0010
0000
0000
,  // measure 121
0001
0000
1000
0000
0001
0000
2000
0000
0000
3000
0000
0000
2000
0000
0000
3000
0000
0000
1000
0000
0001
0000
0100
0000
,  // measure 122
0001
0000
0010
0000
0001
0000
0000
0000
1000
0001
0000
0000
0010
0000
0000
0001
,  // measure 123
2000
0000
0000
3000
;

//---------------dance-single - ----------------
#NOTES:
     dance-single:
     :
     Medium:
     10:
     0.894,1.000,0.370,0.607,0.303,670.000,47.000,77.000,0.000,0.000,0.000,0.894,1.000,0.370,0.607,0.303,670.000,47.000,77.000,0.000,0.000,0.000: // measure 1
0000
0000
0000
0000
,  // measure 2
2002
3003
0000
0000
0000
0000
0000
0000
0000
0000
0000
0000
0000
0000
0000
0000
,  // measure 3
0000
0000
0000
0000
,  // measure 4
2002
0000
0000
3003
0000
0000
0000
0000
0000
0000
0000
0000
0000
0000
0000
0000
0000
0000
0000
0000
0000
0000
0000
0000
0000
0000
0000
0000
0000
0000
0000
0000
0000
0000
0000
0000
1000
0000
0000
0000
0001
0000
0000
0000
1000
0000
0000
0000
,  // measure 5
0001
0000
0100
0000
0001
0000
0000
0000
1000
0000
0000
0000
0001
0000
0000
0100
,  // measure 6
0001
0000
0000
0000
0100
0000
0001
0000
0100
0000
0000
0000
0000
0000
0000
0010
,  // measure 7
0100
0001
0200
0000
0310
1000
0001
0000
,  // measure 8
0011
0000
0010
0100
1000
0000
0100
0000
,  // measure 9
1000
0100
1000
0000
0002
0000
0000
0013
,  // measure 10
0100
2000
0000
0000
3002
0000
0103
0000
,  // measure 11
0002
0000
0000
0000
0000
0000
0000
0000
0000
0000
0000
0000
0000
0000
0000
0000
0000
0000
0000
0000
0000
0000
0000
0000
0203
0000
0000
0000
0000
0000
0000
0000
0000
0000
0000
0000
0000
0000
0000
0000
0000
0000
0000
0000
0000
0000
0000
0000
0320
0000
0000
0000
0000
0000
0000
0000
0000
0000
0000
0000
0000
0000
0000
0000
0000
0000
0000
0000
0000
0000
0000
0000
0230
0000
0000
0000
0000
0000
0000
0000
0000
0000
0000
0000
0000
0000
0000
0000
0000
0000
0000
0000
0000
0000
0000
0000
0302
0000
0000
0000
0000
0000
0000
0000
0000
0000
0000
0000
0000
0000
0000
0000
0000
0000
0000
0000
0000
0000
0000
0000
2003
0000
0000
0000
0000
0000
0000
0000
0000
0000
0000
0000
0000
0000
0000
0000
0000
0000
0000
0000
0000
0000
0000
0000
0200
0000
0000
0000
0000
0000
0000
0000
0000
0000
0000
0000
0000
0000
0000
0000
0000
0000
0000
0000
0000
0000
0000
0000
0000
0000
0000
0000
0000
0000
0000
0000
0000
0000
0000
0000
0000
0000
0000
0000
0000
0000
0000
0000
0000
0000
0000
3300
,  // measure 12
2200
0000
0000
3300
0000
0000
2000
0000
0000
3001
0010
0001
,  // measure 13
0010
0000
0000
0001
0010
0000
0001
0000
0000
0000
0000
0000
0100
0000
0000
0000
,  // measure 14
0202
0000
0000
0303
0100
0001
0100
0001
,  // measure 15
1000
0000
0000
0100
1000
0000
0001
0000
0000
0000
0100
0000
0000
0000
0010
0000
,  // measure 16
0100
0000
0000
0000
0000
0000
0010
0000
1000
0000
0001
0000
1000
0000
0000
0100
0000
0000
0010
0000
0000
0001
0000
0000
,  // measure 17
0010
0010
0001
0001
,  // measure 18
1000
0000
1000
0000
0001
0000
0100
0001
,  // measure 19
0100
0100
0001
0001
,  // measure 20
1000
0000
1000
0000
0001
0200
0301
0200
,  // measure 21
0301
0001
1000
1000
,  // measure 22
0001
0000
0001
0000
0010
0001
0010
0010
,  // measure 23
0001
0000
1000
0000
0100
0000
0000
0000
0010
0000
0001
1000
0001
0000
0010
0000
,  // measure 24
0100
1000
0100
0000
0010
0000
0100
1000
,  // measure 25
0100
1100
1000
1001
,  // measure 26
0001
0000
0101
0000
0100
0000
0010
1000
,  // measure 27
0010
1010
1000
1001
,  // measure 28
0001
0000
0011
0000
0001
2000
3001
2000
,  // measure 29
3001
0011
0010
0110
,  // measure 30
0100
0000
1100
0000
1000
0001
1000
0001
,  // measure 31
0100
0010
0200
0000
0310
1000
0001
1000
,  // measure 32
0010
1000
0002
0000
0013
0001
1000
0001
,  // measure 33
0010
0000
0001
0000
1000
0100
1000
0100
,  // measure 34
1000
0000
0001
0000
1000
0010
1000
0010
,  // measure 35
1000
0000
0001
0000
0010
0100
0010
0100
,  // measure 36
0010
0000
0001
0000
0100
0010
0100
0010
,  // measure 37
0100
0000
0001
0000
1000
0100
0010
0100
,  // measure 38
1000
0000
0001
0000
1000
0010
0100
0010
,  // measure 39
1000
0000
0001
0000
0010
0001
1000
0001
,  // measure 40
0100
0000
0001
0000
0100
0001
1000
0001
,  // measure 41
0010
0000
0001
1000
0100
0010
0001
0100
,  // measure 42
0010
0000
1000
0010
0100
0001
1000
0010
,  // measure 43
1000
0000
0001
1000
0100
1000
0001
1000
,  // measure 44
0100
0000
0010
0001
0010
0001
0010
0001
,  // measure 45
2000
0000
3002
0000
0203
0320
0230
0000
,  // measure 46
0302
0000
2003
0000
3200
0320
0230
0000
,  // measure 47
2300
0000
0000
0000
0000
0000
3000
0000
0000
0000
0000
0000
0200
0000
0000
0000
0000
0300
0000
0000
0000
0000
0000
0000
0020
0000
0000
0000
0030
0000
0000
0000
0000
0000
0000
0000
0002
0000
0000
0003
0000
0000
0000
0000
0000
0000
0000
0000
,  // measure 48
2000
3000
0000
0000
0000
0000
0000
0000
0000
0000
0000
0000
0000
0000
0000
0001
0000
0000
1000
0000
0000
0002
0000
0000
,  // measure 49
2000
0000
0000
0000
,  // measure 50
0000
0000
0000
0000
,  // measure 51
0000
0000
0000
0000
,  // measure 52
0000
0000
0000
0000
,  // measure 53
0000
0000
0000
0000
,  // measure 54
0000
0000
0000
0000
,  // measure 55
0000
0000
0000
0000
,  // measure 56
0000
0000
0000
3003
0000
0000
0001
1000
0001
1000
0001
1000
,  // measure 57
0001
0010
0001
0000
0011
0000
1001
0000
,  // measure 58
1000
0100
1000
0100
1000
0000
0001
0100
,  // measure 59
0001
0000
1000
0010
0100
0010
1000
0001
,  // measure 60
2000
3200
0320
0032
2003
3200
0320
0032
,  // measure 61
1003
0001
0010
0100
2000
0000
3002
0000
,  // measure 62
1003
0100
1000
0100
0010
0001
1000
0001
,  // measure 63
0100
0010
0100
0001
1000
0100
0010
0100
,  // measure 64
1000
0000
0000
0001
0000
0000
0100
0000
0000
0001
0000
0000
1000
0000
0100
0000
1000
0000
0100
0000
1000
0000
0100
0000
,  // measure 65
1000
0100
0010
0001
,  // measure 66
0020
0002
0033
0010
,  // measure 67
0001
0000
0001
0000
1000
0010
1000
0000
,  // measure 68
0001
0000
0100
0000
0010
0000
0000
0100
,  // measure 69
0001
0100
0000
0001
1000
0001
0000
1000
,  // measure 70
0010
1000
0001
1000
0010
1000
0001
0000
,  // measure 71
0010
0100
0010
0100
0010
0000
0001
0010
,  // measure 72
0001
1000
0100
0010
,  // measure 73
0002
0000
0000
0023
0000
0000
0032
0000
0000
0023
0000
0000
0031
0000
0100
0000
0001
0000
0100
0000
0001
0000
0100
0000
,  // measure 74
0001
0000
0100
0000
0101
0000
0000
0100
0000
0010
0000
0000
1010
0000
0000
1000
,  // measure 75
0100
0000
1000
0000
1001
0000
0000
0001
0000
0010
0000
0000
0011
0000
0001
0000
,  // measure 76
1000
0000
0100
1000
0100
0000
0000
1001
0000
0000
0001
0000
0011
0000
0000
0000
,  // measure 77
1001
0000
1000
0010
1000
0000
0000
1000
0000
0000
0001
0000
0101
0000
0000
0000
,  // measure 78
0100
0000
0001
0000
1001
0000
0000
1000
0000
0100
0000
0000
0110
0000
0000
0010
,  // measure 79
0001
0000
1000
0000
1010
0000
0000
0010
0100
0010
0000
0000
0110
0000
0100
0000
,  // measure 80
0001
0000
1000
0100
1000
0000
0000
1000
0010
0000
0100
0000
0110
0000
0010
0000
,  // measure 81
1010
0000
1000
0001
0010
0000
0000
0010
0100
0000
1000
0000
1001
0000
0000
0000
,  // measure 82
0001
0000
0100
0000
0001
0000
0000
1000
0001
0010
0001
0010
0001
0000
0000
0000
,  // measure 83
1000
0000
0100
0000
1000
0000
0000
0001
1000
0010
1000
0010
1000
0000
0000
0000
,  // measure 84
0001
0000
0010
0000
0001
0000
0000
1000
0001
0100
0001
0100
0001
0000
0000
0001
,  // measure 85
1000
0000
0000
1000
0100
0000
0000
0100
0010
0000
0001
0000
1000
0000
0000
0000
,  // measure 86
0001
0000
1000
0000
0010
1000
0010
0000
,  // measure 87
1000
0000
0001
0000
0010
0001
0010
0000
,  // measure 88
0001
0001
1000
1000
,  // measure 89
0001
1000
0010
1000
0001
1000
0010
0100
,  // measure 90
0001
1000
0100
0010
,  // measure 91
0001
0010
0001
0010
0001
0000
1000
0001
,  // measure 92
1000
0001
1000
0010
,  // measure 93
1000
0000
0000
0020
0000
0000
1030
0000
0000
0020
0000
0000
1030
0000
0000
0000
0000
0000
0010
0000
1000
0000
0010
0000
,  // measure 94
1000
0001
1000
0100
,  // measure 95
1000
0000
0000
1000
0000
0000
1000
0000
0000
0000
0000
0000
0001
0000
1000
0000
,  // measure 96
0001
0000
0000
0000
0001
0000
0000
0001
0000
0000
0001
0000
0000
0000
0000
0000
,  // measure 97
1000
0000
0010
0000
1000
0000
0002
0000
0000
0003
0000
0000
0002
0000
0000
0003
0000
0000
0001
0000
0000
1000
0000
0000
,  // measure 98
0001
0101
0000
1001
,  // measure 99
0000
1100
0000
0110
,  // measure 100
0010
0011
0000
1001
,  // measure 101
0000
0000
1010
0000
0000
0000
0010
0100
,  // measure 102
0001
1001
0000
1100
,  // measure 103
0000
0110
0000
0011
,  // measure 104
0001
2000
3001
2000
3010
2000
3001
0010
,  // measure 105
0001
0100
0001
0100
0001
0100
0002
0000
0000
0000
0000
0003
,  // measure 106
1000
0002
1003
0002
1003
0000
0001
0100
,  // measure 107
0001
0000
0100
0001
0000
0100
0001
0000
0100
0001
0000
0100
,  // measure 108
0001
0010
0001
0000
1000
0000
0010
0100
,  // measure 109
0010
1000
0100
0010
0100
0000
1000
0000
,  // measure 110
1001
0000
1001
0000
0001
1000
0001
1000
,  // measure 111
0001
0000
0011
0000
0010
0100
1000
0100
,  // measure 112
0010
0000
0001
0010
0001
1000
0001
0100
,  // measure 113
0010
0000
1000
0000
0001
0000
1000
0000
0000
0000
0000
0000
0001
0000
0000
0000
0000
0000
0010
0000
0000
0001
0000
0000
,  // measure 114
1000
0001
0100
0000
0001
1000
0001
0000
,  // measure 115
2002
3003
2002
3003
0001
0010
0100
1000
,  // measure 116
0100
0000
1000
0001
0100
0001
1000
0100
,  // measure 117
1000
0010
2000
3001
1000
0100
1000
0100
,  // measure 118
1000
0000
0200
0300
0010
0000
0001
0000
,  // measure 119
1000
0001
1000
0001
0000
0000
0100
0000
0000
0010
0000
0000
,  // measure 120
1000
0001
0010
0001
2000
0000
0000
0000
,  // measure 121
3010
1000
0010
1000
0000
0000
0001
0000
0000
0010
0100
0010
,  // measure 122
0100
0000
1000
0000
0001
0000
0000
0000
1000
0001
0000
0000
1000
0000
0000
0001
,  // measure 123
2000
0000
0000
3000
;

//---------------dance-single - ----------------
#NOTES:
     dance-single:
     :
     Easy:
     6:
     0.356,0.580,0.236,0.229,0.000,257.000,30.000,29.000,0.000,0.000,0.000,0.356,0.580,0.236,0.229,0.000,257.000,30.000,29.000,0.000,0.000,0.000: // measure 1
0000
0000
0000
0000
,  // measure 2
2002
3003
0000
0000
0000
0000
0000
0000
0000
0000
0000
0000
0000
0000
0000
0000
,  // measure 3
0000
0000
0000
0000
,  // measure 4
2002
3003
0000
0000
0000
0000
0000
0000
0000
0000
0000
0000
0000
0000
0000
0000
,  // measure 5
0001
0000
1000
0000
,  // measure 6
2002
3003
0000
0000
0000
0000
0000
0000
0000
0000
0000
0000
0000
0000
0000
0000
,  // measure 7
0010
0000
0100
0000
,  // measure 8
0220
0330
0000
0000
0000
0000
0000
0000
0000
0000
0000
0000
0000
0000
0000
0000
,  // measure 9
0010
0000
1000
0000
,  // measure 10
2200
3300
0000
0000
0000
0000
0000
0000
0000
0000
0000
0000
0000
0000
0000
0000
,  // measure 11
0010
0000
0001
0000
,  // measure 12
0202
0303
0000
0000
0000
0000
0000
0000
0000
0000
0000
0000
0000
0000
0000
0000
,  // measure 13
0100
0000
0010
0000
,  // measure 14
0220
0330
0000
0000
0000
0000
0000
0000
0000
0000
0000
0000
0000
0000
0000
0000
,  // measure 15
1000
0000
0001
0000
,  // measure 16
2002
3003
0000
0000
0000
0000
0000
0000
1000
0000
0000
0000
0000
0000
0000
0000
,  // measure 17
0001
0000
0001
0000
,  // measure 18
0001
0000
0000
0000
,  // measure 19
1000
0000
1000
0000
,  // measure 20
1000
0000
0000
0000
,  // measure 21
0100
0000
0100
0000
,  // measure 22
0100
0000
0000
0000
,  // measure 23
0010
0000
0010
0000
,  // measure 24
0010
0000
0010
0000
,  // measure 25
0001
0000
0010
0000
,  // measure 26
0001
0000
0000
0000
,  // measure 27
1000
0000
0100
0000
,  // measure 28
1000
0000
0000
0000
,  // measure 29
0001
0000
0100
0000
,  // measure 30
0001
0000
0000
0000
,  // measure 31
1000
0000
0010
0000
,  // measure 32
1000
0000
0010
0000
,  // measure 33
1000
0000
1001
0000
,  // measure 34
0001
0000
0101
0000
,  // measure 35
0100
0000
0110
0000
,  // measure 36
0010
0000
1010
0000
,  // measure 37
1000
0000
1100
0000
,  // measure 38
0100
0000
0110
0000
,  // measure 39
0010
0000
0011
0000
,  // measure 40
0001
0000
1001
0000
,  // measure 41
1000
0000
1010
0000
,  // measure 42
0010
0000
0110
0000
,  // measure 43
0100
0000
0101
0000
,  // measure 44
0001
0000
1001
0000
,  // measure 45
1000
0000
0100
0000
,  // measure 46
0010
0000
0001
0000
,  // measure 47
2000
0000
0000
0000
,  // measure 48
0000
0000
0000
0000
,  // measure 49
0002
0000
0000
0000
,  // measure 50
0000
0000
0000
0000
,  // measure 51
0000
0000
0000
0000
,  // measure 52
0000
0000
0000
0000
,  // measure 53
0000
0000
0000
0000
,  // measure 54
0000
0000
0000
0000
,  // measure 55
0000
0000
0000
0000
,  // measure 56
3003
0000
0001
1000
,  // measure 57
0001
0000
0001
0000
,  // measure 58
1000
0100
1000
0000
,  // measure 59
0001
0100
0001
0000
,  // measure 60
1000
0000
1000
0000
,  // measure 61
0001
0010
0001
0000
,  // measure 62
1000
0010
1000
0000
,  // measure 63
0001
0000
0001
0000
,  // measure 64
1000
0000
1000
0000
,  // measure 65
0100
0000
0100
0000
,  // measure 66
0010
0001
0000
0000
,  // measure 67
0001
0000
1000
0000
,  // measure 68
0001
0000
0100
0000
,  // measure 69
0010
0000
0010
0000
,  // measure 70
0100
0000
0100
0000
,  // measure 71
0001
0000
1000
0000
,  // measure 72
0001
0000
0001
0000
,  // measure 73
1000
0100
1000
0100
,  // measure 74
1000
0001
2000
0000
,  // measure 75
3010
0100
0020
0000
,  // measure 76
1030
0001
1000
1000
,  // measure 77
1001
1001
2002
3003
,  // measure 78
0001
1000
0002
0000
,  // measure 79
0103
0010
0200
0000
,  // measure 80
0301
1000
0001
0001
,  // measure 81
1001
1001
2002
3003
,  // measure 82
1000
0100
1000
1000
,  // measure 83
0001
0100
0001
0001
,  // measure 84
1000
0010
1000
1000
,  // measure 85
1001
1001
1001
1001
,  // measure 86
0001
0010
0001
0001
,  // measure 87
1000
0010
1000
1000
,  // measure 88
0001
0010
0001
0001
,  // measure 89
1000
0001
1000
0001
,  // measure 90
1000
0000
1000
0000
,  // measure 91
0001
0000
0001
0000
,  // measure 92
0100
0000
0100
0000
,  // measure 93
0010
0000
0010
0000
,  // measure 94
1000
0000
1000
0000
,  // measure 95
0001
0000
0001
0000
,  // measure 96
1000
0000
0100
0000
,  // measure 97
0010
0000
0001
0000
,  // measure 98
1000
0000
1000
0000
,  // measure 99
0001
0000
0001
0000
,  // measure 100
0100
0000
0100
0000
,  // measure 101
0010
0000
0010
0000
,  // measure 102
1000
0000
1000
0000
,  // measure 103
0001
0000
0001
0000
,  // measure 104
1000
0001
1000
0001
,  // measure 105
2000
0000
0000
0000
,  // measure 106
3001
1000
0001
0000
,  // measure 107
0100
0000
0100
0000
,  // measure 108
0010
1000
0010
1000
,  // measure 109
0010
0000
0010
0000
,  // measure 110
1000
0000
1000
0000
,  // measure 111
0001
0000
0001
0000
,  // measure 112
0010
0001
0010
0001
,  // measure 113
1000
0000
1000
0000
,  // measure 114
0001
0100
0001
0000
,  // measure 115
1000
0010
1000
0000
,  // measure 116
0001
0010
0001
0010
,  // measure 117
0100
1000
0100
0000
,  // measure 118
1000
0000
1000
0000
,  // measure 119
0001
0000
0001
0000
,  // measure 120
0100
0000
0100
0000
,  // measure 121
0010
0000
0010
0000
,  // measure 122
1000
0001
1000
0020
,  // measure 123
0200
0000
0000
0330
;

//---------------dance-single - ----------------
#NOTES:
     dance-single:
     :
     Beginner:
     3:
     0.188,0.242,0.024,0.047,0.000,158.000,3.000,6.000,0.000,0.000,0.000,0.188,0.242,0.024,0.047,0.000,158.000,3.000,6.000,0.000,0.000,0.000: // measure 1
0000
0000
0000
0000
,  // measure 2
1001
0000
0000
0000
,  // measure 3
0000
0000
0000
0000
,  // measure 4
1001
0000
0000
0000
,  // measure 5
0001
0000
0001
0000
,  // measure 6
0001
0000
0000
0000
,  // measure 7
1000
0000
1000
0000
,  // measure 8
1000
0000
0000
0000
,  // measure 9
0010
0000
0010
0000
,  // measure 10
0010
0000
0000
0000
,  // measure 11
0100
0000
0100
0000
,  // measure 12
0100
0000
0000
0000
,  // measure 13
0001
0000
0001
0000
,  // measure 14
0001
0000
0000
0000
,  // measure 15
1000
0000
1000
0000
,  // measure 16
1000
0000
1000
0000
,  // measure 17
2000
0000
0000
0000
,  // measure 18
3000
0000
0000
0000
,  // measure 19
0001
0000
0000
0000
,  // measure 20
0000
0000
0000
0000
,  // measure 21
0100
0000
0000
0000
,  // measure 22
0100
0000
0000
0000
,  // measure 23
0200
0000
0000
0000
,  // measure 24
0300
0000
0000
0000
,  // measure 25
0001
0000
0001
0000
,  // measure 26
0001
0000
0000
0000
,  // measure 27
1000
0000
1000
0000
,  // measure 28
1000
0000
0000
0000
,  // measure 29
0100
0000
0100
0000
,  // measure 30
0100
0000
0000
0000
,  // measure 31
0010
0000
0010
0000
,  // measure 32
0010
0000
0010
0000
,  // measure 33
0010
0000
0010
0000
,  // measure 34
0000
0000
0001
0000
,  // measure 35
0000
0000
1000
0000
,  // measure 36
0000
0000
0100
0000
,  // measure 37
0000
0000
0010
0000
,  // measure 38
0000
0000
0001
0000
,  // measure 39
0000
0000
1000
0000
,  // measure 40
0000
0000
0001
0000
,  // measure 41
0000
0000
0010
0000
,  // measure 42
0000
0000
0100
0000
,  // measure 43
0000
0000
1000
0000
,  // measure 44
0000
0000
0001
0000
,  // measure 45
0000
0000
0100
0000
,  // measure 46
0000
0000
0010
0000
,  // measure 47
0020
0000
0000
0000
,  // measure 48
0000
0000
0000
0000
,  // measure 49
0200
0000
0000
0000
,  // measure 50
0000
0000
0000
0000
,  // measure 51
0000
0000
0000
0000
,  // measure 52
0000
0000
0000
0000
,  // measure 53
0000
0000
0000
0000
,  // measure 54
0000
0000
0000
0000
,  // measure 55
0330
0000
0010
0000
,  // measure 56
0010
0000
0010
0000
,  // measure 57
0010
0000
0000
0000
,  // measure 58
1000
0000
0000
0000
,  // measure 59
1000
0000
0000
0000
,  // measure 60
0001
0000
0001
0000
,  // measure 61
0001
0000
0000
0000
,  // measure 62
1000
0000
0000
0000
,  // measure 63
1000
0000
0000
0000
,  // measure 64
0100
0000
0100
0000
,  // measure 65
0100
0100
0000
0000
,  // measure 66
1000
0000
0000
0000
,  // measure 67
1000
0000
0000
0000
,  // measure 68
0001
0000
0001
0000
,  // measure 69
0001
0000
0001
0000
,  // measure 70
0001
0000
0000
0000
,  // measure 71
1000
0000
0000
0000
,  // measure 72
0001
0000
0000
0000
,  // measure 73
0100
0000
0100
0000
,  // measure 74
0100
0000
0000
0000
,  // measure 75
0010
0000
0000
0000
,  // measure 76
1000
0000
0000
0000
,  // measure 77
0001
0001
0001
0000
,  // measure 78
1000
0000
0000
0000
,  // measure 79
0100
0000
0000
0000
,  // measure 80
0010
0000
0000
0000
,  // measure 81
0001
0001
0001
0000
,  // measure 82
1000
0000
0001
0000
,  // measure 83
1000
0000
0001
0000
,  // measure 84
1000
0000
0001
0000
,  // measure 85
1000
0000
0001
0000
,  // measure 86
1000
0000
0001
0000
,  // measure 87
1000
0000
0001
0000
,  // measure 88
1000
0000
0001
0000
,  // measure 89
1000
0000
0001
0000
,  // measure 90
1000
0000
1000
0000
,  // measure 91
1000
0000
0000
0000
,  // measure 92
0001
0000
0001
0000
,  // measure 93
0001
0000
0000
0000
,  // measure 94
1000
0000
0001
0000
,  // measure 95
1000
0000
0000
0000
,  // measure 96
0001
0000
1000
0000
,  // measure 97
0001
0000
0000
0000
,  // measure 98
0100
0000
0100
0000
,  // measure 99
0100
0000
0000
0000
,  // measure 100
0010
0000
0010
0000
,  // measure 101
0010
0000
0000
0000
,  // measure 102
0100
0000
0010
0000
,  // measure 103
0100
0000
0000
0000
,  // measure 104
0010
0000
0100
0000
,  // measure 105
0010
0000
0100
0000
,  // measure 106
0010
0000
0010
0000
,  // measure 107
0010
0000
0000
0000
,  // measure 108
1000
0000
0000
0000
,  // measure 109
0001
0000
0000
0000
,  // measure 110
1000
0000
1000
0000
,  // measure 111
1000
0000
0000
0000
,  // measure 112
0001
0000
0000
0000
,  // measure 113
0010
0000
0000
0000
,  // measure 114
0100
0000
0100
0000
,  // measure 115
0100
0000
0000
0000
,  // measure 116
1000
0000
0000
0000
,  // measure 117
0001
0000
0000
0000
,  // measure 118
1000
0000
1000
0000
,  // measure 119
1000
0000
0000
0000
,  // measure 120
0010
0000
0000
0000
,  // measure 121
0100
0000
0000
0000
,  // measure 122
0001
0000
1000
0000
,  // measure 123
2002
0000
0000
3003
;
