#TITLE:Light Up My Love;
#SUBTITLE:~from cytus~;
#ARTIST:Ani feat. Moco;
#TITLETRANSLIT:;
#SUBTITLETRANSLIT:;
#ARTISTTRANSLIT:;
#GENRE:;
#CREDIT:;
#BANNER:banner.png;
#BACKGROUND:background.png;
#LYRICSPATH:;
#CDTITLE:cdtitle.png;
#MUSIC:Cytus - Light Up My Love (Ani feat. Moco).ogg;
#OFFSET:-1.830000;
#SAMPLESTART:98.169998;
#SAMPLELENGTH:12.000000;
#SELECTABLE:YES;
#BPMS:0.000000=171.020004
;
#STOPS:42.500000=0.175000,
233.000000=0.175000,
233.500000=0.175000
;
#BGCHANGES:;
#KEYSOUNDS:;
#ATTACKS:;

//---------------dance-single - JunkoXXX 9(mid)----------------
#NOTES:
     dance-single:
     JunkoXXX 9(mid):
     Hard:
     9:
     0.688130,0.913769,0.573441,0.090112,0.192512,588.000000,518.000000,70.000000,11.000000,0.000000,0.000000,0.688130,0.913769,0.573441,0.090112,0.192512,588.000000,518.000000,70.000000,11.000000,0.000000,0.000000:
0000
0000
0000
0000
0000
0000
0000
0001
,
1000
0001
0000
1000
0000
0010
0000
0100
,
0000
0000
0001
0100
0001
0100
0001
1000
,
0010
0100
0000
0001
0000
0100
0000
0001
,
0000
0000
0000
1000
0001
1000
0001
1000
,
0000
0001
0000
0001
0000
0001
0000
0001
,
0000
0000
1000
0010
0200
0301
0010
0100
,
0000
1000
0000
0010
0010
0000
0100
0000
,
0001
0200
0300
0001
0000
0000
0000
0000
,
0000
2000
0000
0000
,
3010
0100
0001
1000
0100
1000
0001
1000
,
0010
0110
0101
1010
,
0000
1000
0001
0100
0001
0100
0010
0000
,
1010
0101
1010
1001
,
0000
0000
1000
0001
1000
0001
0100
0000
,
1100
0011
0110
1001
,
0000
0001
0100
1000
0100
0001
0100
0000
,
0010
0000
1000
0010
0000
0100
0000
0010
,
1000
0001
0000
1000
,
1100
0011
0101
1010
,
0000
0001
0100
0001
0100
0001
0000
0000
,
0110
1001
0110
1001
,
0000
0000
0001
0100
0010
1000
0100
0000
,
1010
0110
0101
1001
,
0000
1000
0001
1000
0001
1000
0001
0000
,
0100
0000
0000
0000
0010
0000
0110
0000
0000
0000
0001
0000
1000
0100
0010
0001
,
0100
0010
1000
0001
1000
0001
1000
0000
0000
0000
0000
0000
0000
0000
0000
0000
,
1000
0010
1000
0010
0000
0100
0000
0001
,
0100
0001
0100
0001
0000
0010
0000
0100
,
0010
0100
0010
0001
0000
0100
0000
0001
,
1000
0001
0110
1001
0110
1001
0000
0010
,
1000
0010
0100
0001
0000
0100
0000
0100
,
0010
1000
0001
1000
0000
1000
0000
0001
,
0100
1000
0100
0001
0000
0100
0010
1000
,
0001
0100
0110
1001
0110
1001
0000
0000
,
1000
0010
0100
0010
0000
1000
0000
0001
,
0100
0010
1000
0001
0000
0000
1000
0001
,
0100
0001
0100
0010
0000
0010
0000
0010
,
0000
0010
0000
0010
0000
0010
1000
0000
,
1000
0010
0100
0001
0000
0100
0100
0001
,
0010
0100
1000
0010
0000
0010
0100
0010
,
0100
0010
1000
0001
0000
0110
0000
0011
,
0000
0110
0000
0001
1000
0010
1000
0100
,
0010
0001
0100
0010
1000
0001
0100
0001
,
1000
0000
0000
0010
0000
0000
1000
0000
0100
0000
0010
0000
0001
0000
0000
0010
0000
0000
0100
0000
0000
0010
0000
0000
,
0001
1000
0001
0100
0010
1000
0100
0010
,
0100
0000
0000
0010
0000
0000
0100
0000
0020
0000
0130
0000
0010
0000
0000
1000
0000
0000
0010
0000
0000
0100
0000
0000
,
0010
1000
0010
0100
0000
0010
1000
0010
,
0100
0000
0000
0010
0000
0000
0100
0000
0010
0000
0100
0000
0010
0000
0000
0010
0000
0000
1000
0000
0000
0001
0000
0000
,
1000
0001
1000
0010
0100
0001
0010
0100
,
0020
0130
0002
2003
3200
0320
0031
0000
,
0011
0110
1100
0000
0110
0010
0000
1000
,
0000
0000
0000
0001
0000
0000
1000
0000
0100
0000
0010
0000
0001
0000
0100
0000
0010
0000
1000
0000
0000
0100
0000
0000
,
0010
0001
1000
0100
0010
0001
0100
0010
,
1000
0001
0100
0010
1000
0000
0001
0001
,
0001
0001
0001
0001
0000
1000
1000
1000
,
1000
1000
1000
1000
0000
0010
1000
0010
,
0100
0001
0100
0001
0100
0010
0000
0000
,
0000
0000
1000
0001
0100
0001
0101
0000
,
1000
0000
0010
0000
1010
0000
0000
0000
1010
0000
0000
0000
1000
0010
0100
0001
,
0010
0100
1000
0010
1000
0010
0100
0001
0100
0000
0000
0000
0001
0100
0001
0100
,
0000
0000
0010
0000
1000
0010
1000
0010
0000
0000
1000
0001
1000
0010
0100
0001
,
0010
0100
1000
0010
1000
0010
0000
0000
0100
0000
0001
0000
0101
0000
0000
0000
,
0010
0000
1000
0000
1010
0000
0000
0000
0000
0000
1000
0000
0001
0100
0001
0010
,
0100
1000
0010
1000
0010
0100
0001
0100
0001
0000
0000
0000
1000
0100
0010
0001
,
0000
0000
0001
0100
0010
1000
0000
0000
0000
0000
1000
0010
1000
0001
0100
0001
,
0010
0100
1000
0010
0100
0001
0100
0000
0101
0000
0001
0000
0101
0000
0001
0000
,
0101
0001
0101
0001
0101
0000
0000
1000
,
0001
0100
0010
1000
0001
0000
0110
0000
,
1010
1010
0110
1010
,
1000
0100
0001
0100
1000
0000
0110
0000
,
1001
0000
0011
0000
1100
0000
0000
0010
,
1000
0010
0100
0001
0100
0000
0101
0000
,
1010
1010
0000
0010
0000
0100
0001
0000
,
1000
0000
0000
0001
0000
1000
0100
0001
,
0100
1000
0000
1000
0000
0001
0100
1000
,
0100
0001
0000
1000
0000
1000
0001
1000
,
0001
0010
0000
0010
0000
0100
1000
0001
,
0101
0101
0101
0101
0000
1000
0010
1000
,
0010
1000
0000
1000
0000
1000
0001
0100
,
0001
0100
0000
0110
0000
1000
0001
1000
,
0001
0100
0000
0100
0000
0010
0100
0010
,
1001
1001
1001
2002
0000
3003
0000
0000
;

//---------------dance-single - JunkoXXX 6(high)----------------
#NOTES:
     dance-single:
     JunkoXXX 6(high):
     Medium:
     6:
     0.429496,0.607336,0.311297,0.040960,0.000000,367.000000,329.000000,38.000000,5.000000,0.000000,0.000000,0.429496,0.607336,0.311297,0.040960,0.000000,367.000000,329.000000,38.000000,5.000000,0.000000,0.000000:
0000
0000
0000
0000
0000
0000
0000
0001
,
0000
0000
0000
0001
0000
0000
0000
0001
,
0000
0000
0000
0000
0000
0000
0000
0100
,
0000
0000
0000
0100
0000
0000
0000
0100
,
0000
0000
0000
0000
0000
0000
0000
1000
,
0000
0000
0000
1000
0000
0000
0000
1000
,
0000
0000
0000
0000
0000
0000
0000
0001
,
0000
0000
0000
0100
0000
0000
0001
0000
,
0000
0000
2000
0000
,
0000
0000
0000
0000
,
0000
0000
0000
0000
0000
3001
0000
0000
,
0100
0100
0100
0100
,
0000
0100
0010
0100
0010
0100
0010
0000
,
1000
1000
1000
1000
,
0000
0000
1000
0010
1000
0010
1000
0000
,
0001
0001
0001
0001
,
0000
1000
0010
0100
0001
0100
0001
0000
,
0001
0000
1000
0000
0000
0010
0000
0100
,
0001
2000
0000
3010
,
0100
0010
0100
0010
,
0000
0100
0010
0100
0010
0100
0010
0000
,
1000
0001
1000
0001
,
0000
0000
0001
1000
0001
1000
0001
0000
,
0001
0010
0100
1000
,
0000
0001
0100
0010
1000
0100
0010
0000
,
0010
0000
0001
0100
0000
0010
0000
1000
,
0100
0020
0000
0030
,
1001
0000
1001
0000
,
1001
0000
1001
0000
,
0110
0000
0110
0000
,
0110
0000
0010
0100
0010
0100
0000
0000
,
0011
0000
0011
0000
,
0011
0000
0011
0000
,
1100
0000
1100
0000
,
1100
0000
1000
0100
1000
0100
0000
0000
,
0000
0000
0010
0100
0010
0000
0010
0000
,
0100
0000
0001
1000
0000
0000
0010
0000
,
0100
0000
0001
0000
0010
0010
0000
0010
,
0000
0010
0000
0010
0000
0000
0100
0000
,
0010
0000
0001
1000
0000
0000
0010
0000
,
0100
0000
0001
1000
0000
0010
0000
1000
,
0001
1000
0000
0000
1000
0010
0000
0010
,
0000
0010
0000
0010
0000
0000
0100
0000
,
0000
0010
0010
0000
1000
0001
0000
0100
,
0000
0010
0010
0000
1000
0001
0100
0000
,
0000
0010
1000
0000
0001
0100
0000
0100
,
0000
0010
1000
0000
0001
0100
0001
0000
,
0000
0100
0100
0000
0100
0010
0000
1000
,
0000
0001
0100
0000
0001
0100
0001
0000
,
0000
1000
0001
0000
0100
0010
0000
0200
,
0000
0000
0000
0000
0000
0300
0001
0000
,
0000
0001
0001
0000
0010
0100
0000
1000
,
0000
0001
0001
0000
0010
0100
1000
0000
,
0000
0001
0010
0000
0100
1000
0000
1000
,
0000
0001
0010
0000
0100
1000
0100
1000
,
0100
1000
0100
1000
0000
0000
0010
0100
,
0010
0100
0010
0100
0000
0000
0001
0100
,
0001
0100
0001
0100
0001
2000
0000
0000
,
0000
0000
3001
0001
0000
0000
1000
0000
,
1000
0000
1000
0000
1000
0000
0000
0100
,
0010
0100
0010
0100
0000
0000
0001
0000
,
0001
0001
0001
0000
,
1000
0010
0100
0001
1000
0000
0001
0000
,
1000
0001
1000
0000
,
0010
0100
0010
0100
0010
0000
1000
0000
,
1010
1000
0001
0000
0100
0100
0001
0000
,
1000
0000
0000
0000
1000
0010
0100
0001
,
1000
0100
0010
0001
0100
0000
0000
0000
,
0001
1000
0001
1000
0001
0000
1001
0000
,
0110
1001
0110
0000
,
1000
0010
0100
0001
1000
0000
1010
0000
,
1010
1010
1010
0000
,
1000
0010
1000
0010
0100
0000
0001
0000
,
0100
0000
0100
0010
1000
0010
0100
0000
,
0001
0000
0000
0001
0000
0001
1000
0001
,
1000
0000
0000
1000
0000
0010
1000
0010
,
1000
0010
0000
0010
0000
0100
0001
0100
,
0001
0100
0000
0100
0000
0010
1000
0010
,
1010
1010
1010
1010
0000
0000
1001
0000
,
0000
0110
0000
1010
,
0000
0011
0000
1001
,
0000
0110
0000
1001
,
0110
1001
0110
1001
0000
0000
0000
0000
;

//---------------dance-single - JunkoXXX 4(low)----------------
#NOTES:
     dance-single:
     JunkoXXX 4(low):
     Easy:
     4:
     0.290232,0.472372,0.122880,0.040960,0.000000,248.000000,233.000000,15.000000,5.000000,0.000000,0.000000,0.290232,0.472372,0.122880,0.040960,0.000000,248.000000,233.000000,15.000000,5.000000,0.000000,0.000000:
0000
0000
0000
0000
0000
0000
0000
0001
,
0000
0000
0000
0000
0000
0000
0000
0001
,
0000
0000
0000
0000
0000
0000
0000
1000
,
0000
0000
0000
0000
0000
0000
0000
1000
,
0000
0000
0000
0000
0000
0000
0000
0010
,
0000
0000
0000
0000
0000
0000
0000
0010
,
0000
0000
0000
0000
0000
0000
0000
0100
,
0000
0000
0000
0100
0000
0000
0000
0200
,
0000
0000
0000
0000
,
0000
0000
0000
0000
,
0000
0000
0000
0000
0000
0300
0010
0000
,
0000
0010
0000
0010
,
0000
0010
0100
0010
,
1000
0000
1000
0000
,
1000
0001
0100
0001
,
0100
0000
0100
0000
,
0100
0010
1000
0010
,
1000
0001
1000
0010
,
0100
0001
0000
1000
,
0000
1000
0000
1000
,
0000
0001
0001
0001
,
0100
0000
0100
0000
,
0100
0010
0010
0010
,
1000
0000
1000
0000
,
1000
0100
0100
0100
,
0010
0000
0100
0100
0010
0000
0001
0000
,
1000
0001
0000
0000
,
0100
0000
0100
0000
,
0100
0000
0010
0000
,
0010
0000
0010
0000
,
1000
2000
0000
3000
,
0001
0000
0001
0000
,
0001
0000
0100
0000
,
0100
0000
0100
0000
,
0010
2000
0000
3010
,
0000
0000
0000
0000
0000
0100
0000
0000
,
0000
0000
0000
0000
0000
0001
0000
0000
,
0000
0000
0000
0000
0000
0100
0000
0010
,
0000
0100
0000
0010
0000
1000
0000
0000
,
0000
0000
0000
0000
0000
0010
0000
0000
,
0000
0000
0000
0000
,
0000
0000
0000
0000
0000
0100
0000
0010
,
0000
0100
0000
0010
0000
0000
1000
0000
,
0000
0010
0100
0000
,
0000
0001
1000
0010
,
0000
0100
0100
0000
,
0000
0010
1000
0010
,
0000
0000
0000
0000
0100
0000
0000
0001
,
0000
1000
0000
0000
0010
0000
0100
0000
,
0000
0010
0000
0000
1000
0000
0000
0000
,
0000
0010
0000
0000
0000
0000
0010
0000
,
0000
1000
1000
0000
0010
0000
0000
0000
,
0010
0100
0100
0000
0010
0000
0100
0000
,
0000
0001
0001
0000
0100
0010
0000
1000
,
0000
0010
0100
0000
0000
0000
1000
0000
,
1000
1000
0000
0001
,
0001
0001
0000
0100
,
0010
0000
0100
0000
0010
0200
0000
0000
,
0000
0000
0310
0010
1000
0000
1000
0000
,
1000
0000
1000
0000
0010
0000
0000
0010
,
0100
0010
0100
0010
0100
0000
0001
0000
,
0001
0001
0001
0000
,
1000
0010
1000
0010
1000
0000
0001
0000
,
0100
0000
0001
0000
0100
0000
0000
0001
,
0010
0001
1000
0100
1000
0000
0010
0000
,
0100
0100
0000
0001
0000
1000
0001
0000
,
0200
0000
0000
0000
0301
0001
0001
0001
,
0001
0001
0001
0001
0001
0000
0000
0000
,
1000
0010
0100
0001
1000
0000
0010
0000
,
0100
0010
0100
0000
,
0010
0100
0010
1000
0100
0000
0001
0000
,
1000
0001
1000
0000
,
1000
0010
0100
0001
0100
0000
0010
0000
,
1000
0001
0000
0100
0000
0010
0100
0000
,
1001
0000
0000
1001
,
0000
0110
0000
1001
,
0000
0110
0000
0011
,
0000
0101
0000
1100
,
1000
1000
1000
1000
0000
0000
1010
0000
,
0000
0011
0000
0101
,
0000
1100
0000
0110
,
0000
1001
0000
0110
,
1000
1000
1000
1000
0000
0000
0000
0000
;
