#TITLE:WE ARE ONE;
#SUBTITLE:;
#ARTIST:D'elf;
#TITLETRANSLIT:;
#SUBTITLETRANSLIT:;
#ARTISTTRANSLIT:;
#GENRE:;
#CREDIT:;
#BANNER:WE ARE ONE.png;
#BACKGROUND:WE ARE ONE-bg.png;
#LYRICSPATH:;
#CDTITLE:../cdtitle.png;
#MUSIC:WE ARE ONE.ogg;
#OFFSET:0.004000;
#SAMPLESTART:95.996002;
#SAMPLELENGTH:15.000000;
#SELECTABLE:YES;
#BPMS:0.000000=160.000000
;
#STOPS:319.000000=0.374000
;
#BGCHANGES:;
#KEYSOUNDS:;
#ATTACKS:;

//---------------dance-single - ----------------
#NOTES:
     dance-single:
     :
     Beginner:
     3:
     0.158730,0.245211,0.061303,0.099617,0.000000,145.000000,137.000000,8.000000,13.000000,0.000000,0.000000,0.158730,0.245211,0.061303,0.099617,0.000000,145.000000,137.000000,8.000000,13.000000,0.000000,0.000000:
0000
0000
0000
0000
,
0000
0000
0000
0000
,
0000
0000
0000
0000
,
0000
0000
0000
0000
,
0000
0000
0000
0000
,
0000
0000
0000
0000
,
0000
0000
0000
0000
,
0000
0000
0000
0000
,
1001
0000
0000
0000
,
0010
0000
0000
0000
,
0001
0000
0000
0000
,
0100
0000
0000
0000
,
1000
0000
0001
0000
,
1000
0000
0001
0000
,
0100
0000
0010
0000
,
1000
0000
0010
0000
,
1000
0000
0100
0000
,
0001
0000
0100
0000
,
1000
0000
0001
0000
,
0100
0000
1000
0000
,
0010
0000
0100
0000
,
0010
0000
1000
0000
,
0002
0000
0000
0000
,
0103
0000
0000
0000
,
1001
0000
1000
0000
,
0001
0000
0010
0000
,
1000
0000
1000
0000
,
0010
0000
0001
0000
,
1001
0000
0100
0000
,
0001
0000
1000
0000
,
0020
0000
0000
0030
,
1000
0000
0010
0000
,
2002
3003
0020
0030
,
0100
0000
0001
0000
,
2000
3000
0010
0000
,
0001
0000
1000
1000
,
1000
0000
0010
0000
,
0100
0000
0001
0000
,
2000
3000
0002
0003
,
0200
0000
0000
0300
,
0000
0000
0001
0000
,
0000
0000
1000
0000
,
0000
0000
0010
0000
,
0000
0000
1000
0000
,
0000
0000
0010
0000
,
0000
0000
0100
0000
,
0000
0000
0001
0000
,
0000
0000
1000
0000
,
1001
0000
0001
0000
,
0000
0000
1000
0000
,
0010
0000
1000
0000
,
0000
0000
0001
0000
,
0100
0000
1000
0000
,
0000
0000
0010
0000
,
0001
0000
1000
0000
,
0001
0000
0200
0300
,
1000
1000
1000
0000
,
0001
0001
0001
0000
,
0010
0010
0010
0000
,
1000
1000
1000
0000
,
0100
0100
0100
0000
,
0001
0001
0001
0000
,
1000
0001
1000
0000
,
2002
0000
3003
0000
,
1001
0000
0010
0000
,
1000
1000
1000
0000
,
0010
0000
0100
0000
,
0001
0001
0001
0000
,
1000
0000
0010
0000
,
0100
0100
0100
0000
,
0001
0000
1000
0000
,
0010
0010
0010
0000
,
1000
0000
0010
0000
,
0100
0000
0001
0000
,
1000
0000
0010
0000
,
1000
0000
0001
0000
,
0100
0000
0010
0000
,
0100
0000
0001
0000
,
0100
0000
0010
0000
,
1000
0000
0002
0003
,
1001
0000
0000
0000
;

//---------------dance-single - ----------------
#NOTES:
     dance-single:
     :
     Easy:
     7:
     0.260536,0.306513,0.130268,0.268199,0.000000,238.000000,221.000000,17.000000,35.000000,0.000000,0.000000,0.260536,0.306513,0.130268,0.268199,0.000000,238.000000,221.000000,17.000000,35.000000,0.000000,0.000000:
// measure 0
0000
0000
0000
0000
,  // measure 1
0000
0000
0000
0000
,  // measure 2
0000
0000
0000
0000
,  // measure 3
0000
0000
0000
0000
,  // measure 4
0000
0000
0000
0000
,  // measure 5
0000
0000
0000
0000
,  // measure 6
0000
0000
0000
0000
,  // measure 7
0000
0000
0000
0000
,  // measure 8
1001
0000
0100
0000
,  // measure 9
0010
1000
0010
0000
,  // measure 10
0101
0000
1000
0000
,  // measure 11
0010
0100
0010
0000
,  // measure 12
1000
0001
1000
0010
,  // measure 13
0100
0010
0100
0001
,  // measure 14
1000
0001
0010
0100
,  // measure 15
1000
0010
0001
0100
,  // measure 16
1000
1000
0001
0001
,  // measure 17
0100
0100
0010
1000
,  // measure 18
0001
0001
0100
0100
,  // measure 19
0010
1000
0010
0100
,  // measure 20
0002
0010
1000
0013
,  // measure 21
2000
0010
0001
3010
,  // measure 22
0200
0010
0001
0310
,  // measure 23
2002
0000
0000
3003
,  // measure 24
2000
0000
3010
0100
,  // measure 25
0002
0103
1000
0020
,  // measure 26
0130
0001
2000
3001
,  // measure 27
0100
0100
0010
1000
,  // measure 28
1001
0000
0000
0000
0200
0000
0300
0002
,  // measure 29
0000
1003
1000
0010
,  // measure 30
0200
0000
0000
0000
0000
0300
0001
0000
,  // measure 31
1000
0100
0001
0100
,  // measure 32
2000
3000
0102
0003
,  // measure 33
1000
0010
1000
0002
,  // measure 34
0103
0000
1010
0000
,  // measure 35
0100
0001
1000
0010
,  // measure 36
0101
0000
1001
0000
,  // measure 37
0020
1030
0001
0100
,  // measure 38
0020
0000
0030
0000
2000
0000
3000
0002
,  // measure 39
0000
0103
0100
0010
,  // measure 40
1000
0000
0001
0000
,  // measure 41
1000
0000
1000
0000
,  // measure 42
0010
0000
0100
0000
,  // measure 43
0001
0000
0001
0000
,  // measure 44
2000
0000
0001
0000
,  // measure 45
0100
0000
3100
0000
,  // measure 46
0020
0000
1000
0000
,  // measure 47
0100
0000
0130
0000
,  // measure 48
1001
0000
0100
0000
,  // measure 49
0001
0000
1000
0000
,  // measure 50
0010
0000
1000
0000
,  // measure 51
0001
0000
0100
0000
,  // measure 52
0120
0000
1030
0000
,  // measure 53
1002
0000
0103
0000
,  // measure 54
0010
0000
1000
0000
,  // measure 55
0002
0000
2000
0003
,  // measure 56
3010
1000
0010
0010
,  // measure 57
0100
0001
1000
1000
,  // measure 58
0010
0100
0010
0100
,  // measure 59
0001
1000
0001
0100
,  // measure 60
0001
0010
0100
1000
,  // measure 61
0001
0100
0010
1000
,  // measure 62
0001
0100
1000
0100
,  // measure 63
0001
0000
1000
0000
,  // measure 64
2001
0000
0010
3001
,  // measure 65
0100
1000
0100
0001
,  // measure 66
1002
0000
0200
0303
,  // measure 67
1000
0010
0100
0001
,  // measure 68
2010
0000
0001
3000
,  // measure 69
0010
0100
0010
1000
,  // measure 70
0001
0000
1010
0000
,  // measure 71
0100
0000
0010
0010
,  // measure 72
0102
0000
1000
0103
,  // measure 73
0010
0100
0001
0100
,  // measure 74
2000
0000
3002
0000
,  // measure 75
0103
0100
0010
1000
,  // measure 76
0002
0000
2003
0010
,  // measure 77
3001
0100
1000
0010
,  // measure 78
0001
1000
0001
0100
,  // measure 79
0020
1000
0100
1030
,  // measure 80
1001
0000
0000
0000
;

//---------------dance-single - ----------------
#NOTES:
     dance-single:
     :
     Medium:
     10:
     0.383142,0.519444,0.245211,0.260536,0.000000,350.000000,318.000000,32.000000,34.000000,0.000000,0.000000,0.383142,0.519444,0.245211,0.260536,0.000000,350.000000,318.000000,32.000000,34.000000,0.000000,0.000000:
0000
0000
0000
0000
,
0000
0000
0000
0000
,
0000
0000
0000
0000
,
0000
0000
0000
0000
,
0000
0000
0000
0000
,
0000
0000
0000
0000
,
0000
0000
0000
0000
,
0000
0000
0000
0000
,
1001
0010
0100
0001
,
1001
0010
1000
0001
,
0101
0010
0100
0001
,
1010
0100
0001
0100
,
1000
0100
0001
0100
,
1000
0010
0001
1000
,
0010
1000
0001
1000
,
1000
0010
0010
0100
,
0010
1000
0010
0000
0100
0000
0101
0000
,
0010
1000
0010
0000
0100
0010
0100
0000
,
0001
1000
0001
0000
0100
0000
0101
0000
,
1000
0010
1000
0000
0001
0100
0001
0000
,
1000
0010
1000
0010
0100
0001
0100
0001
,
0100
0010
0100
0010
0100
0010
1000
0010
,
1000
0100
0010
0001
1000
0010
0100
0001
,
2000
0000
0000
3000
,
0102
0000
0000
0000
2003
0000
3010
0100
,
0020
0000
1030
0001
1000
0000
0001
0100
,
0001
0000
1000
0010
2000
0000
3002
0000
,
0103
0010
0100
0010
0100
0001
0100
0001
,
2000
0000
3000
0000
0101
0000
0000
2001
,
0000
0000
3010
0100
0001
0200
0000
0000
,
0320
0000
0000
0000
0000
0000
1030
0001
,
2000
0000
0000
3000
0102
0000
0003
0000
,
2001
0000
3000
0000
0102
0000
1003
0010
,
1000
0001
0100
0101
,
1001
0010
1010
0100
,
0002
0000
1003
0010
2000
0000
3001
0100
,
0001
0000
1000
0000
0010
0100
0010
0000
,
2000
0000
3001
0100
0001
0100
0010
1000
,
0020
0000
0000
0000
2030
0000
0000
3002
,
0000
0000
1003
0010
1000
0001
0000
0001
,
0100
0000
0001
0000
,
0100
0000
0010
0000
,
1000
0000
0001
0000
,
1000
0000
0010
0000
,
2000
0000
0010
0000
,
3002
0000
0100
0000
,
2003
0000
0001
0000
,
3002
0000
0100
1003
,
1001
0010
1000
0000
,
1001
0100
0010
1000
,
0101
0000
0010
1000
,
1010
0100
0001
0100
,
0101
0000
1000
0010
,
0101
0000
1000
0000
,
0110
0000
1000
0001
,
0101
0000
1000
0000
,
1001
0010
0100
0001
,
0100
0010
1000
0010
,
0100
0001
0100
1000
,
0100
0001
1000
0001
,
0100
0001
0100
0001
0100
0001
0100
0001
,
1000
0001
1000
0001
1000
0001
1000
0001
,
1000
0010
1000
0010
1000
0010
1000
0010
,
2000
0000
0002
3003
,
0002
0100
1000
0003
,
0200
0010
0001
0300
,
0010
1000
0010
0100
0010
0100
0010
1000
,
0001
0100
1010
0001
,
1001
0000
0100
0000
0010
1000
0010
0000
,
0100
0001
0100
0010
1000
0010
0200
0000
,
0301
0000
0100
0000
0010
0000
1000
0001
,
1000
0010
1010
0110
,
1001
0000
0010
0000
0100
0001
0100
0000
,
0011
0000
1000
0000
0010
0100
0010
0000
,
0101
0000
1000
0000
0001
0100
0010
0000
,
1010
0000
0100
0000
0001
0100
0010
1000
,
0020
0100
2030
0001
,
3010
0100
0010
1000
0010
0100
0001
0000
,
0100
0010
0100
0010
1000
0010
0100
0010
,
2000
3200
0320
0031
;

//---------------dance-single - ----------------
#NOTES:
     dance-single:
     :
     Hard:
     15:
     0.494800,0.827586,0.160920,0.268199,0.229885,452.000000,431.000000,21.000000,35.000000,0.000000,0.000000,0.494800,0.827586,0.160920,0.268199,0.229885,452.000000,431.000000,21.000000,35.000000,0.000000,0.000000:
0000
0000
0000
0000
,
0000
0000
0000
0000
,
0000
0000
0000
0000
,
0000
0000
0000
0000
,
0000
0000
0000
0000
,
0000
0000
0000
0000
,
0000
0000
0000
0000
,
0000
0000
0000
0000
,
1001
0010
1000
1000
,
0010
0100
0001
0001
,
1000
0010
0100
0001
,
1000
0100
0010
0001
,
1000
0100
0001
0100
,
0010
0100
1000
0100
,
0001
0100
0010
1000
,
0010
0100
0010
1000
,
1001
0100
0010
0000
1000
0010
1000
0000
,
0001
0100
0010
0000
1000
0010
1000
0000
,
0001
0100
0001
0000
1000
0100
0010
0000
,
0001
1000
0001
0000
1000
0001
1000
0000
,
0010
1000
0010
1000
0001
0100
0001
0100
,
0010
1000
0001
1000
0010
0100
0001
0100
,
0010
1000
0010
0000
1000
0010
1000
0000
0001
0100
0001
0000
0100
0001
0100
0000
,
0010
0000
1000
0001
0000
1000
0000
0010
0000
0000
0100
0001
0100
0000
0010
0000
,
2001
0000
0010
0000
3002
0000
0103
0010
,
2000
0000
0000
0000
3001
0100
0001
0000
1000
0000
1000
0000
0020
0000
0030
0000
,
0102
0003
1000
0001
0200
0000
0320
0000
,
1030
0000
0001
0000
0100
0000
0010
0000
0100
0000
0001
1000
0001
0000
0100
0000
,
2010
0000
3000
0000
0201
0000
0300
1002
,
0000
0003
0001
0100
0010
2000
0000
0000
,
3020
0000
0030
0020
0000
0030
0020
0000
0030
0020
0000
0030
0100
0001
0100
0001
,
0200
0000
0000
0000
0320
0000
0000
0030
,
2002
0000
0000
3003
2020
0030
3001
0100
,
0010
0100
0010
1000
0010
0100
0001
0000
,
2010
0000
3001
0100
0010
0000
1000
0001
,
0200
0000
0000
0000
0310
1000
0010
1000
0010
0000
0100
0000
0001
0000
0100
0000
,
0010
0000
0000
1000
0000
0000
0001
0000
1001
0000
0100
0000
0010
0000
0100
0000
,
0001
0000
0100
0000
0020
0000
2030
0000
3001
0000
0100
0010
0100
0000
0001
0100
,
0002
0000
0000
0000
2000
0000
3003
0220
,
0000
0000
0000
0330
,
1000
0000
0001
0000
,
0100
0100
0010
0000
,
0001
0000
1000
0000
,
0010
0010
0100
0000
,
1000
0000
0010
0000
,
0100
0100
0001
1000
,
0001
0000
1000
0000
,
0010
0001
0001
1000
,
1001
0000
0100
0000
,
0010
1000
0010
0100
,
1001
0000
0010
0100
,
0001
0001
1000
0010
,
1001
0000
0100
0000
,
0010
1000
0010
0100
0001
0000
0100
0000
,
0010
0000
1000
0000
,
0001
0001
1000
0010
,
1001
0010
0100
0001
,
1000
0010
0100
0001
,
1000
0001
0100
0010
,
0001
0001
1000
0100
,
0001
1000
0001
1000
0010
0100
0010
1000
,
0010
0100
0001
0100
0001
1000
0100
1000
,
0001
0100
0001
0100
0001
0100
0001
0100
0010
1000
0010
1000
0010
1000
0010
1000
,
0010
0000
1000
0001
0000
0100
0000
0001
0000
0000
0100
0010
1000
0000
0001
0000
,
2001
0000
0010
0000
3001
0100
0010
0000
,
1000
0001
0100
0010
0100
0001
1000
0001
,
0100
0010
0000
1000
0010
0000
0100
0000
0001
0000
0100
0000
0010
0000
1000
0000
,
0010
0000
0100
0001
0100
0000
0010
0000
1000
0001
1000
0001
1000
0000
0010
0000
,
0101
0000
1000
0010
0100
0001
1000
0010
,
0100
0001
0100
0001
0100
0000
0010
0000
1000
0001
1000
0001
1000
0000
0010
0000
,
0100
0000
0001
0000
0100
0000
0010
0000
1000
0010
0000
1000
0001
0000
0100
0000
,
0010
1000
0010
0000
0100
0000
0001
0000
0100
0010
0100
0010
1000
0000
0001
0000
,
1002
0000
0100
0000
1003
0010
0100
0000
,
0001
1000
0001
1000
0001
0000
0100
0000
0010
1000
0010
1000
0010
0000
0100
0000
,
0101
0000
0000
0000
0010
0000
1000
0000
0010
0100
0010
0100
0001
0000
1000
0000
,
0010
1000
0000
0001
1000
0000
0010
0000
0100
0000
0001
0000
1000
0000
0001
0000
,
1001
0000
0100
0010
0100
0001
0100
0010
,
1000
0010
0000
1000
0001
0000
0100
0000
0010
1000
0010
0000
0100
0000
0001
1000
,
0001
0100
0010
0100
0001
0100
0010
1000
,
0002
0000
0203
0000
0320
0000
1030
0010
1000
0010
1000
0001
2000
0000
0000
0000
,
3000
0000
0000
0000
;
