#TITLE:The "New World" to Live;
#SUBTITLE:;
#ARTIST:ZumaTK;
#TITLETRANSLIT:;
#SUBTITLETRANSLIT:;
#ARTISTTRANSLIT:;
#GENRE:;
#CREDIT:;
#BANNER:The New World to Live.png;
#BACKGROUND:The New World to Live-bg.png;
#LYRICSPATH:;
#CDTITLE:../cdtitle.png;
#MUSIC:The New World to Live.ogg;
#OFFSET:-0.005000;
#SAMPLESTART:24.844000;
#SAMPLELENGTH:15.000000;
#SELECTABLE:YES;
#BPMS:0.000000=186.000000
,205.000000=93.000000
,235.000000=46.500000
,236.000000=93.000000
,238.000000=186.000000
;
#STOPS:
;
#BGCHANGES:;
#KEYSOUNDS:;
#ATTACKS:;

//---------------dance-single - ----------------
#NOTES:
     dance-single:
     :
     Easy:
     8:
     0.356592,0.505755,0.171304,0.154989,0.004079,306.000000,285.000000,21.000000,19.000000,0.000000,0.000000,0.356592,0.505755,0.171304,0.154989,0.004079,306.000000,285.000000,21.000000,19.000000,0.000000,0.000000:
0000
0000
0000
0000
,
0000
0000
0000
0000
,
0000
0000
0000
0000
,
0000
0000
0000
0000
,
0000
0000
0000
0000
,
0000
0000
0000
0000
,
0000
0000
0000
0000
,
0000
0000
0000
0000
,
0000
0000
0000
0000
,
1001
0010
0100
0010
,
1000
0001
0100
1000
,
0001
1000
0010
0001
,
1000
0010
1000
0000
0002
0000
0103
0000
,
0001
1000
0001
0100
,
0010
0000
1000
0000
0010
0100
0010
0000
,
1000
0010
0001
0100
,
0010
1000
0001
1001
,
0000
0000
0101
0101
,
1001
2002
0000
0000
,
3003
0020
0000
1030
,
0001
0000
1000
0000
0010
0100
0010
0000
,
0000
1010
0000
0101
,
0000
1001
0000
0010
,
1000
1001
0000
0010
,
2000
0000
3001
0000
0100
0001
0100
0000
,
0000
1001
0000
1010
,
0000
1001
0100
0010
,
0100
1001
0100
0001
,
0010
1000
0010
1000
,
0001
0100
0001
0100
,
0010
1000
0010
0000
0100
0000
0001
0000
,
1000
1001
0010
0100
,
0001
0000
0100
0000
0010
1000
0010
0000
,
0100
0001
0001
0100
,
0100
0010
1000
0001
,
0100
1001
1000
0010
,
0100
0001
0001
1000
,
0010
0100
0100
0001
,
1000
0010
0010
1000
,
1000
0001
0001
0001
,
0100
1000
1000
1000
,
0010
0100
0100
0010
,
1000
0001
0001
0002
,
2003
3010
1000
0010
,
0100
0001
0100
0010
,
1010
0001
0100
0010
,
0100
0001
1000
0010
,
0101
0000
1000
0010
1000
0000
0010
1000
,
0010
0000
0100
0001
0100
0000
0001
0000
,
0100
0000
1000
0010
1000
0000
0001
0100
,
0001
0100
0020
0000
2030
0000
3002
0000
,
0103
2002
3003
0010
,
0010
1000
0000
0001
,
0100
0010
0000
1000
,
0010
0100
0001
2000
,
3010
0001
0100
0010
,
0100
0002
1003
0010
,
0100
0002
1003
0010
,
0100
0000
0001
0000
0100
0000
0020
0030
,
1000
0000
0000
0001
0000
0000
0100
0000
1001
0000
0000
0000
0010
0000
0000
0000
,
0100
0001
0100
0000
0010
0000
1000
0000
,
0001
0100
0001
0000
1000
0000
0010
0000
,
0100
0001
0100
0000
0010
0000
0100
0000
,
0001
1000
1001
0010
,
0100
0001
0100
0000
0010
1000
0010
0000
,
0100
0001
1000
0010
,
0001
0100
2000
3010
,
0002
0000
1003
0001
,
0100
0010
1000
1000
,
0010
0100
0001
0100
,
0010
1000
0010
0010
,
0100
0001
0100
0000
0010
0000
1000
0000
,
0010
0000
0100
0000
0010
1000
0010
0000
,
1000
0010
1000
0000
0001
0000
0100
0000
,
0010
0010
1000
0001
,
0200
0000
0310
0000
1000
0001
1000
0001
,
1000
0001
1000
0000
0001
1000
0001
1000
,
0001
1000
0001
1000
0010
0000
0000
0000
;

//---------------dance-single - ----------------
#NOTES:
     dance-single:
     :
     Medium:
     12:
     0.417190,0.663803,0.154989,0.252878,0.024472,358.000000,339.000000,19.000000,31.000000,0.000000,0.000000,0.417190,0.663803,0.154989,0.252878,0.024472,358.000000,339.000000,19.000000,31.000000,0.000000,0.000000:
0000
0000
0000
0000
,
0000
0000
0000
0000
,
0000
0000
0000
0000
,
0000
0000
0000
0000
,
0000
0000
0000
0000
,
0000
0000
0000
0000
,
0000
0000
0000
0000
,
0000
0000
0000
0000
,
0000
0000
0000
0000
,
1001
0010
1000
0010
,
1000
0000
0001
0000
0100
0010
0100
0000
,
0001
1000
0001
0010
,
0001
0100
0001
0000
2000
0000
3010
0000
,
1001
0010
0100
0010
,
0100
0000
0001
0000
1000
0010
1000
0000
,
0001
1000
0001
0010
,
0100
1000
0010
1001
,
0000
0000
1010
1010
,
0101
2002
0000
0000
,
3003
0020
0000
0130
,
1000
0000
0002
0000
0000
0103
0020
0000
,
0030
2010
0000
3020
,
0130
0001
2000
0000
0000
0000
3000
0000
,
0001
1001
0000
0010
,
0001
0000
2000
0000
0000
3010
0200
0000
,
0300
0000
0002
0000
1003
0010
1000
0000
,
0001
0000
0100
0000
0010
0000
1000
0010
,
1000
0001
1000
0000
0010
0000
0100
0000
,
0001
0000
1000
0010
1000
0001
0100
0000
,
1010
0000
0100
0000
0010
0000
0100
0001
,
0100
0001
2000
0000
0010
0000
3001
0000
,
0100
0000
1001
0000
0010
0000
0100
0010
,
0100
0000
0001
0100
0001
1000
0001
0000
,
1010
0000
0002
0000
1003
0010
2000
0000
,
3010
2002
0000
0000
,
3003
1010
0100
0001
,
1000
0000
0010
0000
0100
0000
0001
1000
,
0001
0100
0001
0000
1000
0000
0010
0000
,
0100
0001
1000
0100
,
0001
0100
0001
0000
0010
0000
1000
0000
,
0010
0000
0100
0000
0001
0000
0100
0010
,
0100
0010
1000
0000
0010
0000
0100
0000
,
0001
0000
1000
0010
1000
0010
0100
0001
,
0200
0301
0100
1000
,
0100
0001
0010
1000
,
0010
0001
1000
0010
,
0001
0000
1000
0000
0100
0000
0010
0001
,
0010
0001
1000
0010
1000
0000
0001
0100
,
0001
0000
0100
0010
0100
0001
0100
0010
,
1000
0000
0001
0100
0001
1000
0010
0100
,
0001
0100
0020
0000
2030
0000
3020
0000
,
0130
2002
3003
0010
,
0010
2000
3001
0100
,
0100
0020
0030
1000
,
1000
0002
0103
1000
,
0010
0001
0100
0001
,
1000
1000
0010
0000
0100
0000
0001
0001
,
1000
1000
0010
0000
0100
0001
0100
0000
,
0010
0000
0000
0000
1000
0000
0000
0010
0000
0000
0100
0000
0002
0000
0000
0000
,
1003
0000
0000
0010
0000
0000
1010
0000
1001
0000
0000
0000
0010
0000
0000
0000
,
0100
0001
0100
0010
1000
0000
0010
0100
,
0000
0100
0001
0000
1000
0000
0010
0000
,
0100
0001
0100
0010
1000
0010
0100
0001
,
0000
0001
1000
0000
0010
0000
0100
0000
,
0001
1000
0001
0100
0010
0000
0010
1000
,
0000
1000
0001
0000
0100
0010
0100
0001
,
0100
0000
0010
1000
0020
0000
0100
0000
,
2030
0000
0000
3000
1001
0000
0010
0000
,
0100
0001
0100
0010
1000
0001
0100
0001
,
0000
0001
1000
0000
0010
0000
1001
0000
,
0100
0001
0100
0010
1000
0010
0100
0001
,
0000
0001
1000
0010
1000
0001
0100
0000
,
0010
1000
0010
0000
0100
0001
0100
0010
,
0000
0010
1000
0010
0100
0001
0100
0010
,
0000
1000
0001
1000
0020
0000
0100
0000
,
2030
0000
0010
0000
3001
0100
0001
0100
,
0010
1000
0010
1000
0010
0100
0010
0100
,
0001
1000
0001
1000
0001
1000
0001
1000
0001
0000
0000
0000
0000
0000
0000
0000
;

//---------------dance-single - ----------------
#NOTES:
     dance-single:
     :
     Challenge:
     18:
     0.922945,1.043120,0.318136,0.293664,1.003353,792.000000,753.000000,39.000000,36.000000,0.000000,0.000000,0.922945,1.043120,0.318136,0.293664,1.003353,792.000000,753.000000,39.000000,36.000000,0.000000,0.000000:
0000
0000
0000
0000
,
0000
0000
0000
0000
,
0000
0000
0000
0000
,
0000
0000
0000
0000
,
0000
0000
0000
0000
,
0001
0100
0010
1000
0001
0001
0010
0100
,
1000
1000
0010
0100
0001
1000
0100
0001
,
0100
1000
0100
0010
0001
0100
0001
0100
,
0010
1000
0010
0100
0002
0000
2003
0000
,
3010
0000
0100
0000
0001
1000
0001
0000
0100
0000
0010
0000
1000
0010
1000
0000
,
0001
0000
0100
0000
0010
1000
0001
0000
0100
0000
0010
1000
0001
0000
0100
0010
,
1000
0000
0001
0000
1000
0100
0010
0000
0001
0000
0100
0000
0010
0100
0001
0000
,
1000
0000
0010
0100
0001
0000
1000
0010
2000
0000
0000
3000
0220
0000
0000
0030
,
0301
0000
0100
0000
0010
1000
0010
0000
0100
0000
0001
0000
1000
0010
0100
0000
,
0010
0000
1000
0000
0001
0010
0100
0000
1000
0000
0010
0100
0001
0000
1000
0001
,
1000
0010
1000
0010
0100
0001
0100
0001
1000
0010
0001
0010
1000
0100
0010
0100
,
1000
0100
1000
0001
1000
0010
1000
0001
0100
0010
1000
0010
2002
0000
0000
0000
,
3003
0000
1010
1001
,
0101
0000
0000
0000
1000
0000
0010
0000
0100
0000
0001
0000
1000
0010
0100
0001
,
1000
0100
0010
0001
2001
0000
0000
0000
0000
0000
0000
0000
3020
0000
0000
0000
,
0031
0000
2001
0000
3010
0100
0002
0000
,
0003
0201
0000
0310
,
1000
0001
0102
0000
0010
0000
1003
0000
,
0010
0000
1002
0000
0100
0000
1003
0010
,
0200
0000
0320
0000
1030
0010
0002
0000
,
0000
0000
0000
0003
0000
0000
1001
0000
0000
0000
0000
0000
0010
0000
1000
0000
0001
0000
2000
0000
0000
0000
0000
0000
,
3010
0000
0001
0100
0001
0010
0100
1000
,
0100
1000
0100
1000
0001
0000
1000
0000
0010
0100
0001
0000
0100
0000
0010
0100
,
0001
0000
1000
0000
0010
0100
0010
0100
0001
0000
1000
0001
1000
0000
0010
0000
,
0100
0010
0100
0010
1000
0000
0001
0000
0100
0010
1000
0000
0001
0000
0100
0000
,
0010
1000
0010
0000
0100
0001
0100
0000
0010
1000
0001
0000
1000
0000
0010
0000
,
2002
0000
3003
0000
0010
0000
0100
0000
0001
1000
0100
0000
0010
0000
0001
0000
,
1000
0010
0100
0000
0010
1000
0001
1000
0010
0000
0100
0000
0001
1000
0001
1000
,
0010
0000
0000
0100
0000
0000
0010
0000
0000
1000
0000
0000
0002
0000
0000
0000
0000
0000
0000
0000
0000
0000
0000
0000
1003
0000
0000
0000
0010
0000
0000
0000
1000
0000
0000
0000
0002
0000
0000
0000
0000
0000
0100
0000
0000
0000
0000
0000
,
1003
0000
0010
0000
0100
0001
0000
0001
0000
0001
0000
1000
0000
1000
0000
1000
,
0001
0100
0010
1000
0001
0000
1000
0010
0100
0000
0001
0000
0101
0000
1000
0010
,
0100
0000
0001
0000
1001
0000
0010
1000
0001
0000
0100
0001
0100
0000
0010
0000
,
1000
0000
1000
0000
1001
0000
0010
1000
0010
0000
0100
0000
0101
0000
1000
0010
,
0100
0000
0001
0000
1001
0000
0010
0100
0001
0000
1000
0010
1000
0000
0001
0000
,
0100
0010
0100
0001
1000
0000
0010
1000
0001
0000
0100
0000
1001
0000
0010
1000
,
0010
0000
0100
0000
0101
0000
1000
0010
0100
0000
0001
1000
0100
0000
1000
0010
,
1000
0000
0001
0000
1001
0000
0010
1000
0010
0000
0100
0000
0101
0000
0010
0100
,
0001
0000
0100
0000
0001
0100
1000
0100
0001
0100
0010
1000
0010
0100
0001
0100
,
0020
0000
0000
0000
1030
0001
1000
0001
1000
0000
0001
0100
0001
0100
0001
0000
,
1000
0010
1000
0010
1000
0001
1000
0001
1000
0000
0010
0100
0010
0100
0010
0000
,
1000
0001
1000
0100
0001
0100
1000
0010
1000
0000
0001
0100
0010
0100
0001
0000
,
1000
0010
1000
0000
0001
1000
0001
0000
0010
0100
0001
0000
1000
0010
0100
0000
,
0001
0100
0010
1000
0010
0100
0010
1000
0001
0010
0100
1000
0001
0010
0100
0010
,
0001
1000
0010
0001
0010
1000
0001
0100
0010
0100
0001
1000
0100
0010
0100
1000
,
0001
0010
0100
1000
0010
0100
0001
0100
0010
1000
0010
0100
0001
0100
1000
0100
,
0010
0100
0010
0100
0001
0010
0100
1000
0001
0100
0010
1000
0001
0100
1000
0100
,
0002
0000
0000
0000
1003
0010
1000
0001
0100
0010
1000
0001
1000
0000
0010
0100
,
0000
0001
0100
0000
0010
0000
1000
0000
0001
0100
0001
1000
0010
1000
0001
0100
,
0000
0001
1000
0000
0010
0100
0001
0000
0100
0010
0100
0001
1000
0010
0100
0001
,
0000
0001
1000
0000
0200
0000
0010
0000
0301
1000
0010
0100
0002
0000
0100
0000
,
1003
0000
0000
0000
0010
1000
0010
0200
0000
0301
1000
0010
1000
0010
0100
0001
,
0000
0001
1000
0000
0010
0100
0002
0000
1003
0010
0100
0001
1000
1000
0010
0100
,
0000
0001
0100
0010
0100
0010
1000
0010
0100
0001
1000
0001
0100
0010
1000
0002
,
0000
0103
0010
1000
0001
0001
0100
0010
0100
1000
1000
0010
0002
0000
0000
0003
,
1001
0100
0010
1001
0010
0100
1001
0000
1020
0000
0000
0000
0100
0000
0000
0000
,
1030
0000
0001
0000
0101
0000
1000
0000
1001
0000
0001
1000
0010
0000
0100
0000
,
0010
1000
0001
0000
0101
0000
0000
0000
1010
0000
0000
0000
0100
0000
0001
0000
,
1000
0000
0001
0000
0101
0000
0010
0000
1010
0000
0001
0100
0010
0000
1000
0000
,
0010
0000
0010
0000
2001
0000
0000
0000
3010
0000
0100
0010
1000
0000
0001
0000
,
1010
0000
0010
0100
0001
0000
1000
0000
1001
0000
0100
0001
0100
0000
0010
0000
,
1100
1000
1001
0000
1010
1000
0001
1000
,
0010
0100
0100
0001
2100
0000
0010
0000
,
3002
0000
0000
0000
0100
0000
0000
0000
1003
0000
0010
0100
0001
0000
1000
0000
,
0010
0100
0010
0000
1000
0010
0100
0001
0100
0000
0010
1000
0001
0000
0100
0000
,
0010
0100
0010
1000
0002
0000
0100
0000
1003
0000
0010
0100
0001
0000
0100
0000
,
0010
1000
0010
1000
0001
0100
0001
0100
0010
0100
0010
1000
0010
0000
0100
0001
,
0100
0000
0010
0000
2001
0000
0100
0000
3010
0000
0100
0001
0100
0000
0010
0000
,
1000
0010
0100
0010
1000
0000
0001
0000
0100
0010
1000
0010
0100
0000
0010
0100
,
0010
1000
0001
0000
0100
0010
0100
0001
1000
0000
0010
1000
0010
0000
0100
0010
,
0100
0000
0001
1000
0100
0000
0010
0001
1000
0100
0000
0100
0000
0100
0000
0001
,
0000
0001
0000
0001
1000
0001
1000
0010
0100
0001
0100
0010
1000
0010
0100
0001
,
1000
0100
0010
0001
1000
0010
0001
0010
0100
0010
0100
0001
1000
0100
0001
0100
,
1000
0100
1000
0001
1000
0100
0001
0100
1000
0000
0000
0000
0000
0000
0000
0000
;

//---------------dance-single - ----------------
#NOTES:
     dance-single:
     :
     Beginner:
     6:
     0.215587,0.410926,0.081573,0.065259,0.000000,185.000000,175.000000,10.000000,8.000000,0.000000,0.000000,0.215587,0.410926,0.081573,0.065259,0.000000,185.000000,175.000000,10.000000,8.000000,0.000000,0.000000:
0000
0000
0000
0000
,
0000
0000
0000
0000
,
0000
0000
0000
0000
,
0000
0000
0000
0000
,
0000
0000
0000
0000
,
0000
0000
0000
0000
,
0000
0000
0000
0000
,
0000
0000
0000
0000
,
0000
0000
0000
0000
,
1001
0000
0000
0000
,
1000
0000
1000
0000
,
1000
0000
0000
0000
,
0010
0000
0001
0000
,
0010
0000
0000
0000
,
1000
0000
0000
0000
,
0010
0000
1000
0000
,
0010
0000
0100
0100
,
0000
0000
0001
0001
,
1000
2000
0000
3000
,
0000
1001
0000
0100
,
0000
0002
0000
1003
,
0000
0010
0000
0100
,
0100
2000
0000
3000
,
0000
1001
0000
0010
,
0100
0200
0000
0301
,
0000
1001
0000
0110
,
0000
1001
0000
0000
,
0000
0010
0000
1000
,
0000
0010
0000
0100
,
0100
0001
0000
1000
,
0000
0010
0010
0010
,
0000
1001
0000
0010
,
0000
1000
1000
0001
,
0000
0100
0000
0010
,
0000
2000
0000
3000
,
0000
1001
0000
0001
,
0000
1000
0000
0001
,
0000
0100
0000
0010
,
0000
0100
0000
0010
,
0000
1000
0000
0010
,
0000
0001
0000
0010
,
0000
1000
0000
0010
,
0000
0001
0001
1000
,
1000
1001
0000
0010
,
0010
1000
0000
0001
,
0001
0100
0000
0010
,
0010
1000
0010
0100
,
0001
1000
1000
0010
,
0010
0100
0100
0001
,
0000
1000
1000
0010
,
0010
0100
0001
0100
,
0010
1000
0000
0000
,
0000
0001
0000
0000
,
0000
1000
0000
0000
,
0000
0010
0000
0100
,
0000
0100
0000
0001
,
0000
0100
0000
0010
,
0000
0100
0000
0100
,
0000
0001
1000
1000
,
0000
0000
1001
0000
,
0010
0010
1000
0010
,
0100
0001
0100
0000
,
0010
1000
0010
0010
,
0100
0001
1000
0000
,
0010
0000
1000
0000
,
0001
0000
0100
0000
,
0100
0000
0010
1000
,
0020
0000
0130
0001
,
0100
0001
0100
0010
,
0100
0010
0100
0001
,
0100
0001
1000
0001
,
1000
0000
0010
1000
,
0010
0000
0100
0001
,
0100
0010
0100
0010
,
1000
0010
0200
0000
,
0302
0000
1003
0001
,
1000
0000
0001
0000
1000
0001
1000
0001
,
1000
0001
1000
0001
1000
0000
0000
0000
;

//---------------dance-single - ----------------
#NOTES:
     dance-single:
     :
     Hard:
     17:
     0.682886,1.043120,0.212091,0.261035,0.416024,586.000000,560.000000,26.000000,32.000000,0.000000,0.000000,0.682886,1.043120,0.212091,0.261035,0.416024,586.000000,560.000000,26.000000,32.000000,0.000000,0.000000:
// measure 0
0000
0000
0000
0000
,  // measure 1
0000
0000
0000
0000
,  // measure 2
0000
0000
0000
0000
,  // measure 3
0000
0000
0000
0000
,  // measure 4
0000
0000
0000
0000
,  // measure 5
1001
0000
1010
0000
0100
0001
0100
0000
,  // measure 6
1010
0000
1001
0000
0100
0010
0100
0001
,  // measure 7
1001
0000
1100
0000
0001
0100
0001
0000
,  // measure 8
0100
0010
0100
0001
2000
0000
3020
0000
,  // measure 9
0130
0001
0100
0010
0100
0010
1000
0100
,  // measure 10
0010
0001
0010
0001
1000
0001
0100
0010
,  // measure 11
1000
0100
0001
0100
1000
0010
1000
0010
,  // measure 12
0001
0010
1000
0001
2000
0000
3002
0000
,  // measure 13
0103
0010
0100
0001
1000
0001
0100
0010
,  // measure 14
1000
0100
0010
0001
1000
0010
0100
0001
,  // measure 15
1000
0000
0010
0000
0100
0001
0100
0000
0010
0000
1000
0000
0001
0100
0001
0000
,  // measure 16
1000
0010
1000
0010
0100
0001
0100
0001
0100
0010
0100
0010
1000
0000
0000
0000
,  // measure 17
0000
0000
1001
1010
,  // measure 18
0101
0000
0000
0000
2002
0000
0000
0000
3003
0000
0000
0000
1000
0001
1000
0001
,  // measure 19
1000
0001
1000
0001
2000
0000
0000
0000
0000
0000
0000
0000
3010
0000
0000
0000
,  // measure 20
0110
0000
0002
0000
0103
0010
2000
0000
,  // measure 21
3000
0102
0000
2003
,  // measure 22
3010
0100
0002
0000
0100
0000
1003
0000
,  // measure 23
0010
0201
0000
0310
,  // measure 24
0001
0000
2000
0000
3010
0100
0002
0000
,  // measure 25
0003
0000
0000
2010
0000
0000
3001
0100
0010
0200
0000
0000
,  // measure 26
0301
2002
0000
3003
,  // measure 27
0010
0000
1001
0000
0010
0000
0100
0001
,  // measure 28
0100
0000
0010
1000
0010
0100
0001
0000
,  // measure 29
1000
0010
1000
0000
0002
0000
0000
0000
0100
0000
0000
0000
1003
0000
0010
0000
,  // measure 30
0100
0001
0200
0000
0010
0000
0301
0000
,  // measure 31
1000
0000
1001
0000
0010
0000
0100
0001
,  // measure 32
0200
0000
0000
0000
0310
1000
0010
0000
0100
0000
0001
0000
0002
0000
0000
0000
,  // measure 33
0003
0000
0000
2000
0000
0000
3010
0100
0001
0200
0000
0000
,  // measure 34
0310
2002
0000
0000
,  // measure 35
3003
0000
0001
1000
0010
0100
0001
1000
,  // measure 36
0010
1000
0001
0100
0001
0100
0001
1000
,  // measure 37
0010
0010
1000
0010
0100
0010
1000
0001
,  // measure 38
0010
0100
1000
0010
1000
0010
1000
0010
,  // measure 39
0100
0010
0100
0001
0010
0001
0100
0010
,  // measure 40
1000
0010
0100
0001
0100
0001
0100
0010
,  // measure 41
1000
1000
0010
0100
0001
0100
0010
0100
,  // measure 42
0001
0000
1000
0000
0010
0000
1000
0000
0010
0000
1000
0000
0010
0100
0010
0100
,  // measure 43
0002
0000
0000
0000
1003
0000
0010
0000
0100
0010
0100
0000
0001
0000
0100
0000
,  // measure 44
0010
1000
0010
0000
0100
0000
0010
0000
1000
0001
1000
0000
0010
1000
0010
0000
,  // measure 45
0100
0010
0100
0000
0010
0000
0100
0000
0001
1000
0001
0000
0100
0000
0010
0000
,  // measure 46
1000
0010
1000
0000
0001
0000
0100
0000
0010
0100
0010
0000
1000
0000
0001
0000
,  // measure 47
0100
0010
0100
0010
1000
0000
0010
0000
0100
0001
1000
0000
0010
0000
0100
0000
,  // measure 48
0001
0010
0100
0000
1000
0000
0010
0000
0100
0001
0100
0010
1000
0000
0010
0000
,  // measure 49
0100
0000
0010
0000
0100
0000
0001
0000
1000
0010
0100
0000
0010
0000
0100
0000
,  // measure 50
0010
1000
0001
0000
0100
0010
0100
0000
0001
1000
0001
0000
0010
0001
0010
0000
,  // measure 51
0200
0000
1300
0000
0001
0000
0100
0010
,  // measure 52
0100
0000
0001
0000
1000
0000
0000
0000
0010
0000
0100
0001
0100
0000
0010
0000
,  // measure 53
1000
0010
0000
0100
0001
0000
1000
0000
0010
0000
0100
0001
0100
0000
0010
0000
,  // measure 54
1000
0000
0001
0000
0100
0010
0100
0000
0001
1000
0000
1000
0010
0000
0100
0000
,  // measure 55
0002
0000
0000
0000
0103
0010
0000
0010
0000
1000
0010
0100
0001
0000
0001
0100
,  // measure 56
0000
0100
0010
0000
1000
0000
0010
0000
0100
0001
0100
0010
0100
0000
0001
0100
,  // measure 57
0000
0100
0010
1000
0010
0000
0100
0000
0001
0100
0010
0100
0001
0000
1000
0010
,  // measure 58
0000
0010
0100
0010
0100
0001
0000
0001
0100
0010
1000
0010
2000
0000
0000
0000
,  // measure 59
3010
0100
0000
0001
0100
0000
1010
0000
1001
0000
0000
0000
0010
0000
0000
0000
,  // measure 60
0100
0001
0100
0010
1010
0000
0100
0001
,  // measure 61
0100
0100
0010
0000
0101
0000
0010
0000
,  // measure 62
1000
0010
0100
0001
0101
0100
0010
0100
,  // measure 63
0001
1000
0001
0000
1001
0000
0010
0000
,  // measure 64
0100
0001
0100
0010
1000
0010
0100
0100
,  // measure 65
0001
1000
0001
0000
0100
0001
0100
0010
,  // measure 66
0100
0000
0010
0000
1000
0000
0001
0000
1000
0010
1000
0010
0100
0001
0100
0001
,  // measure 67
0200
0000
0000
0000
0300
0000
0000
0000
0010
0000
1000
0000
0001
0100
0010
0000
,  // measure 68
0100
0000
0010
0000
1000
0001
1000
0000
0010
0000
0100
0001
0100
0000
0010
0000
,  // measure 69
1000
0001
1000
0000
0010
0000
0000
0000
0100
0000
0001
0000
0100
0000
0010
0000
,  // measure 70
0100
0000
0010
0000
1000
0010
1000
0010
0100
0000
0001
0100
0001
0000
1000
0000
,  // measure 71
0001
0100
0010
1000
1010
0010
0100
0000
,  // measure 72
0001
0100
0010
0100
0001
0100
0001
1000
,  // measure 73
0010
0100
0100
0001
1001
0000
0010
0100
,  // measure 74
0010
0000
0100
0000
0001
0000
0001
0000
1000
0010
0000
0010
0000
0010
0000
0100
,  // measure 75
0000
0100
0000
0100
0001
1000
0001
0000
0100
0010
0100
0010
0100
0010
0100
0010
,  // measure 76
0100
0001
0100
0001
0100
0001
0100
0001
1000
0001
1000
0001
1000
0001
1000
0001
,  // measure 77
1000
0100
1000
0100
1000
0100
1000
0100
1000
0000
0000
0000
0000
0000
0000
0000
;
