#TITLE:Road to you;
#SUBTITLE:;
#ARTIST:Silvia;
#TITLETRANSLIT:;
#SUBTITLETRANSLIT:;
#ARTISTTRANSLIT:;
#GENRE:;
#CREDIT:;
#MUSIC:Road to you.ogg;
#BANNER:Road to you.png;
#BACKGROUND:Road to you-bg.png;
#CDTITLE:../cdtitle.png;
#SAMPLESTART:60.732;
#SAMPLELENGTH:15.000;
#SELECTABLE:YES;
#OFFSET:-0.002;
#BPMS:0.000=158.070;
#STOPS:;
#BGCHANGES:;
#FGCHANGES:;

//--------------- dance-single - ----------------
#NOTES:
     dance-single:
     :
     Beginner:
     2:
     0.094048,0.159546,0.006718,0.047024,0,98,97,1,7,0,0,0.094048,0.159546,0.006718,0.047024,0,98,97,1,7,0,0:
0000
0000
0000
0000
,
0000
0000
0000
0000
,
0000
0000
0000
0000
,
0000
0000
0000
0000
,
0000
0000
0000
0000
,
0000
0000
0000
0000
,
0000
0000
0000
0000
,
0000
0000
0000
0000
,
1000
0000
0000
0000
,
0000
0000
0000
0000
,
0001
0000
0000
0000
,
0000
0000
0000
0000
,
1000
0000
0000
0000
,
0000
0000
0000
0000
,
0001
0000
0000
0000
,
1000
0000
0000
0000
,
0001
0000
0000
0000
,
1000
0000
0000
0000
,
0010
0000
0000
0000
,
0100
0000
0000
0000
,
0001
0000
0000
0000
,
0100
0000
0000
0000
,
1000
0000
0000
0000
,
0100
0000
0000
0000
,
0001
0000
0000
0000
,
0000
0000
0000
0000
,
1000
0000
0000
0000
,
0010
0000
0010
0000
,
0010
0000
0000
0000
,
0100
0000
0000
0000
,
0001
0000
0001
0000
,
0001
0000
0000
0000
,
2000
0000
0000
0000
,
3000
0000
0000
0000
,
0002
0000
0000
0000
,
0003
0000
0000
0000
,
0200
0000
0000
0000
,
0300
0000
0000
0000
,
0020
0000
0000
0000
,
0030
0000
0000
0000
,
1001
0000
0000
0000
,
1000
0000
1000
0000
,
1000
0000
0000
0000
,
0001
0000
0001
0000
,
0001
0000
0000
0000
,
0100
0000
0100
0000
,
0100
0000
0000
0000
,
0010
0000
0000
0000
,
1000
0000
1000
0000
,
1000
0000
0000
0000
,
0001
0000
0001
0000
,
0001
0000
0000
0000
,
1000
0000
1000
0000
,
0001
0000
0001
0000
,
1000
0000
1000
0000
,
0001
0000
0000
0000
,
0000
0000
0000
0000
,
1000
0000
0000
0000
,
0000
0000
0000
0000
,
0010
0000
0000
0000
,
0000
0000
0000
0000
,
0100
0000
0000
0000
,
0000
0000
0000
0000
,
0001
0000
0000
0000
,
1000
0000
0000
0000
,
0001
0000
0001
0000
,
1000
0000
1000
0000
,
0001
0000
0000
0000
,
0100
0000
0000
0000
,
0010
0000
0000
0000
,
2000
0000
3000
0000
,
0001
0000
0000
0000
,
1000
0000
0000
0000
,
0001
0000
0000
0000
,
0100
0000
0000
0000
,
0010
0000
0000
0000
,
1000
0000
0000
0000
,
0001
0000
0000
0000
,
0100
0000
0100
0000
,
1000
0000
0001
0000
,
1000
0000
0001
0000
,
0100
0000
0100
0000
,
0200
0000
0300
0000
,
0001
0000
0000
0000
,
1000
0000
0000
0000
,
0010
0000
0010
0000
,
0010
0000
0010
0000
,
1000
0000
0001
0000
,
0100
0000
0001
0000
,
1000
0000
0010
0000
,
2000
0000
3000
0000
,
0001
0000
0000
0000
,
0100
0000
0000
0000
,
1000
0000
0000
0000
,
0100
0000
0000
0000
,
0001
0000
0000
0000
;

//--------------- dance-single - ----------------
#NOTES:
     dance-single:
     :
     Easy:
     4:
     0.208249,0.287183,0,0.08733,0,217,217,0,13,0,0,0.208249,0.287183,0,0.08733,0,217,217,0,13,0,0:
0000
0000
0000
0000
,
0000
0000
0000
0000
,
0000
0000
0000
0000
,
0000
0000
0000
0000
,
0000
0000
0000
0000
,
0000
0000
0000
0000
,
0000
0000
0000
0000
,
0000
0000
0000
0000
,
2000
0000
0000
0000
,
0000
0000
3000
0000
,
0002
0000
0000
0000
,
0000
0000
0003
0000
,
1000
0000
0001
0000
,
1000
0000
0001
0000
,
0100
0100
0001
0001
,
2000
0000
0000
3000
,
0001
0000
1000
0000
,
0010
0010
0010
0000
,
1000
1000
0001
0001
,
2000
3000
0002
0003
,
1000
1000
0001
0001
,
0100
0000
0010
0000
,
1000
1000
0010
0010
,
1000
0001
1000
0001
,
1000
0000
0100
0000
,
0001
0000
1000
1000
,
0001
0000
1000
0000
,
0010
0000
0100
0100
,
0001
0000
1000
0000
,
0001
0000
0100
0100
,
0001
0000
1000
1000
,
0001
0000
0100
0100
,
0002
0000
0003
0000
,
2000
0000
3000
0000
,
0002
0000
0003
0000
,
2000
0000
3000
0000
,
0010
0000
1000
1000
,
0001
0000
0100
0100
,
0001
0000
1000
0000
,
0020
0000
0030
0000
,
0100
0100
0100
0000
,
0010
0000
1000
1000
,
0001
0000
0100
0000
,
0001
0001
1000
0001
,
1000
0000
0010
0000
,
0001
0000
1000
0000
,
0001
0000
1000
1000
,
0001
0000
0100
0000
,
1000
1000
1000
0000
,
0001
1000
0001
1000
,
0002
0000
0003
0000
,
0100
0000
0001
0001
,
1000
0000
0001
0000
,
0100
0100
0100
0000
,
0001
0001
1000
1000
,
0010
0000
0000
0000
,
0000
0000
0000
0100
,
0100
0000
0000
0000
,
0000
0000
0000
0001
,
1000
0000
0000
0000
,
0000
0000
0000
0000
,
0001
0000
0000
0000
,
1000
0001
0100
0000
,
0001
1000
0001
0000
,
0100
0100
0001
1000
,
0010
0010
0010
1000
,
0001
0001
0001
1000
,
0010
0000
0100
0000
,
0001
0000
1000
0000
,
0001
0000
1000
0000
,
0010
0010
1000
0001
,
1000
0000
0000
0000
,
0010
0000
0000
0000
,
1000
0000
0000
0000
,
0001
0000
0100
0000
,
1000
0000
0100
0000
,
0001
0000
1000
0000
,
0100
0000
0001
0000
,
0100
1000
1000
0001
,
1000
1000
1000
0000
,
0001
0001
0001
0000
,
0100
0001
0100
0001
,
1000
1000
0001
0001
,
1000
0000
0010
0000
,
0100
0100
0001
0001
,
2000
0000
3001
0001
,
1000
0001
1000
0001
,
1000
1000
1000
0010
,
0001
0001
0001
0100
,
1000
0001
1000
0010
,
1000
0000
0001
0000
,
0100
0001
0100
0001
,
2000
0000
3001
0001
,
1000
1000
0001
0001
,
0100
0001
1000
0001
,
0100
0000
0000
0000
;

//--------------- dance-single - ----------------
#NOTES:
     dance-single:
     :
     Medium:
     7:
     0.310935,0.446728,0.047024,0.167943,0.013435,324,317,7,25,0,0,0.310935,0.446728,0.047024,0.167943,0.013435,324,317,7,25,0,0:
0000
0000
0000
0000
,
0000
0000
0000
0000
,
0000
0000
0000
0000
,
0000
0000
0000
0000
,
0000
0000
0000
0000
,
0000
0000
0000
0000
,
0000
0000
0000
0000
,
0000
0000
0000
0000
,
2000
0001
0000
3001
,
0200
0001
0000
0301
,
1000
0001
0100
0001
,
1000
1000
0001
0001
,
0100
0100
0001
0001
,
1000
1000
0010
0010
,
0200
0000
0301
1000
,
0010
1000
0001
1000
,
1001
0100
0010
1000
,
0001
1000
0001
0100
,
0001
0000
1000
0010
,
1000
1000
0001
0001
,
0100
0001
1000
0001
,
1000
0000
0000
1001
0000
0000
0100
0000
,
0001
1000
0001
0100
,
0001
0001
1000
1000
,
1001
0100
0001
0100
,
0010
0100
0010
0100
,
0010
1000
0010
1000
,
0002
0003
2000
3000
,
0010
1000
0010
1000
,
0001
1000
0001
1000
,
0020
0030
0200
0300
,
0001
0001
1000
1000
,
0020
0000
0000
0030
,
0100
0000
0001
0000
,
1000
0000
0001
0001
,
1000
0000
0010
0000
,
0001
0000
0100
0000
,
1000
0000
0100
0000
,
0001
0100
0010
1000
,
2002
0000
0000
3003
,
1000
0000
0010
0000
0100
0001
0100
0000
,
0010
0000
0000
1000
0000
0000
0001
0000
,
0100
0000
0001
0000
1000
0010
1000
0000
,
0001
0100
1000
0100
,
0001
0100
1000
0001
,
2000
3001
0200
0301
,
2000
0000
3002
0000
,
1003
0001
0100
0100
,
0010
0000
0000
0000
0010
0000
0000
0000
1000
0000
0000
0001
0000
0000
0100
0000
,
0001
0000
1000
0000
0001
0100
0001
0000
,
1000
1000
0001
0001
,
1000
0100
0001
0100
,
1000
0000
0001
0100
0000
0100
0000
0100
,
0010
1000
0001
0100
,
0001
0000
0100
0000
0010
1000
0010
1000
,
0001
0000
0000
0000
,
0000
0000
0000
1000
,
1001
0000
0000
0000
,
0000
0000
0000
0001
,
1001
0000
0000
0000
,
0000
0000
0000
0000
,
0000
0000
0000
0000
,
1000
0001
1000
0001
1000
0010
1000
0010
,
1000
0000
0001
0000
0100
0000
0010
2000
,
0000
3001
0100
0001
1000
0000
0001
0000
,
0100
0001
0100
0010
,
1000
0001
1000
0001
0100
0001
0100
0001
,
0100
0010
1000
0001
,
1000
0001
0100
0010
,
2000
3100
0002
0103
,
2000
0000
0002
3003
,
1001
0000
0000
0000
,
1000
0000
0001
0000
,
0100
0000
0000
0000
,
0010
0000
1000
0000
,
0001
0000
0001
0000
,
1000
0000
0001
0000
,
0100
0000
0100
0000
,
0001
0001
1000
1000
,
0010
0000
0000
0000
0100
0000
0000
0000
0001
0000
0000
1000
0000
0000
0001
0000
,
0100
0000
0010
0000
0100
0001
0100
0010
,
0100
0000
0001
1000
0010
0000
0100
0001
,
1000
0001
0100
0100
,
0010
1000
0010
0100
,
0002
0000
1003
0010
0000
0010
0000
0010
,
1000
0000
0001
0000
0100
0010
0100
0010
,
0200
0000
0301
0001
,
1000
0000
0001
0000
1000
0000
0000
0000
0010
0000
0000
0100
0000
0000
0001
0000
,
1000
0000
0010
0000
1000
0000
0000
0000
0001
0000
0000
1000
0000
0000
0010
0000
,
0100
0001
0100
0001
0100
0010
0000
0010
,
1000
0000
0001
0000
0100
0010
0100
0001
,
0100
0001
0100
1000
,
0010
0000
0100
0001
0000
0001
0000
0001
,
1000
0000
0010
0000
0100
0001
0100
0010
,
2000
3002
0203
0320
,
1030
0000
0000
0000
;

//--------------- dance-single - ----------------
#NOTES:
     dance-single:
     :
     Hard:
     13:
     0.468321,0.638184,0.08733,0.161225,0.188096,488,475,13,24,0,0,0.468321,0.638184,0.08733,0.161225,0.188096,488,475,13,24,0,0:
0000
0000
0000
0000
,
0000
0000
0000
0000
,
0000
0000
0000
0000
,
0000
0000
0000
0000
,
0000
0000
0000
0000
,
0000
0000
0000
0000
,
0000
0000
0000
0000
,
0000
0000
0000
0000
,
2000
0000
0000
0000
,
0000
0000
0000
0000
,
3002
0000
0000
0000
,
1000
1000
0010
1003
,
0010
0000
0100
0000
0001
1000
0001
0000
,
0100
0000
0010
0000
1000
0001
1000
0000
,
0020
0000
0000
0000
0000
0000
0000
0000
1030
0000
0000
0001
0000
0000
0100
0000
,
0002
0000
0003
0110
,
1001
0000
0000
0000
0010
0000
0000
0000
1000
0000
0000
0010
0000
0000
0100
0000
,
0001
0000
0100
0000
0010
0000
0000
0000
0100
0000
0000
0001
0000
0000
1000
0000
,
0001
0100
0001
1000
0000
0010
0100
0001
,
1000
0000
0000
0000
1000
0000
0000
0000
0001
0000
0000
0100
0000
0000
1000
0000
,
0001
0000
0000
0100
0000
0000
0010
0000
1000
0000
0000
0001
0000
0000
0100
0000
,
0020
0000
1030
0001
0000
0001
0100
0001
,
1000
0000
0010
0100
0001
0100
0010
0100
,
0002
0010
0100
1003
,
1001
0000
0010
1000
0000
0010
1000
0001
,
0000
0000
0000
0000
0100
0000
0010
0000
1000
0000
0000
0001
0000
0000
0100
0000
,
0100
0000
0000
0000
0010
0000
0010
0000
0000
0000
0000
0000
1000
0000
0001
1000
,
0001
0000
0100
0001
0001
0000
1000
0001
,
0100
0000
0000
0000
0010
0000
0000
0000
1000
0000
0000
0000
0010
0000
0100
0001
,
0100
0000
0000
0000
0010
0000
1000
0000
1000
0000
0000
0001
0000
0000
0100
0000
,
0020
0000
1030
0001
0000
0001
0100
0001
,
1000
0100
0001
0100
,
1000
0000
0000
0000
0100
0000
0000
0000
0010
0000
0000
0000
0001
0000
0100
0001
,
0100
0000
0000
0000
0010
0000
1000
0000
1000
0000
0000
0001
0000
0000
0100
0000
,
0010
0000
0000
0000
0100
0000
0100
0000
0001
0000
0000
0000
1000
0000
0001
1000
,
0001
0100
0001
0100
,
1000
0000
0010
0100
0001
0000
0100
0010
,
1000
0000
0001
0100
0001
0000
0100
0010
,
0100
0000
0001
1000
0010
0100
0010
0100
,
0002
0000
0000
2003
0000
0000
3000
0000
,
1001
0000
0001
0000
0100
0010
0100
0001
,
1000
0000
0010
0100
0000
0100
0001
0000
,
1000
0000
0010
0100
0000
0100
0001
1000
,
0001
0000
0100
0010
0100
0000
0001
0000
,
1001
0100
0110
1000
,
1001
0000
0001
0100
,
0020
0000
0000
0000
1030
0000
0000
0000
0001
0000
0000
1000
0000
0000
0010
0000
,
0100
0000
0001
0000
0100
0000
0000
0000
0010
0000
0000
1000
0000
0000
0010
0000
,
0100
0000
0001
0000
0001
0000
0000
0000
1000
0000
0000
0001
0000
0000
1000
0000
,
0010
0100
0010
1000
0010
0100
0001
0100
,
0010
0000
0000
0000
0010
0000
0000
0000
0100
0001
0000
0100
0001
0000
1000
0000
,
0010
0000
0000
0100
0000
0000
0001
0000
1000
0000
0000
0001
0000
0000
0100
0000
,
0020
0000
1030
0001
0000
0100
0010
0100
,
0001
0000
0000
0000
1000
0000
0001
0000
1000
0010
0000
1000
0010
0000
0100
0000
,
0002
1000
0100
0013
,
1001
0000
0000
0000
,
0000
0000
0000
1000
,
1001
0000
0000
0000
,
0000
0000
0000
0001
,
0101
0000
0000
0000
,
0000
0000
0000
0000
,
0000
0000
0000
0000
0000
0000
0000
0010
,
1000
0000
0010
0000
0100
0000
0010
1000
0000
0010
1000
0000
0001
0000
1000
0000
,
0010
0000
0100
0000
0001
0000
1000
0020
,
0000
0130
0001
0100
0010
0000
0010
0000
,
1000
0001
1000
0001
1000
0010
0100
0010
,
0100
0000
0001
0000
0100
0000
0001
0000
1000
0010
1000
0000
0010
1000
0010
0000
,
0100
0001
1000
0001
0100
0001
0100
0010
,
0100
0001
1000
0010
1000
0010
0100
0001
,
0100
0010
1000
0001
,
1000
0010
1000
0000
0010
1000
0010
0000
0100
0001
0100
0000
0001
0100
0001
0000
,
1001
0000
0000
0000
0000
0100
0001
1000
,
0001
0000
0100
0001
0000
0001
1000
0000
,
0010
0000
0100
0001
0000
0001
1000
0010
,
0010
0000
0000
0100
0200
0000
0301
0000
,
1000
0010
0100
0001
,
1000
0001
1000
0010
,
0100
0000
0000
0000
0010
0000
0000
0000
1000
0000
0000
0010
0000
0000
0001
0000
,
1000
0000
0010
0000
1000
0000
0001
1000
0000
0010
1000
0000
0002
0000
0000
0000
,
1003
0000
0010
0000
1000
0000
0010
0000
0100
0000
0000
0001
0000
0000
0100
0000
,
0010
0000
1000
0000
0010
0000
0100
0000
0001
1000
0000
0020
0000
0000
1030
0000
,
0001
0000
0100
0001
0100
0000
0010
0000
0100
0000
0001
0000
1000
0000
0010
0000
,
0200
0000
0000
0000
0010
0000
0000
0000
0301
0100
0000
0001
1000
0000
0010
0000
,
0100
0000
0000
0001
0000
0000
0100
0000
0010
0000
0000
1000
0000
0000
0010
0000
,
0200
0000
0310
1000
0000
0010
0100
0010
,
1000
0000
0000
0000
0001
0000
0100
0000
0010
1000
0000
0001
1000
0000
0010
0000
,
0200
0010
0301
1001
,
1000
0000
0001
1000
0001
0000
0100
0000
0010
0000
0000
1000
0000
0000
0001
0000
,
0100
0000
0010
0100
0010
0000
0100
0000
0001
0000
0000
1000
0000
0000
0010
0000
,
0100
0001
0100
0010
0100
0010
1000
0010
,
0200
0000
0000
0000
0010
0000
0000
0000
0301
0100
0000
0010
0100
0000
0001
0000
,
0100
0010
0000
0010
1000
0000
0010
0000
0100
0001
0100
0001
0100
0000
0010
1000
,
0020
0000
0130
0001
0000
0001
1000
0001
,
0100
0000
0010
0000
0100
0000
0001
0000
0100
0010
0000
1000
0010
0000
0100
0000
,
0002
0000
0200
0003
0020
0300
1030
0000
,
1001
0000
0000
0000
;
