#TITLE:Marching To A New Era;
#SUBTITLE:;
#ARTIST:ZumaTK;
#TITLETRANSLIT:;
#SUBTITLETRANSLIT:;
#ARTISTTRANSLIT:;
#GENRE:;
#CREDIT:;
#MUSIC:Marching To A New Era.ogg;
#BANNER:Marching To A New Era.png;
#BACKGROUND:Marching To A New Era-bg.png;
#CDTITLE:;
#SAMPLESTART:102.235;
#SAMPLELENGTH:15.000;
#SELECTABLE:YES;
#OFFSET:-1.577;
#BPMS:0.000=152.000;
#STOPS:303.750=0.396;
#BGCHANGES:;
#FGCHANGES:;

//--------------- dance-single - ----------------
#NOTES:
     dance-single:
     :
     Beginner:
     5:
     0.189847,0.257794,0.107751,0.0431,0,185,170,15,6,0,0,0.189847,0.257794,0.107751,0.0431,0,185,170,15,6,0,0:
0000
0000
0000
0000
,
0000
0000
0000
0000
,
0000
0000
0000
0000
,
0000
0000
0000
0000
,
0000
0000
0000
0000
,
0000
0000
0000
0000
,
0000
0000
0000
0000
,
0000
0000
0000
0000
,
1001
0000
0000
0000
,
1001
0000
0000
0000
,
1000
0000
0001
0000
,
1000
0000
1000
0000
,
0002
0003
2000
3000
,
0010
0000
1000
0000
,
0101
0000
1010
0000
,
1001
0000
1000
0000
,
0001
0001
0001
0000
,
1000
1000
1000
0000
,
0010
0010
0010
0000
,
0100
0100
0100
0000
,
0002
0000
0003
0000
,
2000
0000
3000
0000
,
0010
0000
1000
0000
,
0001
1000
0001
1000
,
0010
0010
0010
0000
,
1000
1000
1000
0000
,
0001
0001
0001
0000
,
0100
0000
0010
0000
,
1000
0000
0001
0000
,
1000
0001
1000
0001
,
1000
0000
0010
0000
,
0100
0100
0001
0001
,
1000
0000
0000
0000
,
0001
0000
0000
0000
,
0100
0000
0000
0000
,
0010
0000
0010
0000
,
1000
0000
0000
0000
,
0001
0000
0000
0000
,
0100
0000
0100
0000
,
0010
0000
1000
0000
,
1001
0000
0000
0000
,
0100
0000
0000
0000
,
0010
0000
1000
0000
,
0010
0000
0100
0000
,
0001
0000
0000
0000
,
1000
0000
0000
0000
,
0010
0000
0000
0000
,
1000
0000
0001
0000
,
1001
0000
0110
0000
,
1001
0000
0010
0000
,
0101
0000
1000
0000
,
1010
0000
0001
0000
,
1000
1000
1000
0000
,
0001
0000
1000
0000
,
0020
0030
0200
0300
,
0001
0001
1000
1000
,
0001
0000
1001
0000
,
0100
0100
0001
0001
,
1000
0000
1001
0000
,
0010
0010
1000
1000
,
0001
0000
1000
0000
,
0010
0000
0100
0100
,
0001
0000
1000
0000
,
0001
1000
0001
1000
,
1001
0000
0010
0000
,
1000
1000
1000
0000
,
0001
0000
0100
0000
,
0010
0010
1000
1000
,
0001
0000
0100
0000
,
1000
0000
0010
0000
,
0001
0001
0100
0100
,
0001
1000
0001
1000
,
0010
0010
0010
0010
,
1000
1000
1000
1000
,
0001
0001
0001
0001
,
0100
0100
0010
0010
,
0000
1000
0000
0001
,
0000
1000
0000
0010
,
0000
0100
0000
0001
,
0001
1000
1000
1001
;

//--------------- dance-single - ----------------
#NOTES:
     dance-single:
     :
     Easy:
     7:
     0.267838,0.406041,0.150851,0.165218,0.007183,261,240,21,23,0,0,0.267838,0.406041,0.150851,0.165218,0.007183,261,240,21,23,0,0:
0000
0000
0000
0000
,
0000
0000
0000
0000
,
0000
0000
0000
0000
,
0000
0000
0000
0000
,
0000
0000
0000
0000
,
0000
0000
0000
0000
,
0000
0000
0000
0000
,
0000
0000
0000
0000
,
1002
0000
0000
0000
,
0203
0000
0000
0000
,
0310
0000
1000
0000
,
1001
0000
0010
1000
,
1001
0000
0101
0000
,
1000
1000
0001
0000
,
1010
0000
0101
0000
,
1001
0010
1000
0010
,
0101
1000
0010
1000
,
0010
0100
0001
0100
,
0010
1000
0100
0001
,
0100
0010
0100
0001
,
2000
3010
0002
0103
,
1000
1000
0010
0100
,
0001
0000
1000
0000
,
0010
0010
0100
0001
,
1001
0010
1000
0001
,
0100
0010
0100
0001
,
1000
0100
0001
0100
,
0010
1000
0001
0100
,
2000
3100
0002
0103
,
1010
1010
1001
1001
,
0010
1000
0001
1000
,
0220
0000
0000
0330
,
1001
0000
1000
0000
,
0001
0001
0100
0000
,
1000
0000
0010
0000
,
0200
0000
0301
0000
,
1000
0000
0010
0000
,
0100
0100
0001
1000
,
0010
0000
0100
0000
,
0002
0000
0000
0003
,
1000
0100
0001
0100
,
1000
0010
0001
0010
,
1000
1000
0001
0001
,
1000
0010
0100
0100
,
0001
1000
0001
0100
,
0010
1000
0010
0100
,
0002
0103
2000
3010
,
0002
0000
0000
0003
,
1010
0000
1001
0000
,
0100
0010
0100
0001
,
1010
0000
1001
0000
,
0100
0010
0100
0001
,
1000
1000
0010
0010
,
0100
0000
0000
0100
0000
0000
0001
0000
0000
0001
0000
0000
1000
0000
0000
0000
,
0010
0100
0010
1000
,
0001
0100
0001
1000
,
0020
0000
1030
0000
,
0001
0100
1000
0010
,
2000
0000
3001
0000
,
0100
0010
0100
0001
,
1000
1000
0010
0100
,
0001
0001
1000
0010
,
0200
0000
0010
0000
,
0302
0100
0010
1003
,
1001
0010
1000
0010
,
0100
0001
0100
0010
,
1000
0100
0001
0100
,
0010
1000
0010
0001
,
2000
3100
0002
0103
,
1000
1000
0010
0100
,
0001
0100
0010
0010
,
2000
0010
0001
3001
,
0010
0010
0010
1000
,
0001
0001
0001
0100
,
0010
0010
0010
1000
,
0001
0001
1000
0010
,
0000
1000
0010
0100
,
0001
0100
0010
2000
,
0000
0001
3000
0010
,
1000
0010
0100
2002
,
0000
0000
0000
3003
;

//--------------- dance-single - ----------------
#NOTES:
     dance-single:
     :
     Medium:
     13:
     0.381746,0.522053,0.179585,0.280152,0.028734,372,347,25,39,0,0,0.381746,0.522053,0.179585,0.280152,0.028734,372,347,25,39,0,0:
0000
0000
0000
0000
,
0000
0000
0000
0000
,
0000
0000
0000
0000
,
0000
0000
0000
0000
,
0000
0000
0000
0000
,
0000
0000
0000
0000
,
0000
0000
0000
0000
,
0000
0000
0000
0000
,
2010
0000
0000
0000
,
3020
0000
0000
0000
,
0230
0000
0001
0000
,
0320
0000
1030
1001
,
0020
0000
2030
0000
,
3010
0100
0001
1000
,
0020
0000
0230
0000
,
0302
0000
0000
0003
,
1001
0000
0100
0000
0010
0000
1000
0001
,
1000
0000
0010
1000
0010
0000
1000
0001
,
0100
0010
0100
0001
,
1000
0000
0010
0100
0010
0000
1000
0010
,
0100
0001
0100
1000
,
0010
0000
1000
0001
0000
0001
0100
0010
,
1000
0000
0010
0000
0100
0000
0001
1000
,
0001
0000
1000
0000
0010
0100
0010
1000
,
0001
0000
0100
0000
0010
0000
0100
0001
,
0100
0000
0010
1000
0001
0000
0100
0010
,
1000
0000
0001
0000
0100
0000
0010
1000
,
0001
0000
0100
0010
0100
0001
0100
0010
,
1000
0000
0001
0100
0010
0100
0001
1000
,
0001
0000
1010
0000
0001
0100
0010
0100
,
0001
0000
1000
0000
0010
0100
0010
1000
,
0002
0000
0000
0003
,
1001
0010
0010
1000
,
0001
0001
0001
0100
,
0010
0010
0010
1000
,
0100
0100
0100
1000
,
0101
0010
1000
0010
,
0100
0010
0100
0001
,
1000
0010
0001
0100
,
2000
0010
0010
3100
,
1001
0100
0010
0100
,
0001
0100
0010
1000
,
0001
0100
0001
1000
0000
1000
0010
0100
,
0002
0000
0203
0000
0310
1000
0000
1000
,
0001
0000
0100
0000
1000
0000
0010
0100
,
0010
0000
1000
0010
1000
0001
0100
0010
,
1000
0000
0010
0000
0100
0001
2000
0000
,
3020
0000
0000
0030
,
2001
0000
0000
3010
0010
0000
0000
0000
,
1001
0100
0010
1000
,
0002
0000
0000
0103
0100
0000
0000
0000
,
1010
0100
0001
1000
,
0101
0101
1001
1001
,
0010
0000
0000
1000
0000
0000
0010
0000
0000
0100
0000
0000
0001
0000
0001
0000
,
1000
0010
0100
0010
,
1000
1000
1001
1001
,
1020
0000
0130
0001
1000
0000
0010
0100
,
0002
2003
3010
0101
,
0020
0000
1030
0001
1000
0010
0100
0001
,
2000
0000
3020
0000
0130
0001
0100
0010
,
1000
0001
1000
0010
0100
0010
0100
0001
,
2000
0000
3010
0100
0002
0000
0013
0000
,
2000
0000
0010
0000
,
3001
0000
0110
0000
0101
0000
0010
1000
,
0002
0000
0000
0000
0103
0000
0010
0000
0100
0000
0000
0001
0000
0000
1000
0000
,
0010
0000
0100
0001
0100
0000
0010
1000
,
0010
0000
0000
0000
0100
0000
0010
0000
1000
0000
0000
0010
0000
0000
0100
0000
,
0002
0000
0103
0010
2000
0000
3010
0100
,
0002
0000
0103
0010
0100
0001
0100
0010
,
1000
0010
0100
0010
0000
0010
1000
0001
,
1000
0000
0000
0010
0000
0000
0100
0000
0001
0000
0100
0000
0010
0000
1000
0000
,
0020
0100
1000
0130
,
0101
0000
1001
0100
0010
0100
0010
1000
,
0002
0000
0103
0010
2000
0000
3001
0100
,
0110
0000
1010
0001
0100
0010
0100
0001
,
1000
0010
1000
0010
0100
0001
0100
0010
,
1000
0000
0010
0000
1000
0000
0000
0001
0000
0000
0100
0000
0020
0000
0000
2030
,
0000
0000
3010
0000
0200
0000
0000
0302
0000
0000
1003
0000
0010
0000
0000
0000
,
0100
0000
0001
0000
1000
0000
0010
0100
,
0010
0100
0001
0010
0100
1000
2002
0000
,
0000
0000
0000
3003
;

//--------------- dance-single - ----------------
#NOTES:
     dance-single:
     :
     Hard:
     16:
     0.540807,0.754077,0.208318,0.316069,0.283744,527,498,29,44,0,0,0.540807,0.754077,0.208318,0.316069,0.283744,527,498,29,44,0,0:
0000
0000
0000
0000
,
0000
0000
0000
0000
,
0000
0000
0000
0000
,
0000
0000
0000
0000
,
0000
0000
0000
0000
,
0000
0000
0000
0000
,
0000
0000
0000
0000
,
0000
0000
0000
0000
,
2001
0000
0000
0000
,
3020
0000
0000
0000
,
0230
0000
0301
0000
,
1010
0000
0001
0101
,
2001
0000
3020
0000
,
0130
0001
0100
0010
0010
1000
0010
0100
,
0002
0100
2003
0100
,
3002
0000
0000
0000
0000
0000
0000
0000
0000
0000
0000
0000
0003
0000
1000
0001
,
1000
0000
0000
0000
0010
0000
1000
0000
0001
0100
0000
0100
0010
0000
1000
0000
,
0020
0000
0000
0000
0100
0000
0000
0000
1030
0000
0000
0000
0001
0000
0100
0010
,
1000
0000
0000
0000
0010
0000
0100
0000
0001
1000
0000
1000
0010
0000
0100
0000
,
0002
0000
0000
0000
0103
0000
0010
1000
0200
0000
0000
0000
1300
0000
0010
0100
,
0002
0000
0103
0010
0100
0001
0100
0010
,
2000
0000
3100
0010
0000
0010
0001
1000
,
0001
0100
0000
0001
0100
0000
0010
0000
1000
0000
0010
0000
0100
0000
0001
0100
,
0020
0000
0000
0000
0100
0000
0000
0000
1030
0000
0001
0000
0100
0010
0100
0010
,
1000
0000
0000
0000
0010
0000
0100
0000
0001
1000
0000
1000
0010
0000
0100
0000
,
0002
0000
0000
0000
0100
0000
0000
0000
0010
0000
0000
0000
1003
0000
0010
0100
,
0020
0000
0000
0000
0130
0000
0001
0000
1000
0010
0000
0010
0100
0000
0001
0000
,
2000
0000
0000
0000
3010
0000
0100
0001
2000
0000
0000
0000
3001
0000
0100
0010
,
0200
0000
0301
1000
0001
0100
0010
1000
,
0010
0000
0100
0001
0100
0000
0001
0100
0001
0000
1000
0000
0010
0100
0000
0100
,
0002
0000
0000
0000
0103
0000
0010
1000
0001
0000
0100
0000
0010
0000
1000
0000
,
0002
0000
0000
0003
,
1001
0100
0001
0100
0010
1000
0000
1000
,
0010
0100
0001
1000
0000
1000
0010
0100
,
0001
0010
1000
0010
0000
0001
0100
0010
,
2000
0000
0000
0000
3000
0010
0100
0001
,
0000
0100
0100
0010
1000
0010
0000
0010
,
0100
0001
1000
0001
0000
0100
0010
1000
,
0001
0100
0000
0001
0100
0000
0010
0000
0100
0000
0001
0000
1000
0000
0010
0000
,
0200
0000
0000
0300
,
0001
0100
0010
1000
0010
0100
0010
1000
,
0001
0001
0100
0020
0000
0130
0001
1000
,
0010
0010
0100
0001
1000
1000
0010
0100
,
0002
0000
2003
0000
3010
0100
0010
1000
,
1001
0001
0100
0010
1000
0001
0000
0001
,
0100
0010
1000
1000
0010
0100
0001
0100
,
0010
1000
0000
0001
1000
0000
0010
0000
0100
0000
0001
0000
0100
0000
0010
0000
,
2000
0000
0000
3000
,
0102
0000
0000
1003
1010
0010
0100
0001
,
2000
3010
0002
0103
,
2010
0000
0000
3001
0101
1000
0010
0100
,
0001
0100
0101
1001
,
0100
0001
0100
0010
0100
0001
1000
0001
,
0100
0001
0000
0100
0001
0000
1000
0010
0000
1000
0010
0000
0101
0000
1001
0000
,
0010
0000
0100
0000
0010
0000
1000
0000
0001
0100
0000
0100
0010
0000
1000
0000
,
0002
0000
0000
0000
0100
0000
0000
0000
1003
0000
0010
0100
0010
0000
1000
0010
,
2000
0000
3010
0100
0001
0100
0010
1000
,
0101
0000
0110
0000
1000
0010
0100
0001
,
2010
0000
3010
0100
0001
0100
0010
1000
,
1010
0010
0110
0100
0101
0000
1001
0000
,
0010
0000
0100
0000
0010
0000
1000
0000
0001
0100
0000
0100
0010
0000
1000
0000
,
0020
0000
0130
0001
2000
0000
3010
0000
,
1002
0000
0100
0003
,
1010
0000
0000
0000
0101
0000
0000
0000
1001
0000
0100
0000
0010
1000
0010
0100
,
0002
0000
0000
0000
0103
0000
0010
0000
1000
0010
0000
0010
0100
0000
0001
0000
,
2000
0000
0000
0000
0001
0000
0000
0000
3010
0000
0100
0000
0001
0000
1000
0010
,
0200
0000
0000
0000
0310
0000
1000
0000
0001
0100
0000
0100
0010
0000
1000
0000
,
0002
0000
0000
0000
0103
0000
0010
1000
0020
0000
0000
0000
0130
0000
0001
1000
,
0010
0000
0100
0010
0100
0001
1000
0010
,
0200
0000
0310
1000
0000
1000
0000
0001
,
0100
0001
0000
1000
0010
0000
0100
0000
0001
0000
0100
0010
1000
0000
0001
0000
,
0100
0000
0010
1000
0010
0000
0100
0001
0100
0000
0010
0100
0010
1000
0010
0100
,
0001
0000
1000
0010
1000
0000
0010
1000
0010
0000
1000
0010
1000
0000
0001
0000
,
0100
0000
0001
0010
0001
0000
0010
0001
0010
0000
0001
0010
0001
0000
0100
0000
,
0010
0000
1000
0100
1000
0000
0100
1000
0100
0000
1000
0100
1000
0000
0001
0000
,
0100
0010
0000
0010
1000
0000
1010
0000
0010
0100
0000
0100
0001
0000
0101
0000
,
1001
0000
1010
0000
0100
0001
0000
0001
1000
0000
0010
0000
0100
0001
0100
0010
,
1000
0000
0010
0000
0100
0010
1000
0010
0100
0000
0001
0000
0100
0000
0010
0000
,
0100
0001
1000
0010
0100
0001
1000
0001
,
1000
0000
0010
0000
1000
0100
0001
0100
1000
0010
0100
0001
2000
0000
0000
0000
,
0000
0000
0000
3000
;
