#TITLE:Keep on lovin' you;
#SUBTITLE:;
#ARTIST:KURi-ZiLL;
#TITLETRANSLIT:;
#SUBTITLETRANSLIT:;
#ARTISTTRANSLIT:;
#GENRE:;
#CREDIT:;
#BANNER:Keep on lovin you.png;
#BACKGROUND:Keep on lovin you-bg.png;
#LYRICSPATH:;
#CDTITLE:../cdtitle.png;
#MUSIC:Keep on lovin you.ogg;
#OFFSET:1.466000;
#SAMPLESTART:51.803001;
#SAMPLELENGTH:15.000000;
#LASTBEATHINT:1.081600;
#SELECTABLE:YES;
#BPMS:0.000000=156.000000
;
#STOPS:
;
#BGCHANGES:;
#KEYSOUNDS:;
#ATTACKS:;

//---------------dance-single - ----------------
#NOTES:
     dance-single:
     :
     Beginner:
     3:
     0.147762,0.225297,0.066021,0.022007,0.000000,94.000000,88.000000,6.000000,2.000000,0.000000,0.000000,0.147762,0.225297,0.066021,0.022007,0.000000,94.000000,88.000000,6.000000,2.000000,0.000000,0.000000:
// measure 0
0000
0000
0000
0000
,  // measure 1
0000
0000
0000
0000
,  // measure 2
0000
0000
0000
0000
,  // measure 3
0000
0000
0000
0000
,  // measure 4
0000
0000
0000
0000
,  // measure 5
0000
0000
0000
0000
,  // measure 6
1000
0000
0000
0000
,  // measure 7
0100
0000
0000
0000
,  // measure 8
0010
0000
0000
0000
,  // measure 9
0001
0000
0000
0000
,  // measure 10
0000
0000
0000
0000
,  // measure 11
1001
0000
0000
0000
,  // measure 12
0100
0000
0100
0000
,  // measure 13
0100
0000
0000
0000
,  // measure 14
0001
0000
1000
0000
,  // measure 15
0001
0000
0000
0000
,  // measure 16
0010
0000
0010
0000
,  // measure 17
0010
0000
0000
0000
,  // measure 18
1000
0000
0001
0000
,  // measure 19
1000
0000
0000
0000
,  // measure 20
0001
0000
0000
0000
,  // measure 21
0100
0000
0000
0000
,  // measure 22
0001
0000
0010
0000
,  // measure 23
1000
0000
0000
0000
,  // measure 24
0010
0000
0000
0000
,  // measure 25
1000
0000
0000
0000
,  // measure 26
0001
0000
0100
0000
,  // measure 27
1000
0000
0001
0000
,  // measure 28
1000
0000
0001
0000
,  // measure 29
1000
0000
0010
0000
,  // measure 30
1000
0000
0010
0000
,  // measure 31
1000
0000
0001
0000
,  // measure 32
0100
0000
0001
0000
,  // measure 33
0100
0000
0001
0000
,  // measure 34
0200
0000
0300
0000
,  // measure 35
1001
0000
0000
0000
,  // measure 36
1000
0000
0010
0000
,  // measure 37
1000
0000
0001
0000
,  // measure 38
1000
1000
1000
0000
,  // measure 39
1001
0000
0000
0000
,  // measure 40
0001
0000
0100
0000
,  // measure 41
0001
0000
0010
0000
,  // measure 42
0001
0001
0001
0000
,  // measure 43
1001
0000
0000
0000
,  // measure 44
0010
0000
1000
0000
,  // measure 45
0010
0000
0100
0000
,  // measure 46
0010
0010
0010
0000
,  // measure 47
1001
0000
0000
0000
,  // measure 48
0100
0000
0001
0000
,  // measure 49
0100
0000
0010
0000
,  // measure 50
0100
0100
0100
0000
,  // measure 51
1001
0000
0100
0000
,  // measure 52
0010
0000
0001
0000
,  // measure 53
1000
0000
0010
0000
,  // measure 54
0100
0000
0001
0000
,  // measure 55
1000
0000
0001
0000
,  // measure 56
1000
0000
0100
0000
,  // measure 57
0010
0000
0001
0000
,  // measure 58
2000
0000
3000
0000
;

//---------------dance-single - ----------------
#NOTES:
     dance-single:
     :
     Easy:
     5:
     0.202779,0.289668,0.044014,0.154049,0.000000,129.000000,125.000000,4.000000,14.000000,0.000000,0.000000,0.202779,0.289668,0.044014,0.154049,0.000000,129.000000,125.000000,4.000000,14.000000,0.000000,0.000000:
0000
0000
0000
0000
,
0000
0000
0000
0000
,
0000
0000
0000
0000
,
0000
0000
0000
0000
,
0000
0000
0000
0000
,
0000
0000
0000
0000
,
1000
1000
1000
0000
,
0100
0100
0100
0000
,
0010
0010
0010
0010
,
0001
0001
0001
0000
,
2002
0000
3003
0000
,
1001
0000
0010
0000
,
1000
0000
1000
0000
,
0002
0000
1003
0000
,
2000
0000
3001
0000
,
1001
0000
0100
0000
,
0001
0000
0001
0000
,
2000
0000
3001
0000
,
0002
0000
1003
0000
,
1000
0000
0001
0000
,
1000
0000
0010
0000
,
2000
0000
3000
0000
,
0002
0000
0103
0000
,
1000
0000
0001
0000
,
1000
0000
0001
0000
,
1000
0000
0010
0000
,
2000
0000
3000
0000
,
0001
0001
0001
0000
,
0010
0010
0010
0000
,
1000
0000
0100
0000
,
0010
0000
0001
0000
,
1000
1000
1000
0000
,
0001
0000
0010
0000
,
0100
0000
1000
0000
,
0002
0000
1003
0000
,
1000
1000
1000
0000
,
0001
0001
0001
0000
,
1000
0000
0001
0000
,
1000
1000
1000
0000
,
0001
0001
0001
0000
,
1000
1000
1000
0000
,
0001
0000
1000
0000
,
0001
0001
0001
0000
,
1000
1000
1000
0000
,
0001
0001
0001
0000
,
1000
0000
0001
0000
,
1000
1000
1000
0000
,
0001
1000
0001
0000
,
1000
0001
1000
0000
,
0001
0000
1000
0000
,
0001
0001
0001
0000
,
1001
0000
0100
0000
,
0010
0010
0010
0000
,
2000
0000
3010
0000
,
0002
0000
0103
0000
,
1000
0000
0001
0000
,
1000
1000
1000
0000
,
0002
0000
1003
0000
,
2000
0000
3001
0000
;

//---------------dance-single - ----------------
#NOTES:
     dance-single:
     :
     Medium:
     7:
     0.275088,0.356056,0.044014,0.165053,0.022007,175.000000,171.000000,4.000000,15.000000,0.000000,0.000000,0.275088,0.356056,0.044014,0.165053,0.022007,175.000000,171.000000,4.000000,15.000000,0.000000,0.000000:
0000
0000
0000
0000
,
0000
0000
0000
0000
,
0000
0000
0000
0000
,
0000
0000
0000
0000
,
0000
0000
0000
0000
,
0000
0000
0000
0000
,
1000
0100
1000
0000
,
0100
0010
0100
0000
,
0010
1000
0010
1000
,
0001
0000
0000
0000
1000
0000
0000
0000
0001
0000
0000
0100
0000
0000
0001
0000
,
2000
0000
3000
0000
,
1001
0000
0010
0000
,
1000
0100
1000
0000
,
0002
0000
1003
0000
,
1000
0001
1000
0000
,
1001
0000
0100
0000
,
0001
0100
0001
0000
,
2000
0000
3001
0000
,
0001
0001
0001
0000
,
1000
0000
0001
0000
,
1000
0010
1000
0001
,
2000
0000
3100
0000
,
0001
0001
0001
0000
,
1000
0000
0001
0000
,
1000
0010
1000
0000
,
0001
0000
0100
0000
,
0020
0000
0030
0000
,
0001
0001
0001
1000
,
0010
0010
0010
1000
,
0002
0000
0103
0100
,
0020
0000
1030
0000
,
1000
0100
1000
0100
,
1000
0010
1000
0010
,
1000
0001
1000
0001
,
1000
0000
0000
0100
0000
0000
0010
0000
0000
0000
0000
0000
0001
0000
0000
0000
,
1000
0100
1000
0100
,
1000
0001
1000
0001
,
2000
3100
0002
0013
,
1000
0000
1000
0000
1000
0001
1000
0000
,
0001
0010
0001
0010
,
0001
1000
0001
1000
,
0002
1003
2000
3001
,
0001
0000
0001
0000
0001
1000
0001
0000
,
1000
0000
0010
0000
1000
0000
0001
1000
,
0001
0000
1000
0000
0001
0000
1000
0010
,
1000
0010
1000
0001
,
1000
0000
0001
0000
1000
0001
1000
0000
,
0002
0000
0100
0103
,
2000
0000
0010
3010
,
0001
0000
1000
0000
,
0001
1000
0001
0000
1001
0000
0000
0000
,
1001
0000
0100
0000
,
0010
0100
0010
0000
,
2000
0000
3010
0000
,
0001
0001
0100
0000
,
1000
0000
0001
0000
,
1000
0010
1000
0000
,
0002
0000
1003
0000
,
1000
0000
0000
0001
0000
0000
1000
0000
0001
0000
0100
0000
;

//---------------dance-single - ----------------
#NOTES:
     dance-single:
     :
     Hard:
     13:
     0.496730,0.614787,0.077025,0.341109,0.209067,316.000000,309.000000,7.000000,31.000000,0.000000,0.000000,0.496730,0.614787,0.077025,0.341109,0.209067,316.000000,309.000000,7.000000,31.000000,0.000000,0.000000:
0000
0000
0000
0000
,
0000
0000
0000
0000
,
0000
0000
0000
0000
,
0000
0000
0000
0000
,
0000
0000
0000
0000
,
0000
0000
0000
0000
,
1000
0100
1000
0000
,
0100
0010
0100
0000
,
0010
1000
0010
1000
,
0001
0000
0000
0000
1000
0000
0000
0000
0001
0000
0000
1000
0000
0001
1000
0000
,
0002
0000
0000
0003
,
1001
0000
0000
1000
0000
0000
0001
0000
0200
0000
0000
0000
0300
0000
0010
0000
,
1000
0000
0000
0001
0000
0000
0100
0000
0001
0000
0000
0000
0000
0000
0001
0000
,
1000
0000
0001
0100
0000
0001
0200
0000
0000
0000
0000
0000
0310
0000
0000
1000
,
0000
0000
0010
0000
0000
1000
0000
0000
0010
0000
0100
0000
0010
0000
1000
0000
,
0001
0000
0000
0100
0000
0000
0010
0000
0002
0000
0000
0000
0003
0000
0100
0000
,
0010
0000
0000
1000
0000
0000
0100
0000
0002
0000
0000
0000
0003
0000
0100
0000
,
0001
0000
1000
0100
0000
1000
0002
0000
0000
0000
0000
0000
0103
0000
0000
0001
,
0000
0000
0100
0000
0000
0001
0000
0000
0100
0000
0010
0000
0100
0000
0010
0000
,
1000
0000
0100
0000
0001
0100
0001
0000
,
1000
0000
0010
0000
1000
0010
1000
0000
,
0002
0000
0103
0100
,
0001
1000
0001
0200
0000
0310
0000
0000
,
1010
0000
0010
0000
0001
0100
0001
0000
,
1000
0000
0010
0000
1000
0100
1000
0000
,
0001
0000
0100
0000
1000
0000
0001
0010
,
0001
0100
0001
2000
0000
0000
3001
0100
,
1000
0000
0001
0000
1000
0010
1000
0001
,
0000
0010
0000
0100
0000
1000
0001
0100
,
0002
0000
0103
0100
0000
0001
1000
0100
,
0000
0010
0001
0000
1000
0000
1001
0000
,
0001
0100
0001
0000
1000
0010
1000
0000
,
0001
0101
0001
1001
,
1000
0001
1000
0001
0100
0001
0100
0000
,
0010
0000
0000
0100
0000
0000
1001
0000
0000
0000
0100
0000
0010
0000
0100
0000
,
0001
0100
0010
2000
0000
3200
0000
1300
,
0001
0100
0001
0010
0000
0100
0000
2000
,
0000
3100
0100
0000
0001
1000
0010
2000
,
0000
3001
0001
0100
0000
0001
1000
0001
,
1000
0010
1000
0001
0000
0100
0000
0001
,
1000
0001
1000
0010
0000
0100
0000
0002
,
0000
1003
1000
0100
0000
0001
0100
0001
,
0100
0000
0010
0000
1000
0000
0010
0000
0000
0000
1000
0000
0001
0000
1000
0100
,
1000
0001
1000
0020
0000
0230
0000
0301
,
1000
0010
1000
0002
0000
0203
0000
0310
,
1000
0001
1000
0000
0001
0001
1000
0001
,
0000
0001
1000
0010
0000
0001
1000
0001
,
1000
0010
1000
0002
0000
0203
0000
0301
,
0100
0001
0010
0002
0000
0203
0000
0310
,
1000
1000
0100
2000
0000
3100
0010
0100
,
0001
0100
0010
0100
0010
0000
0010
0000
,
1000
0010
1000
0000
0002
0003
0100
0000
0020
0000
0000
0000
0030
0000
0001
0000
,
1000
0010
0000
0010
0100
0000
0001
0000
2000
0000
0000
0000
3000
0000
0001
0100
,
0001
0000
0010
1000
0000
0001
2000
0000
0000
0000
3000
0000
0001
0100
0000
0010
,
0000
0000
1000
0000
0001
0100
0000
0000
0010
0000
1000
0001
1000
0000
0001
0000
,
0100
0001
0100
0000
0010
0000
1000
0000
0002
0000
0000
0000
0103
0000
0010
0000
,
1000
0010
0000
0010
0100
0000
0001
0000
2000
0000
0000
0000
3000
0000
0001
0100
,
0001
0000
1000
0010
0000
0100
0002
0000
0000
0000
0103
0000
0010
0100
0000
0001
,
0000
0000
0100
0000
0000
0001
0000
0000
1000
0001
1000
0001
0000
1001
0000
0000
;
