#TITLE:Gracious Class;
#SUBTITLE:;
#ARTIST:ZumaTK;
#TITLETRANSLIT:;
#SUBTITLETRANSLIT:;
#ARTISTTRANSLIT:;
#GENRE:;
#CREDIT:;
#BANNER:Gracious Class.png;
#BACKGROUND:Gracious Class-bg.png;
#LYRICSPATH:;
#CDTITLE:;
#MUSIC:Gracious Class.ogg;
#OFFSET:0.000000;
#SAMPLESTART:31.475000;
#SAMPLELENGTH:15.000000;
#SELECTABLE:YES;
#BPMS:0.000000=122.000000
;
#STOPS:
;
#BGCHANGES:;
#KEYSOUNDS:;
#ATTACKS:;

//---------------dance-single - ----------------
#NOTES:
     dance-single:
     :
     Beginner:
     2:
     0.130214,0.220863,0.008764,0.043822,0.000000,104.000000,103.000000,1.000000,5.000000,0.000000,0.000000,0.130214,0.220863,0.008764,0.043822,0.000000,104.000000,103.000000,1.000000,5.000000,0.000000,0.000000:
// measure 0
0000
0000
0000
0000
,  // measure 1
0000
0000
0000
0000
,  // measure 2
0000
0000
0000
0000
,  // measure 3
0000
0000
0000
0000
,  // measure 4
0000
0000
0000
0000
,  // measure 5
0000
0000
0000
0000
,  // measure 6
0000
0000
0000
0000
,  // measure 7
0000
0000
0000
0000
,  // measure 8
1000
0000
0000
0000
,  // measure 9
0000
0000
0000
0000
,  // measure 10
0000
0000
0000
0000
,  // measure 11
0000
0000
0000
0000
,  // measure 12
0001
0000
0000
0000
,  // measure 13
0000
0000
0000
0000
,  // measure 14
0100
0000
0000
0000
,  // measure 15
0001
0000
0000
0000
,  // measure 16
1000
0000
0001
0000
,  // measure 17
0100
0100
0100
0000
,  // measure 18
0001
0000
1000
0000
,  // measure 19
0001
0000
0100
0000
,  // measure 20
1000
0000
0001
0000
,  // measure 21
1000
1000
1000
0000
,  // measure 22
0001
0000
0100
0000
,  // measure 23
1000
0000
0010
0000
,  // measure 24
0001
0000
0100
0000
,  // measure 25
0001
0001
0001
0000
,  // measure 26
1000
0000
0001
0000
,  // measure 27
1000
0000
0010
0000
,  // measure 28
0100
0000
0001
0000
,  // measure 29
1000
1000
1000
0000
,  // measure 30
0002
0000
0003
0000
,  // measure 31
2000
0000
3000
0000
,  // measure 32
1001
0000
0001
0001
,  // measure 33
0001
0000
1000
1000
,  // measure 34
1000
0000
0010
0010
,  // measure 35
0010
0000
0100
0100
,  // measure 36
0100
0000
0001
0000
,  // measure 37
2000
3000
0001
0000
,  // measure 38
1000
1000
1000
0000
,  // measure 39
0001
0001
0001
0000
,  // measure 40
2000
0000
3000
0000
,  // measure 41
0002
0000
0003
0000
,  // measure 42
1000
1000
1000
0000
,  // measure 43
0001
0001
0001
0000
,  // measure 44
1000
0000
0100
0000
,  // measure 45
0001
0000
0100
0000
,  // measure 46
1000
0000
0010
0000
,  // measure 47
1000
0000
0001
0000
,  // measure 48
1000
1000
1000
0000
,  // measure 49
0001
0001
0001
0000
,  // measure 50
1000
0010
1000
0000
,  // measure 51
0001
0100
0001
0000
,  // measure 52
1000
1000
1000
1000
,  // measure 53
0010
0010
0010
0010
,  // measure 54
0001
0000
0100
0000
,  // measure 55
1000
0001
1000
0001
,  // measure 56
1000
0000
0000
0000
;

//---------------dance-single - ----------------
#NOTES:
     dance-single:
     :
     Easy:
     4:
     0.229126,0.269943,0.105173,0.201581,0.000000,183.000000,171.000000,12.000000,23.000000,0.000000,0.000000,0.229126,0.269943,0.105173,0.201581,0.000000,183.000000,171.000000,12.000000,23.000000,0.000000,0.000000:
0000
0000
0000
0000
,
0000
0000
0000
0000
,
0000
0000
0000
0000
,
0000
0000
0000
0000
,
0000
0000
0000
0000
,
0000
0000
0000
0000
,
0000
0000
0000
0000
,
0000
0000
0000
0000
,
0001
0001
0001
0001
,
1000
1000
1000
1000
,
0100
0100
0100
0100
,
0001
0001
0001
0001
,
1000
0001
1000
0001
,
0100
0010
0100
0010
,
1000
0010
1000
0001
,
0100
0010
0100
1001
,
0010
1000
0010
1000
,
0001
1000
0001
0100
,
0001
1000
0001
0100
,
0010
1000
0001
1001
,
0010
1000
0010
0100
,
0001
0100
0010
1000
,
1000
0100
0001
0100
,
1000
0100
0001
0100
,
2000
0000
0001
3001
,
0002
0000
1000
1003
,
0200
0000
0010
0310
,
0002
0003
2000
3000
,
2002
0000
0000
3003
,
2020
0000
0000
3030
,
0202
0000
0000
0303
,
0220
0000
0000
0330
,
1000
0001
1000
1000
,
0010
0100
0001
0001
,
1001
1000
0010
0010
,
0001
0010
1000
0100
,
1001
0100
0100
0010
,
0001
0001
1000
2000
,
3001
0001
0010
1000
,
0010
0000
0010
0000
0002
0000
2000
3003
,
2002
0000
0000
0003
,
0020
0000
0000
3030
,
1001
0100
0010
0100
,
0001
0001
1000
0010
,
0100
0100
0001
0100
,
0010
0010
0100
1000
,
0001
0100
1000
0100
,
0001
1000
0100
0010
,
0002
0010
1000
1003
,
0200
0010
0001
0301
,
1000
0001
0100
0100
,
0010
1000
1000
0001
,
1001
0100
0001
0100
,
0010
1000
1000
0001
,
2000
3010
0002
0103
,
1000
0000
0001
0000
1000
0001
1000
0000
,
1001
0000
0000
0000
;

//---------------dance-single - ----------------
#NOTES:
     dance-single:
     :
     Medium:
     7:
     0.349324,0.420910,0.201581,0.043822,0.043822,279.000000,256.000000,23.000000,5.000000,0.000000,0.000000,0.349324,0.420910,0.201581,0.043822,0.043822,279.000000,256.000000,23.000000,5.000000,0.000000,0.000000:
0000
0000
0000
0000
,
0000
0000
0000
0000
,
0000
0000
0000
0000
,
0000
0000
0000
0000
,
0000
0000
0000
0000
,
0000
0000
0000
0000
,
0000
0000
0000
0000
,
0000
0000
0000
0000
,
1001
1000
1000
1000
,
0001
0001
0001
0001
,
0010
0010
0010
0010
,
1000
1000
0001
0001
,
1001
0010
1000
0010
,
1000
0001
0100
0001
,
1000
0001
1000
0001
1000
0001
1000
0001
,
0100
0010
0100
0010
0100
0000
0101
0000
,
1001
0000
0100
0000
0010
0000
1000
0010
,
1000
0000
0001
0000
1000
0000
0001
0100
,
0001
0000
1000
0000
0010
0000
0100
0001
,
0100
0000
0010
1000
0010
0000
0100
0001
,
1000
0000
0010
0000
0100
0000
0001
1000
,
0001
0000
0100
0000
0010
0000
1000
0010
,
1000
0000
0001
0100
0001
0000
1000
0010
,
0100
0000
0001
0000
0100
0000
0001
1000
,
1001
0000
1000
0000
1000
0000
1000
0010
,
1010
0010
0010
0010
,
1001
0000
0100
0000
0001
0000
1000
0001
,
1001
0000
0010
0000
0100
0000
0001
1000
,
1001
0000
0100
0000
0010
0000
1000
0001
,
1001
0000
0100
0000
0001
0000
1000
0010
,
1010
0000
0100
0000
0001
0000
0100
0010
,
1000
0001
1000
0001
1000
0000
1010
0000
,
1001
0000
0101
0000
1000
0010
1000
0010
,
0100
0000
1000
0000
0001
0100
0001
1000
,
1001
0000
1010
0000
0001
0100
0001
1000
,
0001
0000
1001
0000
1000
0010
0100
0001
,
0101
0000
1001
0000
0010
1000
0010
0100
,
0002
0000
1003
0000
0001
1000
0020
0030
,
1001
0000
0101
0000
1000
0001
1000
0001
,
0100
0010
0100
0001
1000
0100
0010
0001
,
2000
0000
0010
0010
,
3002
0000
0000
0003
,
1001
0000
0100
0000
0010
0000
1000
0001
,
1000
0000
0001
0100
0001
0000
0100
0010
,
1000
0000
0001
0000
0100
0000
0010
1000
,
0010
0000
0100
0001
0100
0000
1010
0000
,
0001
0100
1000
0100
,
0001
0100
0010
0100
0000
0100
0001
1000
,
0001
0000
0000
1000
0000
0000
0001
0000
0000
0100
0000
0000
0010
0000
1000
0000
,
0010
0000
0100
0001
0100
0000
0010
1000
,
0001
0000
0000
0100
0000
0000
0001
0000
0000
1000
0000
0000
0010
0000
0100
0000
,
0001
0000
1000
0010
1000
0000
0001
0100
,
0010
0000
0000
1000
0000
0000
0010
0000
0000
0100
0000
0000
0001
0000
1000
0000
,
0001
0000
0000
0100
0000
0000
0010
0000
0000
1000
0000
0000
0001
0000
1000
0000
,
0010
0000
0000
0100
0000
0000
0001
0000
0000
1000
0000
0000
0001
0000
0100
0000
,
0001
1000
0001
1000
0010
1000
0010
0100
,
0002
0000
0003
0000
;

//---------------dance-single - ----------------
#NOTES:
     dance-single:
     :
     Hard:
     12:
     0.482042,0.638048,0.192817,0.140230,0.376869,385.000000,363.000000,22.000000,16.000000,0.000000,0.000000,0.482042,0.638048,0.192817,0.140230,0.376869,385.000000,363.000000,22.000000,16.000000,0.000000,0.000000:
0000
0000
0000
0000
,
0000
0000
0000
0000
,
0000
0000
0000
0000
,
0000
0000
0000
0000
,
0000
0000
0000
0000
,
0000
0000
0000
0000
,
0000
0000
0000
0000
,
0000
0000
0000
0000
,
1001
1000
1000
0001
,
0100
0100
0100
1000
,
0001
0001
0001
0100
,
0010
0010
1000
0001
,
1001
0001
1000
0001
1000
0001
1000
0001
,
0100
0010
0100
0010
0100
0010
0100
0010
,
1000
0000
0010
1000
0010
0000
1000
0010
1000
0000
0001
0100
0001
0000
0100
0001
,
0100
0000
0001
1000
0001
1000
0001
1000
0002
0000
0103
0010
1000
0000
0001
0000
,
1001
0000
0000
0010
0000
0000
1000
0000
0000
0001
0100
0000
0010
0000
1000
0000
,
0001
0000
0000
0100
0000
0000
1000
0000
0000
0010
0100
0000
0001
0000
0100
0010
,
1000
0000
0000
0001
0000
0000
0100
0000
0000
0010
0000
0000
1000
0000
0001
1000
,
0001
0000
0000
0100
0000
0000
0010
0000
0000
1000
0001
0000
0100
0000
0010
0000
,
1001
0000
0000
0010
0000
0000
1000
0000
0000
0001
0100
0000
0010
0000
1000
0000
,
0001
0000
0000
0100
0000
0000
1000
0000
0000
0001
0100
0000
0010
0000
1000
0001
,
1000
0000
0000
0010
0000
0000
1000
0000
0000
0001
1000
0000
0010
0000
0100
0001
,
0100
0000
0000
0010
0000
0000
1000
0000
0000
0010
0000
0000
0100
0000
0001
0000
,
1001
0000
0010
1000
0010
0000
0100
0001
,
2000
0010
0010
3001
,
0101
0000
0010
1000
0010
0000
0100
0001
,
0200
0000
0001
0000
0010
0000
0310
1000
,
1001
0000
0100
0001
1000
0000
0010
0100
,
0002
0100
1000
1003
,
0001
1000
0001
1000
0010
1000
0010
1000
,
0010
0100
0010
0100
0010
0100
0010
0100
0010
0000
1000
0000
1001
0000
0000
0000
,
1000
0000
0010
0000
0100
0000
0001
0100
0001
0000
1000
0000
0010
0000
0001
0000
,
2000
0000
3002
0000
0103
0010
0100
0000
0001
0000
0100
0000
1000
0000
0100
0000
,
0001
0000
0100
0000
0010
0000
1000
0010
1000
0000
0001
0000
0100
0000
0010
0000
,
1000
0000
0002
0000
0203
0000
0310
1000
0010
0000
0100
0000
0001
0000
0100
0000
,
0010
0000
2000
0000
3002
0000
0103
0010
0100
0000
0001
0000
1000
0000
0010
0000
,
0200
0000
0000
0000
0301
1000
0001
1000
0001
0000
0100
0000
0020
0000
0030
0000
,
0101
0010
0100
0010
0100
0001
0100
0001
,
1000
0001
1000
0001
1000
0001
1000
0001
1000
0010
1000
0010
1000
0000
0001
0100
,
0002
0000
0000
0000
0000
0000
0200
0000
0000
0003
0000
0000
0310
0000
0000
0000
,
2000
0000
0000
0000
0000
3001
0001
0000
,
1001
0000
0000
0100
0000
0000
0010
0000
0000
1000
0001
0000
0100
0000
0010
1000
,
0010
0000
0000
0100
0000
0000
0001
0000
0000
0100
0010
0000
1000
0000
0001
0000
,
1001
0000
0000
0100
0000
0000
0001
0000
0000
1000
0010
0000
0100
0000
0001
0000
,
1001
0000
0000
0010
0000
0000
1000
0000
0000
0001
0100
0000
0010
0000
1000
0001
,
1000
0000
0000
0010
0000
0000
0100
0000
0000
0001
1000
0000
0010
0000
0100
0001
,
0100
0000
0000
0010
0000
0000
0010
0000
0000
1000
0000
0000
0001
0000
0100
0000
,
1010
0000
0010
1000
0000
0010
1000
0000
0010
1000
0000
0010
0100
0000
0001
0000
,
1000
0000
0001
0100
0000
0001
0100
0000
0001
0100
0000
0001
1000
0000
0010
0000
,
1000
0000
0001
1000
0000
0001
1000
0000
0001
1000
0000
0001
0100
0000
0010
0000
,
1000
0000
0001
0100
0000
0001
0100
0000
0001
0100
0000
0001
1000
0000
0010
0000
,
1001
0000
0000
1001
0000
0000
1010
0000
0000
0001
0100
0000
0010
0000
1000
0000
,
1001
0000
0000
1001
0000
0000
0101
0000
0000
0010
1000
0000
0001
0000
1000
0000
,
1010
0000
0000
1100
0000
0000
1001
0000
0000
0010
0100
0000
0001
0000
1000
0000
,
0001
0000
0100
0000
0010
0000
1000
0000
0001
0100
0001
0100
0002
0000
1003
0010
,
1000
0000
0000
0000
;

//---------------dance-single - ----------------
#NOTES:
     dance-single:
     :
     Challenge:
     15:
     0.613508,0.767542,0.148995,0.122702,0.701152,490.000000,473.000000,17.000000,14.000000,0.000000,0.000000,0.613508,0.767542,0.148995,0.122702,0.701152,490.000000,473.000000,17.000000,14.000000,0.000000,0.000000:
0000
0000
0000
0000
,
0000
0000
0000
0000
,
0000
0000
0000
0000
,
0000
0000
0000
0000
,
0000
0000
0000
0000
,
0000
0000
0000
0000
,
0000
0000
0000
0000
,
0000
0000
0000
0000
,
1001
0000
0010
1000
0010
0000
0100
0001
,
0100
0000
0001
0100
1000
0000
1000
0100
,
0001
0100
0001
0100
0010
1000
0010
0100
,
0001
0100
0010
1000
0001
1000
0100
0010
,
0001
1000
0001
1000
0010
1000
0010
1000
,
0100
1000
0100
1000
0001
0010
0001
0010
,
0001
0100
0001
0100
0010
0100
0010
0100
0001
0010
0001
0010
0100
1000
0100
1000
,
0001
0100
0010
1000
0001
0010
0100
1000
0001
0000
1000
0000
0010
0100
0001
0100
,
0001
0000
1000
0010
0000
1000
0010
0000
0100
0001
0000
0100
0001
0000
1000
0000
,
1001
0000
1000
0100
0000
1000
0100
0000
0010
0001
0000
0010
0001
0000
1000
0010
,
0100
0000
0001
0100
0000
0001
0100
0000
0010
1000
0000
0010
1000
0000
0001
1000
,
0010
0000
0100
0001
0000
0100
0001
0000
1000
0001
0000
1000
0001
0100
0010
0100
,
0001
0000
1000
0010
0000
1000
0010
0000
0100
0010
0000
0100
0010
0000
1000
0000
,
1001
0000
0010
0100
0000
0010
0100
0000
0001
0100
0000
0001
1000
0000
0010
0100
,
0001
0000
1000
0010
0000
1000
0010
0000
0100
0001
0000
0100
0001
0000
1000
0010
,
0100
0000
0001
0100
0000
0001
1000
0000
0001
1000
0000
0010
0100
0001
0100
0010
,
1000
0000
1000
0001
1000
0000
1000
0010
,
0101
0000
0001
1000
0001
0000
1000
0000
,
1001
0000
0010
1000
0010
0000
0100
0010
,
1001
0000
0010
1000
0010
0000
0100
0001
,
1001
0000
0100
0010
1000
0000
0010
0100
,
0001
0000
0100
0010
1000
0000
0001
0100
,
1000
0100
0010
1000
0001
0100
0010
0100
,
0001
0000
0100
0000
1000
0000
0100
0000
0001
0000
1000
0000
0010
0100
0000
0100
,
0001
0000
1000
0010
1000
0001
0000
0001
0100
0010
0100
0010
1000
0010
1000
0010
,
0200
0000
0302
0000
1003
0010
1000
0010
0100
0001
0100
0000
0010
0000
1000
0000
,
1001
0000
0010
1000
0000
1000
0001
0100
0010
0100
0001
0100
0010
0100
0001
0100
,
0010
0000
2000
0000
3002
0000
0103
0010
0100
0001
0100
0000
0010
0000
1010
0000
,
1001
0000
0020
0000
2030
0000
3001
0100
0010
1000
0010
0000
0100
0000
0001
1000
,
0020
0000
0000
0000
0130
0001
0100
0001
1000
0000
0010
0000
0202
0000
0303
0000
,
1001
0001
1000
0001
1000
0010
1000
0010
,
1000
0001
0100
0001
0100
0010
0100
0010
1000
0100
0010
0100
1000
0100
0001
0100
,
2000
0000
0000
0002
0000
3000
0103
0000
,
2002
0000
0000
0000
3003
0010
0010
0000
,
1001
0000
0010
1000
0000
0010
1000
0000
0001
1000
0000
0001
1000
0000
0010
0100
,
0001
0000
1000
0010
0000
1000
0010
0000
0100
0010
0000
0100
0010
1000
0010
0100
,
0001
0000
0100
0010
0000
0100
0010
0000
1000
0010
0000
0100
0001
0000
0100
0000
,
0001
0000
1000
0010
0000
0100
0001
0000
1000
0010
0000
0100
0001
0000
1000
0010
,
0100
0000
0001
0100
0000
0100
0010
0000
0010
1000
0000
1000
0001
0000
0100
0001
,
1000
0000
0010
0100
0000
0100
0001
0000
0001
1000
0000
1000
0010
0000
0100
0001
,
0100
0000
0010
1000
0000
0001
0100
0000
0010
0100
0000
0001
1000
0001
0100
0010
,
1000
0000
0010
1000
0000
0001
0100
0000
0010
0100
0000
0001
1000
0000
0001
0000
,
1010
0000
0100
0001
0000
1000
0010
0000
0100
0010
0000
1000
0001
1000
0010
1000
,
0010
0000
0100
0001
0000
1000
0010
0000
0100
0001
0000
0010
0001
1000
0001
0100
,
0010
0000
1000
0010
0000
0100
0010
0000
1000
0001
0100
0010
1000
0010
0100
0000
,
1001
0000
0010
1000
0000
0001
1000
0000
0001
0100
0000
0010
0100
0010
1000
0000
,
1001
0000
0010
1000
0000
0010
0100
0000
0001
0100
0010
1000
0010
0100
0001
1000
,
0001
0000
1000
0000
0001
0000
1000
0000
0001
1000
0001
0100
0010
1000
0100
0010
,
0002
0000
0003
0000
;
