#TITLE:Energy Smile -Web Style-;
#SUBTITLE:;
#ARTIST:ASK;
#TITLETRANSLIT:;
#SUBTITLETRANSLIT:;
#ARTISTTRANSLIT:;
#GENRE:;
#CREDIT:;
#BANNER:Energy Smile -Web Style-.png;
#BACKGROUND:Energy Smile -Web Style--bg.png;
#LYRICSPATH:;
#CDTITLE:;
#MUSIC:Energy Smile -Web Style-.ogg;
#OFFSET:-0.024000;
#SAMPLESTART:33.356998;
#SAMPLELENGTH:15.000000;
#SELECTABLE:YES;
#BPMS:0.000000=180.000000
;
#STOPS:
;
#BGCHANGES:;
#KEYSOUNDS:;
#ATTACKS:;

//---------------dance-single - ----------------
#NOTES:
     dance-single:
     :
     Beginner:
     4:
     0.164747,0.254032,0.040323,0.112903,0.000000,143.000000,138.000000,5.000000,14.000000,0.000000,0.000000,0.164747,0.254032,0.040323,0.112903,0.000000,143.000000,138.000000,5.000000,14.000000,0.000000,0.000000:
0000
0000
0000
0000
,
0000
0000
0000
0000
,
0000
0000
0000
0000
,
0000
0000
0000
0000
,
0000
0000
0000
0000
,
0000
0000
0000
0000
,
0000
0000
0000
0000
,
0000
0000
0000
0000
,
0000
0000
0000
0000
,
1001
0000
0000
0000
,
0000
0000
0000
0000
,
0000
0000
0000
0000
,
0000
0000
0000
0000
,
0000
0000
0000
0000
,
0000
0000
0000
0000
,
0000
0000
0000
0000
,
0000
0000
0000
0000
,
1001
0000
0000
0000
,
0000
0000
0000
0000
,
0000
0000
0000
0000
,
0000
0000
0000
0000
,
0000
0000
0000
0000
,
0000
0000
0000
0000
,
1000
0000
0001
0000
,
0100
0000
0010
0000
,
1001
0000
0000
0000
,
1000
0000
0001
0000
,
1000
0000
0000
0000
,
0010
0000
1000
0000
,
0010
0000
1000
0000
,
0001
0000
1000
0000
,
0001
0000
1000
0000
,
0001
0001
0001
0000
,
0100
0000
0010
0000
,
0100
0000
0010
0000
,
1000
0000
0010
0000
,
1000
1000
1000
0000
,
0001
0000
0100
0000
,
0001
0000
1000
0000
,
0001
0000
0100
0000
,
0010
0010
0010
0000
,
2000
0000
3000
0000
,
0002
0000
0003
0000
,
2000
0000
3000
0000
,
0001
0000
1000
0000
,
0020
0000
0030
0000
,
2000
0000
3000
0000
,
0020
0000
0030
0000
,
0100
0000
0001
0000
,
0100
0000
0001
0000
,
0100
0000
0010
0000
,
0100
0000
0001
0000
,
1000
0000
0001
0000
,
0010
0000
1000
0000
,
0010
0000
0100
0000
,
0010
0000
1000
0000
,
0001
0000
0000
0000
,
1001
0000
1000
0000
,
0002
0000
0003
0000
,
0100
0000
0010
0000
,
2000
0000
3000
0000
,
0010
0000
1000
0000
,
0002
0000
0003
0000
,
1000
0000
0001
0000
,
0100
0000
1000
0000
,
0001
0000
1000
0000
,
0020
0000
0030
0000
,
0100
0000
0001
0000
,
2000
3000
0010
0010
,
0010
0000
0100
0000
,
0001
0000
0100
0000
,
0010
0000
1000
0000
,
0001
0001
1000
1000
,
0001
0000
1000
0000
,
0010
0010
0010
0000
,
0100
0000
0001
0000
,
1000
1000
1000
0000
,
0001
0001
0001
0000
,
1000
1000
1000
0000
,
0010
0000
1000
0000
,
0001
0001
0002
0003
,
0100
0000
0001
0000
,
0100
0000
0010
0010
,
1000
0000
0001
0000
,
0100
0100
0001
0100
,
0100
0000
0010
0000
,
1000
0000
0001
0001
,
1000
0000
0001
0000
,
1000
0010
0001
0000
,
2002
0000
0000
0000
,
3003
0000
0000
0000
;

//---------------dance-single - ----------------
#NOTES:
     dance-single:
     :
     Easy:
     7:
     0.255760,0.365927,0.104839,0.169355,0.000000,222.000000,209.000000,13.000000,21.000000,0.000000,0.000000,0.255760,0.365927,0.104839,0.169355,0.000000,222.000000,209.000000,13.000000,21.000000,0.000000,0.000000:
0000
0000
0000
0000
,
0000
0000
0000
0000
,
0000
0000
0000
0000
,
0000
0000
0000
0000
,
0000
0000
0000
0000
,
0000
0000
0000
0000
,
0000
0000
0000
0000
,
0000
0000
0000
0000
,
0000
0000
0000
0000
,
2002
0000
0000
0000
,
3003
0000
0000
0000
,
0000
0000
0000
0000
,
0000
0000
0000
0000
,
0000
0000
0000
0000
,
0000
0000
0000
0000
,
0000
0000
0000
0000
,
0000
0000
0000
0000
,
2002
0000
0000
0000
,
3003
0000
0000
0000
,
0000
0000
0000
0000
,
0000
0000
0000
0000
,
0100
0000
0000
0000
,
0001
0000
0000
0000
,
1000
0000
0001
0000
,
1000
0001
0100
0010
,
1001
0000
0001
0000
,
1000
1000
0002
0003
,
0100
0000
0010
0000
,
1000
1000
0001
0100
,
0001
0001
0100
0001
,
1000
1000
0010
1000
,
0001
0000
0101
0000
,
0010
1000
1001
0000
,
0010
0000
1000
0000
,
0001
0001
0200
0300
,
0010
0000
1000
0000
,
0001
0001
1000
0001
,
0100
0100
0010
1000
,
0001
0001
1000
0010
,
0200
0300
2002
3003
,
0100
0001
1001
0000
,
0100
0000
0001
0000
,
1000
1000
0001
0100
,
0010
0000
1000
0000
,
0010
0010
0100
0001
,
1000
0000
0001
0000
,
0100
0010
1000
0001
,
0200
0000
0301
0000
,
1000
1000
0001
0100
,
1000
0010
0001
0010
,
1000
0010
0001
0010
,
1000
0100
0001
0100
,
2000
0000
3001
0000
,
1000
0010
0100
0001
,
1000
0010
0100
0001
,
1000
0100
0001
0100
,
2000
0000
3010
0100
,
0002
0000
0100
0000
,
1003
0000
0000
0000
,
2000
0000
0010
0000
,
3001
0000
0000
0000
,
0020
0000
0100
0000
,
1030
0000
0000
0000
,
0200
0000
0010
0000
,
0301
0001
1000
0010
,
1000
0000
0001
0000
,
0100
0100
0001
1000
,
0001
0000
0100
0000
,
0010
1000
0001
1000
,
0010
0000
0100
0000
,
0010
1000
0001
1000
,
0010
0000
1010
0000
,
0001
1000
0010
1000
,
1001
0100
0010
1000
,
0001
0100
0002
0003
,
1000
0001
0100
0010
,
1000
0100
0001
0100
,
1000
0000
0001
0000
,
0100
0100
0001
0000
,
1001
0000
1010
0000
,
0100
0100
0002
1003
,
1001
0100
0010
1000
,
0001
0100
0020
0030
,
0100
0001
1000
0100
,
1000
0010
0001
0010
,
1000
0000
0010
0000
,
0100
0100
0001
1000
,
0002
0003
2000
3000
,
0010
0100
0001
0100
,
1001
0000
1000
0000
,
0001
0100
0100
0010
;

//---------------dance-single - ----------------
#NOTES:
     dance-single:
     :
     Medium:
     12:
     0.429724,0.548891,0.177419,0.379032,0.016129,373.000000,351.000000,22.000000,47.000000,0.000000,0.000000,0.429724,0.548891,0.177419,0.379032,0.016129,373.000000,351.000000,22.000000,47.000000,0.000000,0.000000:
0000
0000
0000
0000
,
0000
0000
0000
0000
,
0000
0000
0000
0000
,
0000
0000
0000
0000
,
0000
0000
0000
0000
,
0000
0000
0000
0000
,
0000
0000
0000
0000
,
0000
0000
0000
0000
,
0000
0000
0000
0000
,
2002
0000
0000
0000
,
0003
0000
0000
0000
,
0020
0000
0000
0000
,
3000
0000
0000
0000
,
0200
0000
0000
0000
,
0030
0000
0000
0000
,
0002
0000
0000
0000
,
0300
0000
0000
0003
,
2002
0000
0000
0000
,
0000
0000
0000
0003
,
0020
0000
0000
0000
,
0000
0000
0000
3000
,
0130
0000
0001
0000
,
0100
0010
0100
0001
,
1001
0000
0110
0000
,
0011
1001
1100
1001
,
0100
0000
0001
0000
0100
0000
0010
1000
,
0000
1000
0000
1000
0002
0000
0003
0000
,
0100
0000
0010
0000
0100
0000
0001
1000
,
0000
1000
0000
1000
0020
0000
0230
0000
,
0301
0000
1000
0010
1000
0010
0100
0001
,
0000
0001
0000
0001
0100
0010
0100
0000
,
0020
0000
1030
0001
0100
0010
0100
0002
,
0000
0103
0010
1000
2000
0000
3000
0000
,
0010
0000
0100
0000
0002
0000
1003
0010
,
0000
0010
0100
0010
2000
0000
3000
0000
,
0100
0000
0001
0000
1000
0000
0010
0100
,
0000
0010
1000
0010
0200
0000
0302
0000
,
2003
0000
3010
1000
0010
0100
0010
2000
,
0000
3001
0100
0001
1000
0001
0200
0000
,
0302
0000
1003
0010
0100
0010
1000
0002
,
0000
0103
0010
1000
0002
0000
0000
0000
,
0103
0000
0010
0000
0100
0000
0000
0000
0001
0000
0000
0001
0000
0000
1000
0000
,
0010
0100
0001
0000
0100
0010
0100
0001
,
1000
0000
0010
0000
0100
0000
0000
0000
0010
0000
0000
0100
0000
0000
0001
0000
,
0100
0010
1000
0010
0100
0100
0001
0100
,
0010
0000
1000
0000
0001
0000
0000
0000
0100
0000
0000
0010
0000
0000
0100
0000
,
0001
1000
0010
0000
0100
0010
0100
0001
,
1000
0000
0010
0000
0100
0000
0000
0000
0010
0000
0000
1000
0000
0000
0001
0000
,
0100
0010
0100
0010
0100
0001
0100
0001
,
1000
0010
0110
0101
,
0010
1000
0110
1010
,
0010
0100
0002
0000
0103
0010
2000
0000
,
3010
0100
0001
1000
,
0010
0100
0001
0000
0100
0010
0100
0000
,
0010
1000
0010
0000
0100
0001
1000
0000
,
0010
0100
0001
0000
0101
0000
1010
0000
,
0200
0000
0301
0000
1000
0010
0100
0000
,
1001
0000
0100
0000
,
0010
1000
0010
0100
,
1001
0000
0010
0000
,
0100
0001
0100
0100
,
0020
0000
1030
0000
,
0200
0000
0301
0000
,
1000
0001
0100
0010
,
0110
0110
0101
0110
,
1001
0010
0100
0001
,
0100
0001
0100
0000
0010
1000
0010
0000
,
0100
0000
0010
0000
1000
0010
0100
0000
,
0010
0100
0010
0100
0001
0100
0010
0010
,
1000
0000
0010
0000
0100
0001
1000
0000
,
0020
0000
0130
0000
,
0001
0100
1000
0010
,
0001
0000
1000
0000
0010
0100
0001
1000
,
0001
0000
1000
0000
0010
0000
0100
0001
,
0000
0001
0100
0010
2000
0000
3000
0000
,
0010
0000
1000
0000
0002
0000
0103
0010
,
0000
0010
1000
0010
0200
0000
0302
0000
,
1003
0010
1000
0000
0010
0100
0010
0000
,
0100
0010
1000
0000
0010
0100
0001
0000
,
2000
3010
0002
0103
,
0010
1000
0010
0100
0002
0000
0103
0000
,
1001
0000
0010
0000
0100
0000
0010
1000
,
0000
1000
0010
0100
0002
0000
0003
0000
,
0100
0000
0010
0000
1000
0000
0001
0100
,
0000
0100
0010
1000
0020
0000
0230
0000
,
0302
0000
0103
0010
0100
0010
1000
0002
,
0000
0103
0000
0100
0010
1000
0002
0000
,
0203
0000
0310
1000
0010
0100
0010
2000
,
0000
3010
0100
0001
2000
0000
3000
0000
,
0010
0000
0100
0000
0001
0000
1000
0010
,
0000
0010
1000
0001
0200
0000
0300
0000
;

//---------------dance-single - ----------------
#NOTES:
     dance-single:
     :
     Hard:
     14:
     0.604839,0.768448,0.258065,0.282258,0.125000,525.000000,493.000000,32.000000,35.000000,0.000000,0.000000,0.604839,0.768448,0.258065,0.282258,0.125000,525.000000,493.000000,32.000000,35.000000,0.000000,0.000000:
// measure 0
0000
0000
0000
0000
,  // measure 1
0000
0000
0000
0000
,  // measure 2
0000
0000
0000
0000
,  // measure 3
0000
0000
0000
0000
,  // measure 4
0000
0000
0000
0000
,  // measure 5
0000
0000
0000
0000
,  // measure 6
0000
0000
0000
0000
,  // measure 7
0000
0000
0000
0000
,  // measure 8
0000
0000
0000
0000
,  // measure 9
1000
0000
0001
0000
,  // measure 10
0010
0010
1000
0000
,  // measure 11
0001
0000
1000
0000
,  // measure 12
0010
0010
1000
0001
,  // measure 13
1000
0000
0010
0000
,  // measure 14
1000
1000
0001
0000
,  // measure 15
0200
0000
0310
1000
,  // measure 16
0002
1000
1003
0000
,  // measure 17
1001
0000
0010
0000
,  // measure 18
0100
0001
1000
0000
,  // measure 19
0010
0000
1000
0000
,  // measure 20
0001
0100
1000
0100
,  // measure 21
0002
0000
1003
0010
,  // measure 22
0100
0001
1000
0010
,  // measure 23
1001
0000
0110
0000
,  // measure 24
1010
0000
0101
0000
0010
1000
0001
0000
,  // measure 25
1001
0000
0010
0000
1000
0000
0010
0100
,  // measure 26
0000
0100
0010
1000
0002
0000
1003
0000
,  // measure 27
0100
0000
0001
0000
1000
0000
0001
0100
,  // measure 28
0000
0100
0010
1000
0002
0000
0103
0000
,  // measure 29
0020
0000
1030
0001
0100
0010
0100
0002
,  // measure 30
0000
0103
0010
0100
0010
1000
2000
0000
,  // measure 31
3020
0000
0130
0010
1000
0010
0100
0002
,  // measure 32
0000
1003
0001
0100
2000
0000
3000
0000
,  // measure 33
1001
0000
0100
0000
0010
0000
1000
0010
,  // measure 34
0000
0010
0100
0001
2000
0000
3001
0000
,  // measure 35
0010
0000
0100
0000
0001
0000
1000
0010
,  // measure 36
0000
0010
0100
0001
0200
0000
0301
0000
,  // measure 37
2000
0000
3010
0100
0010
1000
0001
2000
,  // measure 38
0000
3010
0100
0010
1000
0010
0002
0000
,  // measure 39
0023
0000
0130
0010
1000
0010
0100
0002
,  // measure 40
0000
1003
0010
0100
0002
0000
0003
0000
,  // measure 41
0100
0000
0010
0000
1000
0000
0010
0000
0100
0001
0000
0001
0100
0000
0010
0000
,  // measure 42
0100
0000
0001
0000
1000
0000
0010
0000
0100
0010
0000
0010
1000
0000
0001
0000
,  // measure 43
0100
0000
0010
0000
0100
0000
0001
0000
1000
0010
0000
0010
0100
0000
0001
0000
,  // measure 44
0100
0000
0010
0000
0100
0000
0001
0000
1000
0001
0000
0001
0100
0000
0010
0000
,  // measure 45
0100
0000
0001
0000
0001
0000
0100
0000
0010
1000
0000
1000
0010
0000
0100
0000
,  // measure 46
0010
0000
1000
0000
1000
0000
0010
0000
0100
0001
0000
0001
1000
0000
0010
0000
,  // measure 47
0100
0000
0001
0000
0001
0000
1000
0000
0010
0100
0000
0100
0010
0000
1000
0000
,  // measure 48
0010
0000
0100
0000
0010
0000
0100
0000
0001
0100
0001
0000
1000
0000
0010
0000
,  // measure 49
1000
0000
0010
0000
0100
0001
0100
0000
1010
0000
0000
0000
0101
0000
0000
0000
,  // measure 50
0100
0000
0010
0000
1000
0001
1000
0000
1010
0000
0000
0000
0101
0000
0000
0000
,  // measure 51
0010
0000
0100
0000
0001
1000
0001
0000
0101
0000
0000
0000
0110
0000
0000
0000
,  // measure 52
0010
1000
0002
0000
1003
0010
1000
0001
,  // measure 53
0100
0000
0010
0000
1000
0000
1000
0000
0001
0100
0001
0000
0200
0000
0000
0000
,  // measure 54
0310
0000
1000
0000
0001
0000
0001
0000
0100
0010
0100
0000
0020
0000
0000
0000
,  // measure 55
1030
0000
0001
0000
0100
0000
0100
0000
0010
1000
0001
0000
2000
0000
0000
0000
,  // measure 56
3001
0000
1000
0000
1001
0000
0000
0000
0010
0000
0100
0001
0100
0000
0010
0000
,  // measure 57
1001
0000
1000
0000
0010
0000
0100
0010
,  // measure 58
1000
0001
1000
0000
0010
0000
1000
0000
0001
0000
0001
0000
0100
0000
0000
0000
,  // measure 59
0010
0000
1000
0010
0100
0010
1000
0001
,  // measure 60
0100
0010
0100
0000
0001
0000
1000
0000
0001
0000
0010
0000
0100
0000
1000
0000
,  // measure 61
0010
0100
0001
0000
0100
0010
0100
0001
,  // measure 62
2000
0000
0000
3001
0100
0000
0100
0000
,  // measure 63
0010
0000
0010
0000
1000
0010
1000
0000
,  // measure 64
0001
0000
0100
0000
0001
0000
1000
0000
0010
0000
0100
0000
0010
1000
0010
0000
,  // measure 65
0100
0001
0100
0010
1000
0000
1100
0000
,  // measure 66
0001
0100
0001
0000
1000
0000
0010
0000
0001
0000
0001
0000
1000
0000
0000
0000
,  // measure 67
0100
0010
1000
0010
0100
0000
0110
0000
,  // measure 68
1000
0001
1000
0000
0010
0000
0100
0000
0001
0000
0001
0000
0100
0000
0100
0000
,  // measure 69
1000
0010
1000
0100
0010
0100
1000
0001
,  // measure 70
0100
0010
0000
0010
1000
0000
1001
0000
,  // measure 71
0010
1000
0001
0000
0110
0000
0101
0000
,  // measure 72
1000
0000
0001
0000
0100
0000
0010
0000
1000
0000
0010
0000
0100
0001
0100
0000
,  // measure 73
1001
0000
1010
0000
0100
0001
0100
0020
,  // measure 74
0000
1030
0010
0100
0002
0000
0103
0000
,  // measure 75
1001
0000
0101
0000
0010
1000
0010
0200
,  // measure 76
0000
0310
1000
0001
0110
0000
1001
0000
,  // measure 77
0010
0100
0001
0001
1000
0010
0100
0001
,  // measure 78
0100
0010
1000
1000
0001
1000
0010
0100
,  // measure 79
1001
0000
0101
0000
0010
1000
0001
0001
,  // measure 80
1000
0000
0001
0000
0100
0000
0010
0000
2000
0000
0000
0000
3001
0100
0001
0100
,  // measure 81
0001
0000
1001
0000
0100
0010
0100
0001
,  // measure 82
0100
0010
0100
0001
1000
0000
1001
0000
,  // measure 83
0101
0000
1010
0000
0100
0010
1000
0001
,  // measure 84
1000
0100
0010
0100
2000
0000
3002
0000
,  // measure 85
0103
0010
0100
0001
1000
0100
1000
0001
,  // measure 86
0100
0010
0100
0001
0010
0100
1000
0000
,  // measure 87
0010
0100
0001
0100
0010
0100
0001
1000
,  // measure 88
0010
0100
0010
0000
1000
0000
0010
0000
0002
0000
0000
0000
0003
0000
0000
0000
,  // measure 89
2000
0000
3020
0000
0230
0000
0301
0100
,  // measure 90
0000
0100
0010
1000
2000
0000
3001
0000
;
