#TITLE:Digital Confession;
#SUBTITLE:;
#ARTIST:ASK;
#TITLETRANSLIT:;
#SUBTITLETRANSLIT:;
#ARTISTTRANSLIT:;
#GENRE:;
#CREDIT:;
#BANNER:Digital Confession.png;
#BACKGROUND:Digital Confession-bg.png;
#LYRICSPATH:;
#CDTITLE:;
#MUSIC:Digital Confession.ogg;
#OFFSET:-0.026000;
#SAMPLESTART:42.973000;
#SAMPLELENGTH:15.000000;
#SELECTABLE:YES;
#BPMS:0.000000=190.000000
;
#STOPS:
;
#BGCHANGES:;
#KEYSOUNDS:;
#ATTACKS:;

//---------------dance-single - Copied from Copied f----------------
#NOTES:
     dance-single:
     Copied from Copied f:
     Easy:
     6:
     0.216410,0.347873,0.007809,0.000000,0.000000,194.000000,193.000000,1.000000,0.000000,0.000000,0.000000,0.216410,0.347873,0.007809,0.000000,0.000000,194.000000,193.000000,1.000000,0.000000,0.000000,0.000000:
0000
0000
0000
0000
,
0000
0000
0000
0000
,
0000
0000
0000
0000
,
0000
0000
0000
0000
,
0000
0000
0000
0000
,
0000
0000
0000
0000
,
0000
0000
0000
0000
,
0000
0000
0000
0000
,
0000
0000
0000
0000
,
0000
0000
0000
0000
,
1000
0000
0000
0000
,
0000
0000
0000
0000
,
0100
0000
0000
0000
,
0000
0000
0000
0000
,
0010
0000
0000
0000
,
0000
0000
0000
0000
,
0001
0000
0000
0000
,
0000
0000
0000
0000
,
1000
0000
0000
0000
,
0000
0000
0000
0000
,
0001
0000
0000
0000
,
0000
0000
0000
0000
,
0100
0000
0000
0000
,
0000
0000
0000
0000
,
1000
0000
0000
0000
,
0000
0000
0000
0000
,
0100
0000
0000
0000
,
0000
0000
0000
0000
,
0001
0000
0000
0000
,
0000
0000
0000
0000
,
0010
0000
0000
0000
,
1000
0000
0000
0000
,
0001
0000
0100
0000
,
0010
0100
0010
0100
,
0000
0000
0000
0000
,
0001
0000
0100
0000
,
0010
1000
0010
0000
,
1000
0000
0010
0000
,
0100
0001
0100
0000
,
0010
0000
1000
0000
,
0010
0100
0010
1000
,
0001
0000
1000
0000
,
0001
0100
0001
0000
,
1000
0000
0010
0000
,
0100
0001
0100
0000
,
0010
0000
1000
0000
,
0001
0100
0001
1000
,
0010
0000
1000
0000
,
0001
0000
1000
0000
,
0010
0000
1000
0000
,
0010
0100
0010
1000
,
0001
0000
0100
0000
,
0010
0000
1000
0001
,
1000
0000
0010
0000
,
1000
0000
0001
0100
,
1000
0000
0001
0000
,
0100
0000
0010
1000
,
0010
0000
0100
0000
,
0001
1000
0010
1000
,
0001
0000
1000
0000
,
0010
1000
0010
0000
,
0100
0000
0001
0000
,
1000
0001
1000
0010
,
1000
0000
0010
0000
,
0100
0001
0100
0010
,
1000
0000
0001
0000
,
0100
0010
0100
0001
,
1000
0000
0000
0000
,
0001
0000
0100
0000
,
1000
0000
0000
0000
,
0010
0000
0100
0000
,
0001
0000
0000
0000
,
1000
0000
0010
0000
,
0100
0000
0001
0000
,
0100
0000
0010
1000
,
0010
0000
0100
0000
,
0001
0000
0100
0000
,
1000
0000
0010
0000
,
0100
0000
0001
1000
,
0001
0000
0100
0000
,
0010
0000
1000
0010
,
0100
0000
0001
0000
,
0100
0010
0100
0001
,
1000
0010
0100
0001
,
0100
0010
1000
0000
,
0001
0100
0010
0100
,
0001
1000
0001
0000
,
0010
0000
1000
0001
,
0100
0001
0100
0010
,
1000
0000
0010
0000
,
1000
0010
0100
0001
,
1000
0000
0010
0000
,
1000
0100
0001
0100
,
1000
0000
0010
0100
,
0001
0100
1000
0100
,
0001
0100
0010
1000
,
0010
0100
0010
1000
,
0001
0000
1000
0000
,
0010
0100
0010
1000
,
1001
0000
0000
0000
;

//---------------dance-single - ----------------
#NOTES:
     dance-single:
     :
     Medium:
     9:
     0.377044,0.618441,0.187406,0.046852,0.000000,338.000000,314.000000,24.000000,6.000000,0.000000,0.000000,0.377044,0.618441,0.187406,0.046852,0.000000,338.000000,314.000000,24.000000,6.000000,0.000000,0.000000:
0000
0000
0000
0000
,
0000
0000
0000
0000
,
0000
0000
0000
0000
,
0000
0000
0000
0000
,
0000
0000
0000
0000
,
0000
0000
0000
0000
,
0000
0000
0000
0000
,
0000
0000
0000
0000
,
0000
0000
0000
0000
,
0000
0000
0000
0000
,
2000
0000
0000
0000
,
0000
0000
0000
0000
,
3002
0000
0000
0000
,
0000
0000
0000
0000
,
0203
0000
0000
0000
,
0000
0000
0000
0000
,
0320
0000
0000
0000
,
0000
0000
0000
0000
,
1030
0000
0000
0000
,
0001
0000
0000
0000
,
1000
0000
0000
0000
,
0010
0000
0000
0000
,
0100
0000
0000
0000
,
0001
0000
0000
0000
,
1000
0000
0000
0000
,
0010
0000
0000
0000
,
0100
0000
0000
0000
,
0001
0000
0000
0000
,
1000
0000
0000
0000
,
0010
0000
0000
0000
,
0100
0000
0000
0000
,
0001
0000
0000
0000
,
1000
0000
0001
0000
,
1000
0001
1000
0010
,
0000
0000
0000
0000
,
1001
0001
1000
0010
,
0100
0001
1000
0010
,
1000
0100
0001
0100
,
1000
0001
0000
0001
0000
1000
0010
1000
,
0001
0100
0010
1000
,
0001
0100
1000
0100
,
0101
0010
1001
0100
,
1001
0010
1010
0110
,
1001
0010
0100
0001
,
1000
0010
1000
0001
,
0100
0010
1000
0001
,
1000
0010
0000
0010
0000
0100
0010
0100
,
0001
1000
0010
0100
,
1010
0100
0010
1000
,
1001
0010
0101
0010
,
1000
0001
1000
0010
0100
0010
1000
0001
,
1000
0010
0100
0010
,
1000
0100
0001
0100
,
1000
0010
0100
0001
,
1000
0000
0010
0000
0100
0001
0100
0000
,
0001
1000
0010
0100
,
0001
0001
1000
2000
,
3010
0100
0001
1000
,
0020
1030
0001
1000
,
1000
0100
0001
0100
,
1000
0100
0001
0100
,
0010
0001
0010
0100
,
1000
0001
1000
0010
,
1000
0010
0100
0010
,
1000
0010
0100
0001
,
1000
0010
0001
0010
,
1000
0010
0100
0001
,
1001
0000
0101
0000
,
0100
0010
1000
0010
,
0100
0000
1001
0000
,
0001
0100
0010
1000
,
0100
0000
0101
0000
,
0010
0000
1000
0000
0010
0000
0100
0001
,
0100
0000
1010
0000
,
0001
1000
0001
0000
1000
0010
1000
0000
,
0001
0100
1000
0100
,
0001
0000
0100
0000
0010
1000
0010
0000
,
0100
0010
1000
0010
,
0100
0001
0100
0000
0010
1000
0010
0000
,
0100
0001
1000
0001
,
0100
0001
0100
0010
0100
0000
0001
1000
,
0001
0100
0010
1000
,
0100
0001
0100
1000
,
1001
0100
0010
1000
,
0001
0100
0001
0000
0100
0010
1000
0000
,
0001
0100
0010
1000
,
0001
0100
0001
1000
0001
0000
0100
0010
,
1000
0010
1000
0001
,
0100
0010
1000
0000
0010
0100
0001
1000
,
0001
0100
1001
0010
,
1000
0010
0100
0010
1000
0100
0010
0100
,
1000
0100
1001
0101
,
1000
0010
1000
0010
0100
0010
0100
0001
,
0100
0010
1010
0101
,
0010
1000
0010
0100
0001
0100
0010
1000
,
0001
0100
0010
0100
,
1010
0001
0100
0010
,
0101
0010
1001
0100
,
0001
0100
0010
0000
0100
0001
0100
0010
,
1000
0000
0000
0000
;

//---------------dance-single - Copied from----------------
#NOTES:
     dance-single:
     Copied from:
     Hard:
     13:
     0.524291,0.811704,0.320152,0.124938,0.089799,470.000000,429.000000,41.000000,16.000000,0.000000,0.000000,0.524291,0.811704,0.320152,0.124938,0.089799,470.000000,429.000000,41.000000,16.000000,0.000000,0.000000:
0000
0000
0000
0000
,
0000
0000
0000
0000
,
0000
0000
0000
0000
,
0000
0000
0000
0000
,
0000
0000
0000
0000
,
0000
0000
0000
0000
,
0000
0000
0000
0000
,
0000
0000
0000
0000
,
0000
0000
0000
0000
,
0000
0000
0000
0000
,
2000
0000
0000
0000
,
0000
0000
0000
0000
,
0002
0000
0000
0000
,
3000
0000
0000
0000
,
0200
0000
0000
0000
,
0003
0000
0000
0000
,
0020
0000
0000
0300
,
1000
1000
2000
0000
,
3030
0000
0000
0000
,
0001
0000
0000
0000
,
1000
0000
0000
0000
,
0001
0000
0000
0000
,
1000
0000
0000
0000
,
0100
0000
0000
0000
,
0001
0000
0000
0000
,
0100
0000
0000
0000
,
1001
0000
0000
0000
,
1000
0000
0000
0000
,
1001
0000
0000
0000
,
0001
0000
0000
0000
,
1001
0000
0000
0000
,
0110
0000
0000
0000
,
1010
0000
0101
0000
,
1001
1010
0101
0110
,
2001
0000
0000
0000
0000
0000
0000
0000
0000
0000
0000
0000
3001
0000
1000
0001
,
1000
0000
1000
0000
0001
0100
0001
0000
,
1000
0010
0100
0001
0000
0001
0100
0010
,
1000
0000
0001
0000
0100
0010
1000
0001
,
0100
0000
0001
0000
0100
0000
0001
0000
0000
0000
0100
0000
0001
0000
1000
0001
,
1000
0000
0010
0000
0100
0001
0100
0010
,
1000
0000
0010
0000
1000
0001
0100
0001
,
1000
0100
1001
0100
,
1000
0001
1000
0001
0100
0001
0100
0010
,
1001
0000
0100
0000
0010
1000
0010
0000
,
0100
0000
0001
1000
0001
0100
0010
1000
,
0010
0000
0100
0000
0001
1000
0001
0100
,
0010
0000
1000
0000
0010
0000
0100
0000
0000
0000
0001
0000
1000
0000
0001
1000
,
0001
0000
1000
0000
0010
1000
0010
0100
,
0110
0000
0001
0000
1000
0010
0100
0001
,
1001
1000
1010
0010
,
0100
0001
0100
0010
0100
0001
1000
0001
,
1000
0000
1001
0000
0001
1000
0001
0000
,
0010
0100
0010
0001
1000
0000
0002
0000
,
0013
0000
1001
0000
0010
1000
0100
0000
,
0001
0000
1000
1000
0020
0000
0230
0000
,
0301
0000
1001
0000
0100
0001
0010
0000
,
0001
1000
0010
1000
0001
0000
0200
0000
,
0301
0000
1001
0000
0010
1000
0001
0000
,
0010
0000
0001
1000
0020
0000
0130
0000
,
1000
0000
0000
0010
0000
0000
1000
0000
0000
0001
0000
0000
0010
0000
0100
0000
,
1000
0000
0000
0001
0000
0000
1000
0000
0000
0010
0000
0000
0100
0000
0001
0000
,
1000
0000
0000
0010
0000
0000
0100
0000
0000
0010
0000
0000
1000
0000
0010
0000
,
0200
0301
0020
0031
,
1000
0010
0000
1000
0010
0000
1000
0010
0000
1000
0010
0000
1000
0000
0100
0000
,
0010
0001
0000
0010
0001
0000
0010
0001
0000
0010
0001
0000
1000
0000
0010
0000
,
0100
0001
0000
0100
0001
0000
0100
0001
0000
0100
0001
0000
0100
0000
0010
0000
,
2000
3100
0020
0031
,
1000
0100
1001
0010
,
1000
0100
0010
0001
0010
0100
1000
0001
,
1000
0010
1010
0100
,
0001
0010
0100
1000
0001
0010
0100
0010
,
0001
0100
1010
0100
,
0001
0100
1000
0100
0001
0010
0100
1000
,
0001
1000
0101
0010
,
1000
0010
1000
0010
0100
0001
0010
0100
,
1000
0000
0010
0000
1001
0000
0001
0100
,
0010
0100
0001
1000
0001
1000
0100
0010
,
0001
0000
0100
0000
1010
0000
0100
0010
,
0100
0001
1000
0100
0001
0100
1000
0001
,
1000
0000
0100
0000
0101
0000
0010
0100
,
0010
1000
0100
1000
0001
0100
1000
0100
,
0001
1000
1010
0001
,
1000
0100
0010
0001
1000
0100
0001
0100
,
1000
0010
0110
0101
,
1000
0010
1000
0001
1000
0010
0100
0001
,
1000
0010
0110
1010
,
0001
1000
0100
1000
0001
0100
0010
0100
,
0001
0100
0101
1001
,
0001
0010
0100
1000
0001
0100
0010
1000
,
0001
0010
1001
0100
,
0010
0000
1000
0000
0010
1000
0010
0000
0100
0000
0001
0000
0100
0001
0100
0000
,
0010
1000
1010
1001
,
0100
0010
1000
0010
0100
0001
0100
0010
,
1000
0010
0101
1100
,
0001
1000
0001
0100
0010
0100
0001
0010
,
0001
1000
0001
0010
0100
1000
0010
1000
,
0001
1000
0100
0001
0100
1000
0001
1000
,
1001
0100
1010
0001
,
1000
0100
0010
0001
0010
0100
2000
0000
,
3001
0000
0000
0000
;

//---------------dance-single - ----------------
#NOTES:
     dance-single:
     :
     Beginner:
     3:
     0.194099,0.347873,0.093703,0.031234,0.000000,174.000000,162.000000,12.000000,4.000000,0.000000,0.000000,0.194099,0.347873,0.093703,0.031234,0.000000,174.000000,162.000000,12.000000,4.000000,0.000000,0.000000:
// measure 0
0000
0000
0000
0000
,  // measure 1
0000
0000
0000
0000
,  // measure 2
0000
0000
0000
0000
,  // measure 3
0000
0000
0000
0000
,  // measure 4
0000
0000
0000
0000
,  // measure 5
0000
0000
0000
0000
,  // measure 6
0000
0000
0000
0000
,  // measure 7
0000
0000
0000
0000
,  // measure 8
0000
0000
0000
0000
,  // measure 9
0000
0000
0000
0000
,  // measure 10
1000
0000
0000
0000
,  // measure 11
0000
0000
0000
0000
,  // measure 12
0001
0000
0000
0000
,  // measure 13
0000
0000
0000
0000
,  // measure 14
0100
0000
0000
0000
,  // measure 15
0000
0000
0000
0000
,  // measure 16
0010
0000
0000
0000
,  // measure 17
0000
0000
0000
0000
,  // measure 18
1001
0000
0000
0000
,  // measure 19
0000
0000
0000
0000
,  // measure 20
1000
0000
0000
0000
,  // measure 21
0000
0000
0000
0000
,  // measure 22
0001
0000
0000
0000
,  // measure 23
0000
0000
0000
0000
,  // measure 24
0100
0000
0000
0000
,  // measure 25
0000
0000
0000
0000
,  // measure 26
1001
0000
0000
0000
,  // measure 27
0000
0000
0000
0000
,  // measure 28
1001
0000
0000
0000
,  // measure 29
0000
0000
0000
0000
,  // measure 30
1001
0000
0000
0000
,  // measure 31
1001
0000
0000
0000
,  // measure 32
1001
0000
1000
0000
,  // measure 33
0001
0000
0001
0000
,  // measure 34
1000
0000
0000
0000
,  // measure 35
1001
0000
1000
0000
,  // measure 36
0001
0000
0001
0000
,  // measure 37
0100
0000
0010
0000
,  // measure 38
1000
1000
1000
0000
,  // measure 39
0010
0000
0010
0000
,  // measure 40
0100
0000
0100
0000
,  // measure 41
0001
0000
1000
0000
,  // measure 42
0001
0001
0001
0000
,  // measure 43
1000
0000
1000
0000
,  // measure 44
0010
0000
0010
0000
,  // measure 45
0100
0000
0001
0000
,  // measure 46
1000
1000
1000
0000
,  // measure 47
1001
0000
0000
0000
,  // measure 48
0110
0000
0000
0000
,  // measure 49
1001
0000
1001
0000
,  // measure 50
1000
1000
0001
0001
,  // measure 51
1000
0000
1000
0000
,  // measure 52
0001
0000
0001
0000
,  // measure 53
0100
0000
0100
0000
,  // measure 54
0010
0000
0010
0000
,  // measure 55
1000
0000
1000
0000
,  // measure 56
0100
0000
0100
0000
,  // measure 57
0001
0000
0001
0000
,  // measure 58
0100
0000
0100
0000
,  // measure 59
1000
1000
1000
0000
,  // measure 60
0010
0010
0010
0000
,  // measure 61
0001
0001
0001
0000
,  // measure 62
0010
0000
1000
0000
,  // measure 63
0001
0001
0001
0000
,  // measure 64
0100
0100
0100
0000
,  // measure 65
1000
1000
1000
0000
,  // measure 66
0100
0000
0001
0000
,  // measure 67
1001
0000
0000
0000
,  // measure 68
0010
0000
1000
0000
,  // measure 69
0010
0000
0000
0000
,  // measure 70
0100
0000
0001
0000
,  // measure 71
0100
0000
0000
0000
,  // measure 72
0001
0000
1000
0000
,  // measure 73
0001
0000
0000
0000
,  // measure 74
1000
0000
0001
0000
,  // measure 75
2000
0000
3000
0000
,  // measure 76
0002
0000
0003
0000
,  // measure 77
2000
0000
3000
0000
,  // measure 78
0020
0000
0030
0000
,  // measure 79
1000
0000
1000
0000
,  // measure 80
0001
0000
0001
0000
,  // measure 81
0010
0000
0010
0000
,  // measure 82
1000
1000
1000
1000
,  // measure 83
0001
0000
1000
0000
,  // measure 84
0010
0010
0010
0000
,  // measure 85
0100
0000
0001
0000
,  // measure 86
1000
1000
1000
0000
,  // measure 87
0010
0000
0100
0000
,  // measure 88
0001
0001
0001
0000
,  // measure 89
1000
0000
0001
0000
,  // measure 90
1000
0001
1000
0001
,  // measure 91
1000
0000
0010
0000
,  // measure 92
0100
0100
0001
0001
,  // measure 93
0100
0000
0010
0000
,  // measure 94
1000
1000
0010
0010
,  // measure 95
1000
0000
0001
0000
,  // measure 96
1000
1000
0010
0010
,  // measure 97
1000
0000
0001
0000
,  // measure 98
1000
0001
1000
0001
,  // measure 99
0100
0000
0000
0000
;
