#TITLE:Celluloid;
#SUBTITLE:;
#ARTIST:煉獄小僧;
#TITLETRANSLIT:;
#SUBTITLETRANSLIT:;
#ARTISTTRANSLIT:;
#GENRE:;
#CREDIT:;
#BANNER:Celluloid.png;
#BACKGROUND:Celluloid-bg.png;
#LYRICSPATH:;
#CDTITLE:;
#MUSIC:Celluloid.ogg;
#OFFSET:-0.003000;
#SAMPLESTART:63.877998;
#SAMPLELENGTH:15.000000;
#SELECTABLE:YES;
#BPMS:0.000000=240.000000
,128.000000=120.000000
,160.000000=240.000000
;
#STOPS:
;
#BGCHANGES:;
#KEYSOUNDS:;
#ATTACKS:;

//---------------dance-single - ----------------
#NOTES:
     dance-single:
     :
     Beginner:
     5:
     0.185065,0.272727,0.000000,0.128788,0.000000,171.000000,171.000000,0.000000,17.000000,0.000000,0.000000,0.185065,0.272727,0.000000,0.128788,0.000000,171.000000,171.000000,0.000000,17.000000,0.000000,0.000000:
0000
0000
0000
0000
,
0000
0000
0000
0000
,
0000
0000
0000
0000
,
0000
0000
0000
0000
,
0000
0000
0000
0000
,
0000
0000
0000
0000
,
0000
0000
0000
0000
,
0000
0000
0000
0000
,
2000
0000
0000
0000
,
0000
0000
0000
0000
,
0000
0000
0000
0000
,
3000
0000
0000
0000
,
0002
0000
0000
0000
,
0000
0000
0000
0000
,
0000
0000
0000
0000
,
0003
0000
0000
0000
,
1000
0000
0000
0000
,
0001
0000
0001
0000
,
0001
0000
0000
0000
,
0100
0000
0100
0000
,
0100
0000
0000
0000
,
1000
0000
1000
0000
,
1000
0000
0000
0000
,
0010
0000
1000
0000
,
0010
0000
0000
0000
,
0100
0000
0001
0000
,
0100
0000
0000
0000
,
0010
0000
1000
0000
,
0010
0000
0000
0000
,
1000
0000
0001
0000
,
1000
0000
0000
0000
,
0001
0000
1000
0000
,
0010
0000
1000
0000
,
0001
0000
1000
0000
,
0010
0000
1000
0000
,
0001
0001
0002
0003
,
0100
0000
1000
0000
,
0100
0000
0001
0000
,
1000
0000
0001
0000
,
0100
0100
0200
0300
,
0001
0000
0001
0000
,
0001
0000
1000
0000
,
0020
0000
0000
0000
,
0030
0000
0000
0000
,
0100
0000
0100
0000
,
0100
0000
0001
0000
,
2000
0000
3000
0000
,
0020
0000
0030
0000
,
0100
0000
0100
0000
,
0001
0000
1000
0000
,
0002
0000
0000
0000
,
1003
0000
0000
0000
,
0100
0000
0100
0000
,
0010
0000
1000
0000
,
0002
0000
1003
0000
,
0001
0000
1000
0000
,
0001
0000
0001
0000
,
1000
0000
1000
0000
,
0010
0000
0010
0000
,
0100
0000
0001
0000
,
2000
0000
0000
0000
,
3002
0000
0003
0000
,
0100
0000
0001
0000
,
1000
0000
0001
0000
,
1000
0000
0010
0000
,
0010
0000
1000
0000
,
1000
0000
0001
0000
,
1000
0000
0001
0000
,
2000
0000
0000
0000
,
3020
0000
0030
0000
,
1000
0000
1000
0000
,
0001
0000
0100
0000
,
0002
0000
0000
0000
,
0000
0000
0000
0000
,
0003
0000
0000
0000
,
0000
0000
0000
0000
,
0000
0000
0000
0000
,
0000
0000
0000
0000
,
0000
0000
0000
0000
,
0000
0000
0000
0000
,
2000
0000
0000
0000
,
0000
0000
3000
0000
,
0002
0000
0000
0000
,
0000
0000
0003
0000
,
0100
0000
0000
0000
,
0001
0000
0000
0000
,
1000
0000
0001
0000
,
1000
0000
0001
0000
,
1000
0000
1000
0000
,
0001
0000
0001
0000
,
2000
0000
3010
0000
,
0001
0000
0001
0000
,
0100
0000
0001
0000
,
1000
0000
1000
0000
,
0010
0000
0100
0000
,
0001
0000
0001
0000
,
1000
0000
0010
0000
,
1000
0000
0010
0000
,
0100
0000
0001
0000
,
0100
0000
0001
0000
,
1000
0000
0010
0000
,
0100
0000
0010
0000
,
1000
0000
0001
0000
,
0010
0000
0100
0000
,
1000
0000
0001
0000
,
1000
0000
0001
0000
,
1000
0000
0100
0000
,
0001
0000
0100
0000
,
1000
0000
0010
0000
,
1000
0000
0010
0000
,
0001
0000
0100
0000
,
0010
0000
1000
0000
,
0001
0000
0100
0000
,
0010
0000
1000
0000
,
0001
0000
0010
0000
,
0100
0000
0010
0000
,
0001
0000
1000
0000
,
0001
0000
1000
0000
,
0010
0000
0100
0000
,
0001
0000
0100
0000
,
1000
0000
0000
0000
;

//---------------dance-single - ----------------
#NOTES:
     dance-single:
     :
     Easy:
     7:
     0.335498,0.462121,0.037879,0.083333,0.007576,310.000000,305.000000,5.000000,11.000000,0.000000,0.000000,0.335498,0.462121,0.037879,0.083333,0.007576,310.000000,305.000000,5.000000,11.000000,0.000000,0.000000:
0000
0000
0000
0000
,
0000
0000
0000
0000
,
0000
0000
0000
0000
,
0000
0000
0000
0000
,
0000
0000
0000
0000
,
0000
0000
0000
0000
,
0000
0000
0000
0000
,
0000
0000
0000
0000
,
1000
0000
1000
0000
,
1000
0000
1000
0000
,
0001
0000
0001
0000
,
0001
0000
0001
0000
,
0010
0000
0010
0000
,
0010
0000
0010
0000
,
1000
0000
1000
0000
,
1000
0001
1000
0000
,
0010
0000
1000
0000
,
0001
1000
0001
1000
,
0001
0000
0100
0000
,
0010
1000
0010
1000
,
0001
0000
0100
0000
,
0001
1000
0010
1000
,
0010
0000
0100
0000
,
0001
0000
0000
1000
0000
0000
0001
0000
,
0100
0000
0010
0000
,
1000
0001
1000
0001
,
0100
0000
0010
0000
,
1000
0100
1000
0100
,
0010
0000
0001
0000
,
0100
0001
0100
0001
,
1000
0000
0100
1000
,
0001
1000
0001
1000
,
0010
1000
0010
0010
,
0100
0001
0100
0100
,
0020
1030
0002
1003
,
0010
0000
0000
1000
0000
0000
0010
0000
0200
0000
0000
0000
0300
0000
0000
0000
,
0010
1000
0001
0001
,
0100
0010
1000
1000
,
0002
0103
0020
1030
,
0100
0000
0000
0001
0000
0000
0100
0000
0020
0000
0000
0000
0030
0000
0000
0000
,
1001
0000
0010
0000
,
0100
0000
0001
0000
,
1001
0000
0100
0000
,
0010
0000
1000
0001
,
1000
0000
0010
0000
,
0100
0000
0001
0000
,
2000
0000
0010
0000
,
3002
0000
0100
0003
,
1001
0000
0010
0000
,
0100
0000
0010
0000
,
1001
0000
0100
0000
,
0010
0000
1000
0001
,
1000
0000
0010
0000
,
0100
0010
0100
0001
,
1000
0000
0000
0010
0000
0000
0100
0000
,
0001
1000
0001
0000
,
0000
0100
0000
0001
,
0000
1000
0010
1000
,
0000
0010
0000
0100
,
0000
0001
1000
0001
,
0000
0100
0000
0010
,
1000
0010
0100
0010
,
0000
1000
0000
0001
,
1000
0001
0100
0010
,
0000
1000
0000
0001
,
0000
1000
0001
1000
,
0000
0010
0000
0100
,
0000
0001
1000
0001
,
0000
0100
0000
0010
,
0000
1000
0001
1000
,
0000
0010
0000
0100
,
0010
1000
0010
0100
,
0002
0000
0000
0000
,
0000
0000
0000
0000
,
0003
0000
0000
0000
,
0000
0000
0000
0000
,
0000
0000
0000
0000
,
0000
0000
0000
0000
,
0000
0000
0000
0000
,
0000
0000
0000
0000
,
1000
0001
1000
0000
,
0000
0001
1000
0000
,
0010
1000
0010
0000
,
0000
1000
0010
0000
,
0100
0001
0100
0000
,
0000
0001
1000
0000
,
0001
0100
0001
1000
,
0001
0000
1001
0000
,
0000
0010
0000
1000
,
0000
0001
0100
0001
,
0000
1000
0000
0010
,
0000
0100
0001
0100
,
0000
0010
0000
1000
,
0000
0010
0100
0010
,
0000
1000
0010
1000
,
0001
0100
0010
1000
,
0000
0010
0000
0100
,
0000
0001
1000
0001
,
0000
0100
0010
0100
,
0001
0100
0010
1000
,
0000
0001
1000
0001
,
0000
0100
0010
0100
,
0000
0010
1000
0010
,
0100
0001
0100
0010
,
2000
0001
0000
0001
,
0000
0001
0000
0001
,
3000
0010
1000
0010
,
0100
0010
0100
0001
,
0000
1000
0010
0100
,
0001
0100
0010
1000
,
0000
0001
0100
0010
,
1000
0000
0000
0001
0000
0000
0100
0000
,
0010
1000
0010
0100
,
0001
0100
0010
1000
,
0000
0010
0100
0010
,
1000
0100
0001
0100
,
1000
0010
0100
1000
,
0001
0100
1000
0100
,
0001
0100
0010
1000
,
0100
0010
0100
1000
,
0001
0000
0000
0200
0000
0000
0000
0000
,
0000
0000
0000
0000
,
0300
0000
0000
0000
;

//---------------dance-single - ----------------
#NOTES:
     dance-single:
     :
     Medium:
     11:
     0.391775,0.693182,0.075758,0.196970,0.007576,362.000000,352.000000,10.000000,26.000000,0.000000,0.000000,0.391775,0.693182,0.075758,0.196970,0.007576,362.000000,352.000000,10.000000,26.000000,0.000000,0.000000:
0000
0000
0000
0000
,
0000
0000
0000
0000
,
0000
0000
0000
0000
,
0000
0000
0000
0000
,
0000
0000
0000
0000
,
0000
0000
0000
0000
,
0000
0000
0000
0000
,
0000
0000
0000
0000
,
2001
0000
0001
0000
,
0001
0000
0001
0000
,
0001
0000
0001
0000
,
0001
0000
0000
0000
,
3002
0000
1000
0000
,
1000
0000
1000
0000
,
1003
0001
1000
0010
,
0100
0010
1000
0000
,
0001
0010
0001
1000
,
0010
1000
0100
0010
,
0001
0010
0001
0100
,
1000
0001
0010
0100
,
1000
0010
1000
0100
,
1000
0100
0010
0100
,
1000
0001
1000
0001
,
0100
0010
1000
0010
,
0100
0010
0100
0001
,
0010
0100
1000
0010
,
0100
0010
1000
0010
,
0100
0001
0100
1000
,
0010
0100
0010
0100
,
0001
1000
0001
0010
,
1000
0010
1000
0010
,
0100
0001
0200
0000
,
0310
0000
1000
0000
0001
0100
0001
0000
,
0100
0000
0010
0000
1000
0001
1000
0000
,
0010
0100
0010
0000
0100
0010
1000
0010
,
1000
0000
0000
0001
0000
0000
0100
0000
0200
0000
0000
0000
0000
0000
0000
0000
,
0300
0000
0001
1000
0001
0100
0010
0000
,
1000
0000
0010
1000
0010
0100
0010
0000
,
1000
0100
0001
0100
0001
0100
0010
1000
,
0002
0000
0000
0203
0000
0000
0310
0000
2000
0000
0000
0000
3000
0000
0000
0000
,
0002
0000
0000
0103
0000
0000
0020
0000
,
0000
0000
1030
0000
,
0002
0000
0000
0000
,
0000
0000
0003
0000
,
0200
0000
0000
0310
0000
0000
2000
0000
,
0000
0000
3001
1000
,
0001
0100
0010
0100
,
0001
0010
0100
1000
,
1001
0000
0000
0100
0000
0000
0020
0000
,
0000
0000
1030
0000
,
0002
0000
0000
0000
,
0000
0000
0003
0000
,
0100
0000
0000
0010
0000
0000
2000
0000
,
0000
0000
3002
0000
,
0103
0000
0000
0010
0000
0000
1000
0000
,
0001
0000
0100
0000
0001
0000
0000
1001
,
0000
0010
0100
0010
,
1000
0001
0100
0010
,
1000
0001
0002
0000
,
1003
0000
0010
0000
0100
0000
0000
0002
,
0000
1000
0000
1003
,
0010
0000
0100
0000
0010
0000
0000
1000
,
0000
0001
1000
0010
,
1000
0000
0010
0000
0101
0000
0000
1001
,
0000
0010
0100
0010
,
1000
0100
0001
0100
,
0010
0100
0002
0000
,
1003
0000
0010
0000
0100
0000
0000
0020
,
0000
1000
0000
1030
,
0001
0000
0100
0000
0010
0000
0000
2000
,
0000
3001
0100
0010
,
1000
0010
0001
0100
,
2000
0000
0000
0000
,
0000
0000
0000
0000
,
3001
0000
0000
0000
,
0000
0000
0000
0000
,
1000
0000
0000
0000
,
0000
0000
0000
0000
,
0010
0000
0000
0000
,
0000
0000
0000
0000
,
1000
0000
0000
0000
,
1000
0000
0000
0000
,
0010
0000
0000
0000
,
0010
0000
0000
0000
,
0100
0000
0000
0000
,
0100
0000
0000
0000
,
0001
0000
0000
0000
,
0001
0000
0000
0000
0101
0000
0000
1001
,
0000
1000
0010
0100
,
0001
0000
0100
0000
0010
1000
0000
0001
,
0000
1000
0010
0100
,
0010
0000
0100
0000
0001
1000
0000
0010
,
0000
0100
0001
0100
,
0010
0000
0100
0000
0001
1000
0000
0020
,
0000
0130
0001
0100
,
0010
0000
1000
0000
0001
0000
0000
1001
,
0000
0100
0010
0100
,
0001
0000
1000
0000
0010
0100
0000
0001
,
0000
1000
0010
1000
,
0100
0000
0010
0000
0001
0100
0000
0010
,
0000
1000
0010
1000
,
0001
0000
1000
0000
0010
0100
0000
0001
,
0000
1000
0010
1000
,
0100
1000
0010
0100
,
0002
1000
0000
1000
,
0000
0010
0000
0010
,
1003
0010
0100
0001
,
0100
0010
1000
1000
,
0010
0100
0001
0100
,
0010
1000
0001
0001
,
0100
0010
1000
0001
,
0100
0010
1000
1000
,
0001
0000
0100
0000
0010
0000
1000
0001
,
0000
0000
1000
0001
0000
0000
1000
0000
,
0010
0000
0100
0000
0001
0000
1000
0010
,
0000
0000
1000
0010
0000
0000
0100
0000
,
0001
0000
1000
0000
0010
0000
0100
0001
,
0000
0000
0100
0001
0000
0000
0100
0000
,
0010
1000
0001
1000
,
0010
0100
0001
0001
,
1010
0000
0000
2002
0000
0000
0000
0000
,
0000
0000
0000
0000
,
3003
0000
0000
0000
;

//---------------dance-single - ----------------
#NOTES:
     dance-single:
     :
     Hard:
     15:
     0.647186,0.831818,0.257576,0.310606,0.037879,598.000000,564.000000,34.000000,41.000000,0.000000,0.000000,0.647186,0.831818,0.257576,0.310606,0.037879,598.000000,564.000000,34.000000,41.000000,0.000000,0.000000:
// measure 0
0000
0000
0000
0000
,  // measure 1
0000
0000
0000
0000
,  // measure 2
0000
0000
0000
0000
,  // measure 3
0000
0000
0000
0000
,  // measure 4
0000
0000
0000
0000
,  // measure 5
0000
0000
0000
0000
,  // measure 6
0000
0000
0000
0000
,  // measure 7
0000
0000
0000
0000
,  // measure 8
1001
0000
1000
0000
,  // measure 9
1000
0000
1000
0001
,  // measure 10
1000
0000
0010
0000
,  // measure 11
0010
0000
0010
1000
,  // measure 12
0010
0000
0100
0000
,  // measure 13
0100
0000
0100
0001
,  // measure 14
0100
0000
0010
0000
0100
0000
0001
1000
,  // measure 15
0000
0010
0100
0010
1000
0000
0000
0000
,  // measure 16
1001
0000
0010
1000
0010
1000
0010
1000
,  // measure 17
0000
0001
0100
0001
0000
1000
0010
0000
,  // measure 18
0101
0000
0010
1000
0010
1000
0010
0100
,  // measure 19
0000
0010
1000
0001
0000
0100
0001
0000
,  // measure 20
1010
0000
0100
0001
0100
0001
0100
0010
,  // measure 21
0000
1000
0010
0100
0000
0001
0100
0000
,  // measure 22
1010
0000
0001
1000
0001
1000
0010
1000
,  // measure 23
0000
0001
0100
0010
0100
0001
1000
0001
,  // measure 24
1001
0000
0010
1000
0010
0100
0001
0100
,  // measure 25
0000
0010
1000
0010
0000
0100
0001
0000
,  // measure 26
1010
0000
0100
0001
0100
0010
1000
0010
,  // measure 27
0000
0100
0010
1000
0000
0001
0100
0000
,  // measure 28
1010
0000
0100
0001
0100
0010
1000
0001
,  // measure 29
0000
0100
0010
0100
0000
0001
1000
0000
,  // measure 30
0101
0000
0010
1000
0010
0100
0001
0100
,  // measure 31
0000
0010
1000
0010
0100
0001
0100
0000
,  // measure 32
0020
0000
0000
0000
1030
0000
0001
0200
0000
0000
0310
0000
1000
0000
0000
0000
,  // measure 33
0001
0000
0100
0000
0010
0000
0100
0002
0000
0000
1003
0000
0010
0000
0100
0000
,  // measure 34
0001
0000
0100
0000
0010
0000
1000
0002
0000
0000
0013
0000
0100
0000
0010
0000
,  // measure 35
0002
0000
0000
2003
0000
0000
3010
0000
0200
0000
0000
0000
0000
0000
0000
0000
,  // measure 36
0300
0000
0000
0000
0001
0000
1000
0020
0000
0000
0130
0000
0002
0000
0000
0000
,  // measure 37
1003
0000
0010
0000
0100
0000
0010
2000
0000
0000
3010
0000
0002
0000
0000
0000
,  // measure 38
0103
0000
0010
0000
1000
0001
0100
0020
0000
0000
1030
0010
2000
0000
3001
0000
,  // measure 39
0200
0000
0000
0302
0000
0000
1003
0000
0020
0000
0000
0000
0000
0000
0030
0000
,  // measure 40
0101
0000
0000
1000
0010
0000
0200
0000
,  // measure 41
0000
0000
0320
0000
,  // measure 42
2030
0000
0001
0000
,  // measure 43
0001
0000
3100
0000
,  // measure 44
0101
0000
0000
0110
0000
0000
2000
0000
,  // measure 45
0000
0000
3020
0000
,  // measure 46
2030
0000
0000
0000
,  // measure 47
3002
0000
0000
0003
,  // measure 48
1010
0000
0001
0100
0000
0010
1000
0000
,  // measure 49
0001
0100
0010
0100
0002
0000
0100
0000
,  // measure 50
2003
0010
0001
0010
,  // measure 51
0010
0001
3010
0100
,  // measure 52
1010
0000
0000
0011
0000
0000
0100
0000
,  // measure 53
0001
0000
0100
0000
0010
0000
1000
0010
,  // measure 54
0100
0010
0000
1000
0001
0100
0000
0001
,  // measure 55
0100
0000
1010
0000
0101
0000
0000
1001
,  // measure 56
0000
0000
0100
0000
0010
1000
0000
1000
,  // measure 57
0001
0000
1000
0000
0010
0100
0000
0002
,  // measure 58
0000
0000
1003
0010
2000
0000
3001
0000
,  // measure 59
0100
0010
0100
0000
0001
1000
0000
1010
,  // measure 60
0000
0000
0100
0000
0001
1000
0001
0000
,  // measure 61
0100
0000
0010
0000
1000
0010
0100
0001
,  // measure 62
0000
0000
0100
0001
0100
0000
0010
0000
,  // measure 63
1000
0001
1000
0010
0100
0010
1000
0001
,  // measure 64
0000
0000
0100
0001
0100
0010
0000
1000
,  // measure 65
0010
0000
0010
0000
0100
0001
0100
0020
,  // measure 66
0000
0000
1030
0001
1000
0000
0010
0000
,  // measure 67
0100
0001
0100
0000
0010
1000
0001
0200
,  // measure 68
0000
0010
0001
0310
,  // measure 69
1000
0010
1000
0001
0100
0010
0100
0002
,  // measure 70
0000
0000
1003
0010
0100
0000
0010
0000
,  // measure 71
1000
0001
1010
0101
,  // measure 72
2002
0000
0000
0000
,  // measure 73
0000
0000
0000
0000
,  // measure 74
3003
0000
0000
0000
,  // measure 75
0000
0000
0000
0000
,  // measure 76
1000
0010
1000
0001
,  // measure 77
0000
0100
0001
0000
,  // measure 78
0100
0010
0100
0001
,  // measure 79
0000
1000
0010
0100
,  // measure 80
0001
0100
0001
0000
1000
0010
0000
0101
,  // measure 81
0000
0000
1000
0010
0100
0000
0001
0000
,  // measure 82
0100
0010
1000
0000
0001
0100
0000
1010
,  // measure 83
0000
0000
0010
1000
0001
0000
0100
0000
,  // measure 84
0010
1000
0010
0100
0001
0000
1000
0010
,  // measure 85
0000
0000
0100
0001
0100
0000
1010
0000
,  // measure 86
0100
0001
0100
0010
0100
0001
0010
0100
,  // measure 87
1000
0001
1000
0010
0100
0000
0000
1001
,  // measure 88
0000
0000
0100
0001
0100
0010
0000
1000
,  // measure 89
0010
0000
0100
0000
0001
0100
0010
2000
,  // measure 90
0000
0000
3010
0100
0002
0000
0100
0000
,  // measure 91
1003
0010
1000
0000
0001
0100
0001
2000
,  // measure 92
0100
0001
0100
3010
,  // measure 93
0100
0010
0100
0001
0100
0010
0000
1010
,  // measure 94
0000
0000
1000
0010
1000
0000
0002
0000
,  // measure 95
0103
0010
0100
0010
1000
0010
0100
0002
,  // measure 96
0000
0000
1003
0010
1000
0001
0100
0010
,  // measure 97
2000
0000
3001
0000
0100
0010
0100
0002
,  // measure 98
0000
0000
1003
0010
1000
0000
0010
0000
,  // measure 99
0100
0001
0100
0010
1000
0010
0000
0101
,  // measure 100
0000
0000
0010
1000
0010
0000
0100
0010
,  // measure 101
1000
0001
0100
0000
0010
1000
0000
1010
,  // measure 102
0000
0000
0100
0001
0100
0000
0010
0000
,  // measure 103
1000
0010
0100
0010
1000
0100
0001
0100
,  // measure 104
1000
0000
0001
0100
0010
0100
0010
1000
,  // measure 105
0000
0001
0100
0001
0000
1000
0010
0000
,  // measure 106
0101
0000
0010
1000
0010
0100
0001
1000
,  // measure 107
0000
0010
1000
0010
0000
0100
0001
0000
,  // measure 108
0101
0000
0010
0100
0010
1000
0001
0100
,  // measure 109
0000
0010
1000
0010
0000
0100
0001
0000
,  // measure 110
1001
0000
0010
0100
0010
1000
0001
1000
,  // measure 111
0000
0010
0100
0001
1000
0010
0100
0001
,  // measure 112
1000
0010
1000
0001
0100
0010
1000
0010
,  // measure 113
0000
0100
0001
0100
0000
0010
1000
0000
,  // measure 114
1010
0000
0100
0001
0100
0010
1000
0010
,  // measure 115
0000
0100
0001
0100
0000
0010
1000
0000
,  // measure 116
0001
0100
0010
1000
0001
0010
0100
1000
,  // measure 117
0000
0010
0100
0001
0000
1000
0010
0000
,  // measure 118
0100
0010
1000
0100
0001
0100
0010
0001
,  // measure 119
0000
0100
0001
0100
0010
1000
0010
0100
,  // measure 120
0001
0000
0000
2002
0000
0000
0000
0000
,  // measure 121
0000
0000
0000
0000
,  // measure 122
3003
0000
0000
0000
;
